
//----- song ID: hpga -----//
#TITLE:HAPPY☆PARADISE☆GALAXY;
#ARTIST:DJ(GW+ミラクル☆ストーン)÷2;
#TITLETRANSLIT:HAPPY PARADISE GALAXY;
#ARTISTTRANSLIT:DJ (GW + Miracle☆Stone) ÷2;
#BANNER:HAPPY PARADISE GALAXY.png;
#BACKGROUND:HAPPY PARADISE GALAXY-bg.png;
#CDTITLE:./CDTitles/REFLEC BEAT Reflesia.png;
#MUSIC:HAPPY PARADISE GALAXY.ogg;
#SAMPLESTART:66.978;
#SAMPLELENGTH:15;
#BPMS:0=182;
#BGSTAGE:31;
#NOTES:
     dance-single:
     :
     Beginner:
     4:
     :
0000
0000
0000
0000
,
0000
0000
0000
0000
,
0000
0000
0000
0000
,
0000
0000
0000
0000
,
0000
0000
0000
0000
,
0000
0000
0000
0000
,
0000
0000
0000
0000
,
0000
0000
0000
0000
,
0000
0000
0000
0000
,
0001
0000
0000
0000
,
0001
0000
0000
0000
,
0001
0000
0000
0000
,
0001
0000
0000
0000
,
1000
0000
0000
0000
,
1000
0000
0000
0000
,
1000
0000
0000
0000
,
1000
0000
0000
0000
,
1000
0000
0001
0000
,
0010
0000
0010
0000
,
0001
0000
1000
0000
,
0010
0000
0000
0000
,
1000
1000
0000
0000
,
0010
0000
0010
0000
,
1000
0000
0001
0000
,
0010
0000
0010
0000
,
0001
0000
1000
0000
,
0100
0000
0100
0000
,
1000
0000
0001
0000
,
0100
0000
0000
0000
,
0010
0010
0000
0000
,
0100
0000
0100
0000
,
0001
0000
1000
0000
,
0100
0000
0000
0000
,
1000
0000
0000
0000
,
0001
0000
0000
0000
,
0100
0000
0000
0000
,
0010
0000
0000
0000
,
0100
0000
0000
0000
,
0001
0000
0000
0000
,
1000
0000
0000
0000
,
0001
0000
0000
0000
,
0100
0000
0100
0000
,
0100
0000
0100
0000
,
0100
0000
0100
0000
,
0100
0000
0100
0000
,
0100
0000
0000
0000
,
0010
0000
0000
0000
,
0110
0000
0000
0000
,
1001
0000
0000
0000
,
0220
0000
0000
0000
,
0330
0000
0000
0000
,
1001
0000
0000
0000
,
0001
0000
0000
0000
,
1000
0000
0000
0000
,
0001
0000
0000
0000
,
1000
0000
0000
0000
,
0001
0000
0000
0000
,
1000
0000
0000
0000
,
0001
0000
0000
0000
,
1001
0000
1000
0000
,
1000
0000
0000
0000
,
0001
0000
0001
0000
,
0001
0000
0000
0000
,
0100
0000
0100
0000
,
0010
0000
0010
0000
,
1000
0000
0001
0000
,
1000
0000
0000
0000
,
0010
0010
0010
0000
,
0000
0000
0000
0000
,
1000
0000
0001
0000
,
0100
0000
0001
0000
,
1000
0000
0001
0000
,
0010
0000
0000
0000
,
0001
0000
1000
0000
,
0010
0000
0000
0000
,
1001
0000
1001
0000
,
1001
0000
0000
0000
,
1000
0000
0001
0000
,
0100
0000
0010
0000
,
0100
0000
0001
0001
,
0000
0000
0000
0000
,
0001
0000
1000
0000
,
0010
0000
0000
0000
,
0110
0000
0110
0000
,
0110
0000
0000
0000
,
1001
0000
1001
0000
,
1001
0000
0000
0000
,
0110
0000
0110
0000
,
0110
0000
0000
0000
,
1001
0000
0000
0000
,
0020
0000
0000
0000
,
0000
0000
0000
0000
,
0030
0000
0000
0000
,
0000
0000
0000
0000
;
#NOTES:
     dance-single:
     :
     Easy:
     8:
     :
0000
0000
0000
0000
,
0000
0000
0000
0000
,
0000
0000
0000
0000
,
0000
0000
0000
0000
,
0000
0000
0000
0000
,
0000
0000
0000
0000
,
0000
0000
0000
0000
,
0000
0000
0000
0000
,
0000
0000
0000
0000
,
0001
0000
0001
0000
,
0100
0000
0100
0000
,
0010
0000
0010
0000
,
1000
0000
1000
0000
,
0100
0100
1000
1000
,
0001
0001
0010
0010
,
0110
1100
0011
1001
,
0220
0000
0000
0330
,
1001
1000
0010
0100
,
0001
0010
0001
1000
,
0010
0100
0001
1000
,
0001
0010
0001
1000
,
0010
0100
0010
0000
1000
0000
0001
0000
,
0010
0001
1000
0010
,
0100
0001
0010
0100
,
1100
0000
1100
0000
1000
0000
0001
0010
,
0001
1000
0010
0100
,
0001
1000
0100
0010
,
0001
0010
0100
1000
,
0001
0100
0010
0100
,
0001
1000
0001
0000
0100
0000
0010
0000
,
0100
0001
0010
0001
,
1001
1001
0110
0110
,
0002
2003
3020
0030
,
0100
0001
1000
0000
,
1000
0100
0010
0000
,
0010
0100
1000
0000
,
1000
0010
0100
0000
,
0001
0100
1000
0000
,
1000
0100
0001
0000
,
0001
0010
0100
0000
,
2000
3000
0002
0003
,
0100
0100
0010
0010
,
0100
0100
0010
0010
,
1000
1000
0001
0001
,
1000
1000
0001
0001
,
0022
0033
1001
0000
,
2200
3300
1001
0000
,
0110
0000
1001
0000
,
0110
1001
0110
1000
,
0002
0000
0000
0000
,
0003
0000
0000
0000
,
2000
0000
0001
0000
,
0100
0000
0010
0000
,
0001
0000
0100
0000
,
0010
0000
3001
0000
,
0002
0000
1000
0000
,
0010
0000
0100
0000
,
1000
0000
0010
0000
,
0100
0000
1003
0000
,
1100
1000
1000
1000
,
0001
0001
0001
0100
,
0010
0010
0010
1000
,
0001
0001
0010
0100
,
1100
0000
1010
0000
,
0101
0000
0011
0000
,
1001
0100
1001
0010
,
0200
0000
0000
0300
,
1001
0000
0001
0000
0100
0010
0000
1000
,
0000
1000
0000
0010
0100
0000
0110
0000
,
0001
0000
0011
0000
1000
0000
0100
1000
,
0000
0010
0100
0001
,
0010
0000
0001
0000
1000
0000
0010
0100
,
0000
0001
0010
0100
,
1000
0000
0010
0000
1000
0000
0001
0100
,
0000
0001
0010
0100
,
1000
0100
1000
0000
0001
0010
0001
0000
,
0100
0010
0110
0000
,
1010
0000
0101
0000
0001
0000
0010
0001
,
0000
1000
0010
0100
,
0110
0000
1001
0000
1000
0000
0001
0100
,
0000
0020
0200
0330
,
0000
0000
1001
0000
1000
0000
0001
0100
,
0000
0010
0100
0001
,
1000
0100
1000
0000
0001
0010
0001
0000
,
1000
0010
0100
0000
,
0001
0010
0001
0000
1000
0100
1000
0000
,
0001
0100
0010
0000
,
1010
0000
0101
0000
,
0011
0010
0100
1000
,
0001
0100
0010
0100
,
0002
0000
0000
0000
,
0000
0000
0000
0000
,
0003
0000
0000
0000
,
0000
0000
0000
0000
;
#NOTES:
     dance-single:
     :
     Medium:
     13:
     :
0000
0000
0000
0000
,
0000
0000
0000
0000
,
0000
0000
0000
0000
,
0000
0000
0000
0000
,
0000
0000
0000
0000
,
0000
0000
0000
0000
,
0000
0000
0000
0000
,
0000
0000
0000
0000
,
0000
0000
0000
0000
,
2000
0000
0000
3000
,
0002
0000
0000
0003
,
0200
0000
0000
0300
,
0020
0000
0000
0030
,
1000
1000
0001
0001
,
0010
0010
0100
0100
,
1100
1001
0101
0110
,
0200
0000
0000
0300
0000
0000
0110
0000
,
0100
0001
0100
0001
0100
0010
0100
0010
,
0100
1000
0100
1000
0100
0010
0100
0010
,
0100
0001
0100
0001
0100
0010
0100
0010
,
0100
1000
0100
1000
0100
0000
0010
0000
,
0100
0100
0100
0000
0010
1000
0010
1000
,
0010
0100
0010
0100
0010
0001
0010
0001
,
0010
0100
0010
0100
0010
1000
0010
1000
,
0010
0110
1001
0000
,
0001
1000
0100
1000
0100
0010
0100
0010
,
0100
0001
0100
0001
0100
0010
0100
0010
,
0100
1000
0100
1000
0100
0010
0100
0010
,
0100
0001
0100
0001
0100
0000
0010
0000
,
0100
0100
0100
0000
0010
0001
0010
0001
,
0010
0100
0010
0100
0010
1000
0010
1000
,
0010
0100
0010
0100
0010
0001
0010
0001
,
0020
0230
2300
3000
,
0001
0100
0001
0010
,
0100
1000
0100
0010
,
0000
0001
0000
1000
,
0000
0000
0001
0000
1000
0100
0010
0000
,
0001
0000
0000
0001
0000
0000
0001
0000
1000
0000
0000
0000
0000
0000
0000
0000
,
0010
0000
0100
0010
,
0000
1000
0000
0001
,
0010
0000
0000
0010
0000
0000
0010
0000
0100
0000
0000
0100
0000
0000
0100
0000
,
1000
0000
0000
0000
0000
0000
0000
0000
0001
0000
0000
0001
0000
0000
0001
0000
,
1000
0000
0000
1000
0000
0000
1000
0000
0010
0000
0000
0000
0100
0000
0000
0000
,
0001
0000
0000
0001
0000
0000
0001
0000
1000
0000
0000
0000
0100
0000
0000
0000
,
0010
0000
0000
0010
0000
0000
0010
0000
0001
0000
0000
0000
1000
0000
0000
0000
,
2020
3030
1001
0000
,
0202
0303
1001
0000
,
0011
0000
0000
1000
0000
0000
0010
0000
0100
0000
0000
0100
0000
0000
0001
0000
,
1000
0000
0001
0000
0010
0100
1000
0010
,
0200
0000
0000
0000
,
0300
0000
0000
0000
,
0001
0000
0010
0000
0100
0000
0000
0000
1000
0000
0000
0100
0000
0000
1000
0000
,
0000
0000
0001
0000
0100
0000
0000
0000
0010
0000
0000
0100
0000
0000
0010
0000
,
0000
0000
1000
0000
0001
0000
0000
0000
0100
0000
0000
0010
0000
0000
0100
0000
,
0000
0000
0001
0000
1000
0000
0000
0000
0001
0000
0000
0010
0000
0000
0100
0000
,
0000
0000
1000
0000
0010
0000
0000
0000
0100
0000
0000
0001
0000
0000
0100
0000
,
0000
0000
0010
0000
1000
0000
0000
0000
0001
0000
0000
0010
0000
0000
0001
0000
,
0000
0000
1000
0000
1000
0000
0000
0000
0010
0000
0000
0100
0000
0000
0010
0000
,
0000
0000
1000
0000
1000
0000
0000
0000
0001
0000
0000
0100
0000
0000
0001
0000
,
0010
0010
0001
0001
,
1000
1000
0010
0010
,
0100
0100
0001
0001
,
1000
1000
0001
0001
,
1000
0010
1000
0010
0100
0001
0100
0000
,
0001
0010
0001
0010
0100
1000
0100
0000
,
1000
0001
0100
0010
0100
0001
1000
0010
,
0200
0000
0000
0300
,
0110
0000
1001
0000
0001
0010
0100
1000
,
0000
0010
0100
0001
1000
0000
1001
0000
,
0102
0000
0013
0000
0001
0100
0010
0001
,
0000
0010
1000
0100
0010
0000
0001
0000
,
2100
0000
3010
0000
1000
0100
0010
1000
,
0000
0010
0001
0100
0010
0000
1000
0000
,
1100
0000
0011
0000
1000
0010
0100
0010
,
0000
1000
0001
0010
0001
0010
0100
0000
,
0001
0100
1000
0000
0001
0100
1000
0000
,
0100
0001
0010
1000
0010
0001
0100
0000
,
2010
0000
3100
0000
1000
0010
0100
1000
,
0000
0100
0001
0010
0100
0000
1000
0000
,
0012
0000
0103
0000
0001
0010
0100
1000
,
0000
0001
0200
0020
,
0330
0000
1001
0000
0001
0100
0010
0100
,
0000
0001
1000
0100
1000
0100
0010
0000
,
1000
0010
0001
0000
1000
0010
0001
0000
,
0010
1000
0100
0001
0100
1000
0010
0000
,
0001
0010
1000
0000
0001
0010
1000
0000
,
0010
0001
0100
0010
0100
0001
0010
0000
,
0110
0000
1001
0000
,
1000
0100
0001
0100
1000
0010
0100
0000
,
0001
1000
0100
1000
0010
0100
0001
0010
,
0200
0000
0000
0000
,
0000
0000
0000
0000
,
0300
0000
0000
0000
,
0000
0000
0000
0000
;
#NOTES:
     dance-single:
     :
     Hard:
     15:
     :
0000
0000
0000
0000
,
0000
0000
0000
0000
,
0000
0000
0000
0000
,
0000
0000
0000
0000
,
0000
0000
0000
0000
,
0002
0000
0000
0000
,
0023
0000
0000
0000
,
0230
0000
0000
0000
,
2300
0000
0000
0000
,
3001
0000
0000
0100
0010
1000
0000
0000
,
1000
0000
0000
0100
0010
0001
0000
0000
,
0001
0000
0000
1000
0010
0100
0000
0000
,
0100
0000
0000
0001
0010
0100
0000
0000
,
1000
0001
1000
0001
0100
0010
0100
0010
,
1000
0001
1000
0001
0010
0100
0010
0100
,
1000
0000
1000
0000
0001
0000
0001
0000
1000
0001
1000
0001
1000
0001
1000
0001
,
2000
0000
0000
3000
0000
0000
1001
0000
,
0001
0100
0001
0010
0001
1000
0010
0100
,
0001
0000
0010
0000
0100
0000
1000
0000
0001
0000
0010
0001
0100
0000
0001
0000
,
1000
0000
0100
0000
1000
0000
0010
0000
0100
0000
0001
0000
1000
0000
0010
1000
,
0100
0000
1000
0000
0001
0000
0100
0000
0010
0000
0100
0001
0010
0000
0000
0000
,
0001
0001
1001
0000
1000
0001
0100
0010
,
0100
0000
0001
0000
1000
0000
0010
0100
0001
0000
0010
0100
1000
0000
0010
0000
,
0100
0000
0010
1000
0100
0000
1000
0000
0001
0100
0001
0100
0010
0000
1000
0000
,
0001
0000
1000
0100
0010
0000
0001
0000
1000
0000
0010
0100
0001
0000
0001
0000
,
1000
0100
1000
0010
1000
0001
0010
0100
,
1000
0000
0010
0000
0100
0000
0001
0000
1000
0000
0010
1000
0100
0000
1000
0000
,
0001
0000
0100
0000
0001
0000
0010
0000
0100
0000
1000
0000
0001
0000
0010
0001
,
0100
0000
0001
0000
1000
0000
0100
0000
0010
0000
0100
1000
0010
0000
0000
0000
,
1000
1000
1001
0000
0001
1000
0100
0010
,
0100
0000
1000
0000
0001
0000
0010
0100
1000
0000
0010
0100
0001
0000
0010
0000
,
0100
0000
0010
0001
0100
0000
0001
0000
1000
0100
1000
0100
0010
0000
0001
0000
,
1000
0000
0000
0000
0010
1000
0001
0000
0200
0000
0000
0000
0310
0000
0000
0000
,
2000
0001
0100
0001
,
0010
0001
0100
0001
,
3020
0100
0000
1000
,
0000
0000
0001
0000
1000
1000
1000
0000
,
0230
0000
0000
0001
0000
0000
0010
0000
0010
0000
0000
0000
0000
0000
0000
0000
,
1000
0000
0001
0010
,
0302
0100
0000
0010
,
1000
0000
0000
1000
0000
0000
1000
0000
0100
0000
0000
0100
0000
0000
0100
0000
,
0203
0000
0000
0000
0010
0000
0000
0000
0001
0000
0000
1000
0000
0000
0010
0000
,
0320
0000
0000
0001
0000
0000
1000
0000
0000
0000
0100
0000
0100
0000
0130
0010
,
2000
0000
0000
0100
0000
0000
0010
0000
0010
0000
0000
0000
0001
0000
0001
0000
,
3002
0000
0000
0010
0000
0000
1000
0000
0000
0000
0100
0000
0100
0000
0103
0000
,
0220
0330
1001
0000
,
1100
0000
0100
0000
0100
0000
0000
0000
1000
0100
1000
0100
0010
0000
0001
0000
,
0101
0000
0000
1001
0000
0000
0011
0000
1001
0000
0000
1100
0000
0000
1001
0000
,
1000
0010
0100
0000
0001
0100
0010
0000
1000
0001
1000
0001
1000
0001
1000
0100
,
0020
0000
0000
0000
,
0030
0000
0000
0000
,
0011
0001
1000
0010
0100
0010
1000
0001
,
0100
0000
0100
0010
0100
0001
1000
0100
,
0010
0000
0010
0000
0010
0100
0000
0010
,
0000
0010
0010
0001
1000
0010
0100
0001
,
1000
0000
1000
0001
1000
0000
0001
0010
,
0000
0010
0000
0010
0001
0010
0100
1000
,
0010
0000
0010
0000
0010
0010
0100
0001
,
0000
0001
0001
1000
0001
0010
0100
1000
,
1010
0000
1001
0000
1100
0000
0100
0010
,
0011
0000
1001
0000
0101
0000
0100
0010
,
1010
0000
1001
0000
0011
0000
1000
0100
,
0110
1001
0110
1001
,
0001
0001
1000
1000
0010
0010
0100
0100
,
0001
0001
1000
1000
0100
0100
0010
0010
,
0001
1000
0001
0000
0100
0010
0100
0000
0001
1000
0001
0000
1000
0100
0020
0000
,
0000
0000
0000
0030
,
0011
0000
1001
0000
1000
0010
0100
0101
,
0000
0000
0011
0000
0001
0000
1000
0000
0010
0000
1000
0100
0010
0000
0000
0000
,
0011
0000
1100
0000
1000
0001
0100
0020
,
0030
0000
1000
0100
1000
0000
0010
0000
0001
0000
0010
0000
1000
0000
0100
0000
,
0110
0000
0011
0000
0010
0100
1000
0020
,
0030
0000
0100
0010
0100
0000
0001
0000
0010
0000
1000
0000
0010
0000
0001
0000
,
1001
0000
1100
0000
1000
0010
0100
0002
,
0003
0000
0010
0001
0010
0000
0001
0000
0100
0000
1000
0000
0100
0000
0010
0000
,
1000
0200
0001
0000
1300
0020
0001
0000
,
1030
0000
0001
0010
0001
0000
0100
0000
1000
0000
0100
0000
0001
0000
0000
0000
,
1010
0000
0101
0000
0001
1000
0100
0020
,
0030
0000
0001
0100
0001
0000
0010
0000
1000
0000
0010
0000
0001
0000
0100
0000
,
0110
0000
1010
0000
0010
0100
0001
0020
,
0030
0000
0100
0010
0100
0000
1000
0000
0010
0000
0001
0000
0010
0000
1000
0000
,
1001
0000
0101
0000
0001
0010
0100
2000
,
3000
0000
0010
1000
0010
0000
1000
0000
0100
0000
0001
0000
0100
0000
0010
0000
,
0001
0200
1000
0000
0301
0020
1000
0000
,
0031
0000
1000
0010
1000
0000
0010
0000
0001
0000
0010
0000
0100
0000
0000
0000
,
0110
0001
1000
0000
0110
1000
0001
0000
,
0010
0000
0100
0010
0100
0000
0001
0000
0100
0000
1000
0000
0010
0000
0000
0000
,
1010
0001
0100
0000
0011
1000
0100
0000
,
1000
0000
0001
0100
0001
0000
0010
0000
1000
0000
0010
0000
0001
0000
0100
0000
,
0010
0000
0010
0000
0100
0000
0100
0000
0001
1000
0001
1000
0001
1000
0001
0010
,
0200
0000
0000
0000
,
0000
0000
0000
0000
,
0300
0000
0000
0000
,
0000
0000
0000
0000
;
#NOTES:
     dance-single:
     :
     Challenge:
     17:
     :
0000
0000
0000
0000
,
0000
0000
0000
0000
,
0000
0000
0000
0000
,
0000
0000
0000
0000
,
0000
0000
0000
0000
,
2000
0000
0000
0000
,
3200
0000
0000
0000
,
0320
0000
0000
0000
,
0032
0000
0000
0000
,
1003
0010
0200
0000
0001
0001
0301
0000
,
0001
0010
0200
0000
1000
1000
1300
0000
,
1000
0001
0020
0000
0100
0100
0130
0000
,
0100
1000
0002
0000
0100
0100
0103
0000
,
0101
0000
1000
0000
0001
1000
0100
0000
,
1100
0000
0001
0000
1000
0001
0100
0000
,
0001
0000
0001
0000
1000
0000
1000
0000
0001
1000
0001
1000
0010
0100
0001
1000
,
0100
0000
1000
0000
0010
0000
1000
0001
0010
0100
1000
0001
0100
0000
0000
0000
,
0001
0000
1000
0010
1000
0000
0001
0010
0100
0000
1000
0001
0100
0000
0010
1000
,
0100
0000
0010
0001
0010
0000
0100
1000
0001
0000
1000
0001
0010
0000
0100
1000
,
0001
0000
1000
0010
1000
0000
0001
1000
0100
0000
0010
0001
1000
0000
0001
1000
,
0010
0000
0100
0001
0100
0000
0010
1000
0001
0000
0100
0001
0010
0000
0000
0000
,
0001
0000
0001
0000
1001
0000
1000
0001
0010
0000
0100
1000
0001
0000
0010
0001
,
1000
0000
0010
0100
0010
0000
1000
0001
0010
0000
0100
1000
0001
0000
0100
0010
,
0100
0000
0001
1000
0100
0000
0010
0001
1000
0000
0010
1000
0100
0000
0010
0000
,
2100
3001
1200
0310
2100
3001
1000
1000
,
1001
0000
0000
0000
0001
0000
1000
0001
0100
0000
0001
1000
0100
0000
0010
1000
,
0010
0000
0100
1000
0001
0000
1000
0001
0100
0000
0010
0001
0010
0000
0100
0001
,
1000
0000
0100
0010
0001
0000
1000
0010
0100
0000
0001
1000
0100
0000
0010
1000
,
0010
0000
0100
1000
0001
0000
0100
0010
1000
0000
0100
1000
0010
0000
0000
0000
,
1000
0000
1000
0000
1001
0000
0001
1000
0010
0000
0100
0001
1000
0000
0100
0010
,
0100
0000
1000
0001
0100
0000
0010
1000
0001
0000
0010
0001
0100
0000
0010
0000
,
0102
1003
0201
0310
0102
1003
0201
0310
,
1001
0000
0000
0000
1000
0000
0001
1000
0020
0000
0000
0000
0130
0000
0000
0000
,
1001
0001
1100
0001
,
1000
0010
0101
2000
,
0010
0000
3001
1000
1001
0000
0001
0000
,
0000
0000
0100
0000
0001
1000
0010
0000
,
0100
0000
0000
0001
0000
0000
1000
0000
0200
0000
0000
0000
0010
0000
0000
0000
,
1300
0000
0000
0000
0001
0000
0000
0000
1001
0000
0000
0000
1000
0001
1000
0001
,
1000
0010
1001
0001
,
0010
0000
0000
0001
0000
0000
1000
0000
0100
0000
0000
1000
0001
0100
0010
1000
,
0001
0000
0010
0100
0010
0000
0001
0000
1000
0000
0010
0100
0010
0000
1000
0000
,
0001
0000
1000
0001
0010
0000
0100
0000
1000
0000
0001
0100
0010
0000
1000
0000
,
0001
0000
0010
0100
0001
0000
0100
0000
0010
0000
0001
1000
0010
0000
0100
0000
,
0001
0000
1000
0100
0010
0000
0001
0000
1000
0000
0010
0100
1000
0000
0100
0000
,
0001
0000
0010
0001
1000
0000
0100
0000
1002
0000
0013
0000
2001
0000
3100
0000
,
1000
0000
0010
0100
0010
0000
1000
0000
0001
0010
0001
0010
0100
1000
0001
0000
,
1001
0000
0000
1100
0000
0000
0011
0000
1001
0000
0000
1010
0000
0000
0101
0000
,
1000
0001
0010
0000
0001
1000
0100
0000
1000
0001
0100
0010
1000
0100
1000
0001
,
0020
0000
0000
0000
,
0030
0000
0000
0000
,
1001
0001
0010
0100
0010
0001
1000
0010
,
0100
0000
0010
1000
0001
0010
0100
1000
,
0001
0000
1001
0000
0001
0200
0000
0010
,
0000
0301
0100
0001
0010
0100
1000
0001
,
0100
0000
0001
1000
0010
0000
1000
0200
,
0000
0010
0000
1300
0100
1000
0010
0100
,
0001
0000
1000
0000
0001
0010
0100
1000
,
0000
0010
0010
0100
0001
1000
0100
1000
,
1010
0000
0000
0000
1100
0000
0000
0000
1010
0000
0000
0000
1100
0000
0001
1000
,
0100
0000
0000
0000
0011
0000
0000
0000
0101
0000
0000
0000
0011
0000
1000
0001
,
0100
0000
0000
0000
0110
0000
0000
0000
1001
0000
0000
0000
0110
0000
0001
1000
,
0100
0000
1000
0000
0001
1000
0010
0000
0100
0001
0010
0001
1000
0010
0100
0000
,
0101
0000
0001
1000
0100
0000
0010
0000
0011
0000
1000
0001
0100
0000
0010
0000
,
1010
0000
0001
1000
0100
0000
0010
0000
1100
0000
0001
1000
0010
0000
0100
0000
,
0010
1000
0001
0100
0001
1000
0010
1000
0001
0010
0100
1000
0010
0100
0001
0010
,
0100
0000
1000
0000
0001
0000
1000
0010
1000
0010
0100
0001
1000
0000
0000
0000
,
0011
0000
1100
0000
0011
0100
1000
1010
,
0000
1010
0100
0001
0021
0000
0130
0000
,
0021
0130
0012
1003
0021
0130
1000
0020
,
0030
0000
0001
0010
1000
0000
0001
0000
0011
0000
1000
0000
1010
0000
0100
0000
,
0201
0310
0102
1003
0201
0310
1000
0200
,
0300
0000
0000
1000
0010
0100
0001
0000
0000
1000
0000
0000
1010
0000
0000
0001
0000
0000
0011
0000
0000
0100
0000
0000
,
1200
0310
2100
3001
1200
0310
0001
0200
,
0300
0000
1000
0100
0001
0000
1000
0000
1100
0000
0001
0000
0011
0000
1000
0001
,
0100
0010
0101
0000
0001
0010
1100
0000
,
1000
0000
0000
0010
0100
0001
1000
0000
0000
0100
0000
0000
1001
0000
0000
0110
0000
0000
1001
0000
0000
0000
0000
0000
,
1020
0130
2010
3001
1020
0130
0001
0020
,
0030
0000
1000
0010
0001
0000
1000
0000
1010
0000
0001
0000
0011
0000
0100
0000
,
1200
0310
2100
3001
1200
0310
0001
0200
,
0300
0000
1000
0100
0001
0100
0010
1000
0001
0010
0001
0100
0001
1000
0010
1000
,
0100
0000
0010
0001
0100
0000
0000
0000
1010
0000
0010
0000
1000
0000
0200
0000
,
0300
0000
0001
0100
1000
0000
0001
0000
0101
0000
1000
0000
1010
0000
0001
1000
,
0100
0010
1100
0000
1000
0010
0101
0000
,
0001
0000
0000
0010
0100
1000
0001
0000
0000
0100
0000
0000
1001
0000
0000
0110
0000
0000
1001
0000
0000
1000
0010
0100
,
0001
0000
0010
0000
0101
0000
0000
0000
1000
0001
0010
0000
1100
0000
0000
0000
,
1000
0000
0000
0000
0000
0000
0001
0000
0010
0000
0100
0000
1000
0000
0000
0000
0000
0000
0010
0000
0000
0000
0000
0000
1100
0000
0000
0000
0000
0000
0000
0000
0000
0011
0000
0000
0000
0000
0000
0000
0000
0000
1001
0000
0000
0000
0000
0000
,
1010
0001
0100
0000
0011
1000
0100
0000
,
1000
0000
0000
0000
0000
0000
0001
0000
1000
0000
0001
0000
1000
0000
0000
0001
0000
0000
0100
0000
0000
0010
0000
0000
1000
0000
0000
0001
0000
0000
0010
0000
0000
0100
0000
0000
0010
0000
0000
0001
0000
0000
1000
0000
0000
0010
0000
0000
,
0100
0000
0100
0000
0010
0000
0010
0000
1000
0001
0010
0001
1000
0010
0100
0001
,
0020
0000
0000
0000
,
0000
0000
0000
0000
,
0030
0000
0000
0000
,
0000
0000
0000
0000
;
#NOTES:
     dance-double:
     :
     Easy:
     8:
     :
00000000
00000000
00000000
00000000
,
00000000
00000000
00000000
00000000
,
00000000
00000000
00000000
00000000
,
00000000
00000000
00000000
00000000
,
00000000
00000000
00000000
00000000
,
00000000
00000000
00000000
00000000
,
00000000
00000000
00000000
00000000
,
00000000
00000000
00000000
00000000
,
00000000
00000000
00000000
00000000
,
00001000
00000000
00001000
00000000
,
00010000
00000000
00010000
00000000
,
00000010
00000000
00000010
00000000
,
00001000
00000000
00001000
00000000
,
00000100
00000100
00000010
00000010
,
00000001
00000001
00001000
00001000
,
00001010
00001010
00010010
00010010
,
00022000
00000000
00000000
00033000
,
00001000
01000000
00010000
00100000
,
00001000
01000000
00010000
00100000
,
00010000
10000000
00100000
01000000
,
00010000
10000000
00100000
01000000
,
00001000
00010000
00001000
00000000
00010000
00000000
00000010
00000000
,
00001000
00000100
00010000
00000010
,
00001000
00000001
00000100
00000010
,
00001000
00000100
00010000
00011000
,
00001000
01000000
00010000
00100000
,
00001000
01000000
00010000
00100000
,
00010000
01000000
00100000
10000000
,
00010000
01000000
00100000
00010000
,
00001000
00010000
00001000
00000000
00010000
00000000
00000100
00000000
,
00001000
00000010
00010000
00000100
,
00001000
00000010
00000100
00000001
,
00000020
00000230
00002300
00003000
,
00000010
00000000
00010000
00000000
,
00001000
00010000
00100000
00000000
,
00010000
00000000
00001000
00000000
,
00100000
00010000
01000000
00000000
,
00010000
00000000
10000000
00000000
,
10000000
01000000
00100000
00000000
,
00001000
00000000
00010000
00000000
,
00000020
00000030
00000200
00000300
,
00000001
00000001
00001000
00001000
,
00000010
00000010
00010000
00010000
,
00001000
00001000
01000000
01000000
,
00010000
00010000
10000000
10000000
,
22000000
33000000
10010000
00000000
,
00220000
00330000
00101000
00000000
,
00011000
00000000
00011000
00000000
,
00000100
00001100
00000010
00001010
,
00000200
00000000
00000000
00000000
,
00000300
00000000
00000000
00000000
,
00020010
00000000
00000100
00000000
,
00001000
00000000
00000010
00000000
,
00000100
00000000
00001000
00000000
,
00000010
00000000
00000100
00000000
,
00032000
00000000
01000000
00000000
,
00100000
00000000
00010000
00000000
,
01000000
00000000
00100000
00000000
,
00010000
00000000
01003000
00000000
,
00001000
00001000
00010000
00010000
,
00000100
00000100
00010000
00010000
,
00001000
00001000
00100000
00100000
,
00001000
00001000
00010000
00010000
,
00011000
00000000
00010100
00000000
,
00001100
00000000
00001010
00000000
,
00000110
00001000
00000110
00000001
,
00000200
00000000
00000000
00000300
,
00001001
00000000
00000001
00000000
00000100
00000100
00000000
00000010
,
00000000
00000010
00000000
00000100
00000100
00000000
00001001
00000000
,
00000001
00000100
00000010
00010000
,
00001000
00010000
00001000
00010000
,
01000000
10000000
00100000
10000000
,
00100000
01000000
00001000
00010000
,
00001000
00000010
00000001
00000010
,
00000100
00001000
00000010
00010000
,
00001000
00010000
00001000
00000000
00010000
00001000
00010000
00000000
,
00001000
01000000
00100000
00000000
,
10000000
01000000
00100000
00001000
,
00010000
00001000
00010000
00001000
,
00000100
00000001
00000010
00000001
,
00000000
00000200
00000020
00000330
,
00010000
00011000
00001000
01000000
,
00010000
00100000
00001000
00010000
,
00001000
00010000
00001000
00000000
00010000
00001000
00010000
00000000
,
00001000
01000000
00100000
00000000
,
10000000
00010000
10000000
00000000
00010000
10000000
00010000
00000000
,
10000000
01000000
00100000
00000000
,
00001000
00010000
00001000
00000000
00010000
00001000
00010000
00000000
,
00000100
00000010
00000001
00000100
,
00001000
00010000
01000000
10000000
,
00200000
00000000
00000000
00000000
,
00000000
00000000
00000000
00000000
,
00300000
00000000
00000000
00000000
,
00000000
00000000
00000000
00000000
;
#NOTES:
     dance-double:
     :
     Medium:
     12:
     :
00000000
00000000
00000000
00000000
,
00000000
00000000
00000000
00000000
,
00000000
00000000
00000000
00000000
,
00000000
00000000
00000000
00000000
,
00000000
00000000
00000000
00000000
,
00000000
00000000
00000000
00000000
,
00000000
00000000
00000000
00000000
,
00000000
00000000
00000000
00000000
,
00000000
00000000
00000000
00000000
,
00002000
00000000
00000000
00003000
,
00020000
00000000
00000000
00030000
,
00000200
00000000
00000000
00000300
,
00000020
00000000
00000000
00000030
,
00000001
00000001
00000100
00000100
,
00001000
00001000
00010000
00010000
,
00001000
00010000
00001000
01000000
00010000
10000000
01000000
00100000
,
00020000
00000000
00000000
00030000
00000000
00000000
00110000
00000000
,
00010000
00100000
01000000
10000000
00100000
01000000
00010000
00000000
,
01000000
00100000
00010000
00001000
00100000
00010000
01000000
00000000
,
00001000
00010000
00100000
01000000
00010000
00100000
00001000
00000000
,
00010000
00001000
00000100
00000010
00001000
00000100
00010000
00000000
,
00000010
00000100
00001000
00010000
00000100
00001000
00000010
00000000
,
00001000
00000100
00000010
00000001
00000100
00000010
00001000
00000000
,
00000001
00000010
00000100
00001000
00000010
00000100
00000001
00000000
,
00000011
00000110
00001100
00001001
,
00001000
00000010
00000100
00000001
00000010
00000100
00001000
00000000
,
00000010
00001000
00000100
00010000
00001000
00000100
00000010
00000000
,
00010000
00000100
00001000
00000010
00000100
00001000
00010000
00000000
,
00001000
00100000
00010000
01000000
00100000
00010000
00001000
00000000
,
01000000
00010000
00100000
00001000
00010000
00100000
01000000
00000000
,
00010000
01000000
00100000
10000000
01000000
00100000
00010000
00000000
,
10000000
00100000
01000000
00010000
00100000
01000000
10000000
00000000
,
02000000
03020000
00032000
00003000
,
00010000
00000010
00001000
00000100
,
00000010
00000001
00000010
00000100
,
00000000
00010000
00000000
00001000
,
00000000
00000000
00100000
00000000
00010000
00100000
01000000
00000000
,
10000000
00000000
00000000
10000000
00000000
00000000
10000000
00000000
00010000
00000000
00000000
00000000
00000000
00000000
00000000
00000000
,
01000000
00000000
00100000
00010000
,
00000000
00001000
00000000
00010000
,
00000100
00000000
00000000
00000100
00000000
00000000
00000100
00000000
00001000
00000000
00000000
00001000
00000000
00000000
00001000
00000000
,
00000010
00000000
00000000
00000000
00000000
00000000
00000000
00000000
00000100
00000000
00000000
00000100
00000000
00000000
00000100
00000000
,
00000001
00000000
00000000
00000001
00000000
00000000
00000001
00000000
00001000
00000000
00000000
00000000
00000100
00000000
00000000
00000000
,
00010000
00000000
00000000
00010000
00000000
00000000
00010000
00000000
00001000
00000000
00000000
00000000
01000000
00000000
00000000
00000000
,
00100000
00000000
00000000
00100000
00000000
00000000
00100000
00000000
10000000
00000000
00000000
00000000
00010000
00000000
00000000
00000000
,
00220000
00330000
10010000
00000000
,
22000000
33000000
10010000
00000000
,
10000000
00000000
00000000
01000000
00000000
00000000
00100000
00000000
00001000
00000000
00000000
00010000
00000000
00000000
00001000
00000000
,
00010000
00000000
00001000
00000000
00010000
00000100
00001000
00000010
,
00000200
00000000
00000000
00000000
,
00000300
00000000
00000000
00000000
,
00000001
00000000
00001000
00000000
00000001
00000000
00000000
00000000
00000100
00000000
00000000
00000010
00000000
00000000
00000100
00000000
,
00000000
00000000
00000010
00000000
00010000
00000000
00000000
00000000
00001000
00000000
00000000
00010000
00000000
00000000
00001000
00000000
,
00000000
00000000
00100000
00000000
00010000
00000000
00000000
00000000
01000000
00000000
00000000
00100000
00000000
00000000
01000000
00000000
,
00000000
00000000
00100000
00000000
10000000
00000000
00000000
00000000
00100000
00000000
00000000
10000000
00000000
00000000
00100000
00000000
,
00000000
00000000
10000000
00000000
01000000
00000000
00000000
00000000
10000000
00000000
00000000
01000000
00000000
00000000
00100000
00000000
,
00000000
00000000
00001000
00000000
00010000
00000000
00000000
00000000
00000100
00000000
00000000
00001000
00000000
00000000
00000010
00000000
,
00000000
00000000
00001000
00000000
00000001
00000000
00000000
00000000
00000010
00000000
00000000
00000100
00000000
00000000
00001000
00000000
,
00000000
00000000
00000010
00000000
00010000
00000000
00000000
00000000
00001000
00000000
00000000
00010000
00000000
00000000
00100000
00000000
,
01000000
01000000
00010000
00010000
,
10000000
10000000
01000000
01000000
,
00010000
00010000
00001000
00001000
,
00000100
00000100
00000001
00000001
,
00001000
00000100
00001000
00000100
00001000
00000010
00010000
00000000
,
00001000
01000000
00010000
00100000
00010000
00100000
00010000
00000000
,
10000000
01000000
10000000
01000000
00100000
00010000
00100000
00001000
,
00020000
00000000
00000000
00030000
,
00011000
00000000
00001000
00000000
00010000
00010000
00001000
00001000
,
00000000
00001000
00002000
00010000
00020000
00000000
00033000
00000000
,
00011000
00000000
00101000
00000000
00100000
00000000
00001000
00010000
,
00000000
00100000
01000000
00000000
00010000
00000000
10000000
00000000
,
10100000
00000000
01010000
00000000
01000000
00000000
00001000
00010000
,
00000000
00000100
00000010
00000000
00001000
00000000
00010000
00000000
,
00011000
00000000
00010010
00000000
00010000
00000000
00001000
00010000
,
00000000
00000100
00000010
00000000
00000001
00000010
00000100
00000000
,
00000001
00000100
00001000
00000000
00000001
00000100
00001000
00000000
,
00010000
00001000
00100000
00000000
01000000
00000000
00010000
00000000
,
00011000
00000000
00010010
00000000
00000010
00000000
00010000
00001000
,
00000000
00000010
00000100
00000000
00001000
00000000
00000001
00000000
,
00000011
00000000
00001100
00000000
00000100
00000000
00010000
00001000
,
00000000
02000000
00200000
03300000
,
00010000
00000000
00011000
00000000
00001000
00000000
00010000
00001000
,
00000000
00100000
01000000
00000000
10000000
00100000
01000000
00000000
,
10000000
01000000
00010000
00000000
10000000
01000000
00010000
00000000
,
00001000
00010000
00000010
00000000
00000100
00000000
00000010
00000000
,
00000001
00000010
00001000
00000000
00000001
00000010
00001000
00000000
,
00010000
00001000
01000000
00000000
00100000
00000000
01000000
00000000
,
10000000
01000000
00010000
00000000
10000000
01000000
00010000
00000000
,
00001000
00010000
00000010
00000000
00000100
00000000
00000001
00000000
,
00000010
00000100
00001000
00000010
00010000
00001000
00010000
01000000
,
00200000
00000000
00000000
00000000
,
00000000
00000000
00000000
00000000
,
00300000
00000000
00000000
00000000
,
00000000
00000000
00000000
00000000
;
#NOTES:
     dance-double:
     :
     Hard:
     15:
     :
00000000
00000000
00000000
00000000
,
00000000
00000000
00000000
00000000
,
00000000
00000000
00000000
00000000
,
00000000
00000000
00000000
00000000
,
00000000
00000000
00000000
00000000
,
00002000
00000000
00000000
00000000
,
00023000
00000000
00000000
00000000
,
00230000
00000000
00000000
00000000
,
02300000
00000000
00000000
00000000
,
03010000
00000000
00000000
10000000
01000000
00100000
00000000
00000000
,
00001000
00000000
00000000
00010000
00001000
00010000
00000000
00000000
,
00001000
00000000
00000000
00000100
00000010
00001000
00000000
00000000
,
00000001
00000000
00000000
00000010
00000100
00010000
00000000
00000000
,
00001000
00011000
00100000
00110000
,
01000000
01100000
10000000
10010000
,
00010000
00000000
00100000
00000000
00001000
00000000
00010000
00000000
00001000
00010000
00001000
00010000
00001000
00010000
00001000
00010000
,
00002000
00000000
00000000
00003000
00000000
00000000
00011000
00000000
,
00001000
00000100
00000010
00010000
00001000
00000010
00000100
00010000
,
00001000
00010000
00100000
01000000
00001000
00010000
01000000
10000000
,
00100000
10000000
01000000
00010000
10000000
00100000
00010000
01000000
,
00001000
00000000
00010000
00000000
00100000
00000000
01000000
00000000
00001000
00000000
00010000
00000100
00000010
00000000
00000000
00000000
,
00000001
00001000
00001001
00000000
00000001
00000100
00001000
00010000
,
00000100
00001000
00010000
00100000
00001000
01000000
00100000
00010000
,
00001000
00000100
00000010
00001000
00010000
01000000
00010000
00100000
,
00010000
00000000
00001000
00000000
00000100
00000000
00010000
00000000
00001000
00000000
01000000
00100000
10000000
00000000
00010000
00000000
,
01000000
00100000
00010000
00001000
00000100
00000010
00001000
00010000
,
00000100
00000010
00010000
00000100
00000010
00001000
00010000
00100000
,
01000000
00001000
00100000
01000000
00001000
00010000
00100000
00001000
,
00010000
00000000
00100000
00000000
01000000
00000000
00100000
00000000
00010000
00000000
00001000
00010000
00001000
00000000
00000000
00000000
,
00100000
01000000
11000000
00000000
10000000
01000000
00010000
00001000
,
00000010
00000100
00000001
00001000
00000001
00000100
00000010
00001000
,
00011000
00010010
00000110
00010010
,
00010000
00000000
00000000
00000000
00000100
00000010
00000100
00000010
00000100
00000000
00000000
00000000
00020000
00000000
00000000
00000000
,
00000100
00001000
00000010
00001000
,
00000100
00001000
00000010
00001000
,
00000000
00100000
00000000
00001000
,
00000000
00000000
01000000
00000000
01030000
00020000
00001000
00000000
,
00000100
00000000
00000000
00000010
00000000
00000000
00001000
00000000
00001000
00000000
00000000
00000000
00000000
00000000
00000000
00000000
,
00100000
00000000
10000000
00100000
,
00000000
00001000
00000000
00000010
,
00001000
00000000
00000000
00000100
00000000
00000000
00031000
00000000
00010000
00000000
00000000
01000000
00000000
00000000
00010000
00000000
,
00002000
00000000
00000000
00000000
00000000
00000000
00000000
00000000
01000000
00000000
00000000
01000000
00000000
00000000
01000000
00000000
,
00010000
00000000
00000000
00010000
00000000
00000000
00010000
00000000
00100000
00000000
00103000
00000000
00001000
00010000
00002000
00000000
,
00000010
00000000
00000000
00000001
00000000
00000000
00000010
00000000
00000010
00000000
00000000
00000000
00010000
00000000
00000000
00000000
,
00100000
00000000
00000000
00010000
00000000
00000000
01000000
00000000
00000000
00000000
00010000
00000000
00000000
00000000
00013000
00000000
,
00002200
00003300
00000110
00000000
,
00002002
00003003
00000011
00000000
,
00001100
00000000
00000000
00010100
00000000
00000000
00011000
00000000
00101000
00000000
00000000
00110000
00000000
00000000
10010000
00000000
,
10000000
01000000
00100000
00000000
00010000
00100000
00001000
00000000
00010000
00000100
00001000
00000000
00000001
00001000
00000001
00001000
,
00000020
00000000
00000000
00000000
,
00000030
00000000
00000000
00000000
,
00000100
00000001
00000100
00000001
00000010
00000100
00001000
00000010
,
00010000
00000000
00001000
00010000
00100000
00010000
00001000
00100000
,
01000000
00000000
00100000
00000000
01000000
10000000
00000000
00100000
,
00000000
01000000
01000000
00100000
10000000
01000000
00010000
00001000
,
00010000
00000000
00000010
00000100
00000001
00000000
00000010
00000100
,
00000000
00010000
00000000
00000100
00001000
00000100
00000001
00000100
,
00000010
00000000
00000010
00000000
00000010
00000010
00001000
00010000
,
00000000
00001000
00001000
00010000
00100000
01000000
00010000
10000000
,
01000000
01000000
00010000
00010000
,
00001000
00001000
00000100
00000100
,
00000010
00000010
00001000
00001000
,
00000001
00000001
00000010
00000010
,
00000100
00010000
00001000
01000000
00100000
10000000
01000000
00010000
,
00001000
00000100
00000001
00000010
00000100
00001000
00000001
00000100
,
00000010
00000100
00000001
00000000
00001000
00000010
00010000
00000000
00001000
01000000
00010000
00000000
10000000
00100000
01000000
00000000
,
20000000
32000000
03020000
00230000
00302000
00000000
00013000
00000000
,
00001000
00000000
00011000
00000000
00010000
00010000
00001000
00100000
,
00000000
01000000
10000000
00100000
00010000
00000000
00011000
00000000
,
00010010
00000000
01001000
00000000
01000000
00100000
00010000
00002000
,
00003000
00000000
00010000
00001000
00010000
00000000
00000100
00000000
00000010
00000000
00001000
00000000
00010000
00000000
00001000
00000000
,
01001000
00000000
00210000
00000000
01300000
10000000
00100000
00020000
,
00030000
00000000
00001000
00010000
00001000
00000000
00010000
00000000
00100000
00000000
00010000
00000000
00001000
00000000
00000100
00000000
,
00000110
00000000
00001010
00000000
00010010
00010000
00001000
00000020
,
00000030
00000000
00000100
00001000
00000100
00000000
00010000
00000000
00000010
00000000
00000100
00000000
00001000
00000000
00010000
00000000
,
01000000
00100000
00020000
00000000
01030000
00100000
00020000
00000000
,
00031000
00000000
00010000
00001000
00000010
00000000
00000001
00000000
00000100
00000000
00001000
00000000
00010000
00000000
00000000
00000000
,
01001000
00000000
00010010
00000000
00000010
00000100
00001000
00020000
,
00030000
00000000
00001000
00010000
00001000
00000000
00100000
00000000
01000000
00000000
00010000
00000000
00001000
00000000
00010000
00000000
,
00010010
00000000
00001200
00000000
00000310
00000001
00000100
00002000
,
00003000
00000000
00010000
00001000
00010000
00000000
00000010
00000000
00010000
00001000
00010000
00001000
00010000
00000000
00100000
00000000
,
01000000
00000000
01001000
00000000
00001000
00010000
01000000
10000000
,
01000000
00000000
00100000
00010000
00100000
00000000
00001000
00000000
01000000
00000000
00100000
00000000
00010000
00000000
00001000
00000000
,
00000010
00000100
00002000
00000000
00003010
00000100
00002000
00000000
,
00013000
00000000
00001000
00010000
00100000
00000000
10000000
00000000
01000000
00000000
00010000
00000000
00001000
00000000
00000000
00000000
,
00010000
00100000
02000000
00000000
03010000
00100000
02000000
00000000
,
13000000
00000000
00100000
10000000
00100000
00000000
00010000
00000000
00001000
00000000
00010000
00000000
01000000
00000000
00010000
00000000
,
00001000
00000100
00000020
00000000
00001030
00000100
00000020
00000000
,
00000031
00000000
00000100
00000001
00000100
00000000
00001000
00000000
00010000
00000000
00001000
00000000
00000010
00000000
00001000
00000000
,
00010000
00000000
00010000
00000000
00001000
00000000
00001000
00000000
00010000
00001000
00010000
00001000
01000000
00010000
01000000
00010000
,
00200000
00000000
00000000
00000000
,
00000000
00000000
00000000
00000000
,
00300000
00000000
00000000
00000000
,
00000000
00000000
00000000
00000000
;
#NOTES:
     dance-double:
     :
     Challenge:
     17:
     :
00000000
00000000
00000000
00000000
,
00000000
00000000
00000000
00000000
,
00000000
00000000
00000000
00000000
,
00000000
00000000
00000000
00000000
,
00000000
00000000
00000000
00000000
,
00020000
00000000
00000000
00000000
,
00032000
00000000
00000000
00000000
,
00003200
00000000
00000000
00000000
,
00000320
00000000
00000000
00000000
,
00001030
00000010
00020000
00000000
00000000
00000000
00031000
00000000
,
00001000
00010000
00200000
00000000
00000000
00000000
01300000
00000000
,
01000000
00010000
20000000
00000000
00000000
00000000
31000000
00000000
,
01000000
00100000
00020000
00000000
00000000
00000000
01030000
00000000
,
00010000
00000000
00100000
00000000
00001000
00010000
00000100
00000000
,
00001000
00000000
00000010
00000000
00000100
00000001
00001000
00000000
,
00000100
00000000
00000100
00000000
00010000
00000000
00010000
00000000
00001000
00100000
00001000
00100000
00010000
01000000
00010000
01000000
,
00100000
00000000
10000000
00000000
00010000
00000000
10000000
01000000
00100000
00010000
00100000
00001000
00010000
00000000
00000000
00000000
,
00010000
00000000
00001000
00010000
00001000
00000000
00000100
00000010
00000100
00000000
00000001
00001000
00000001
00000000
00000010
00000100
,
00000010
00000000
00001000
00010000
00001000
00000000
01000000
00100000
01000000
00000000
00010000
10000000
00010000
00000000
00100000
01000000
,
00100000
00000000
00001000
00010000
00001000
00000000
00000100
00000010
00000100
00000000
00000001
00001000
00000001
00000000
00000010
00000100
,
00000010
00000000
00001000
00010000
00001000
00000000
00010000
00000000
00001000
00000000
01000000
00100000
10000000
00000000
00000000
00000000
,
01000000
00000000
00100000
00000000
00011000
00000000
00000000
00000000
00001000
00000000
00000010
00000100
00000010
00000000
00000001
00001000
,
00000001
00000000
00000100
00000010
00000100
00000000
00001000
00010000
00001000
00000000
00100000
01000000
00100000
00000000
00010000
10000000
,
00010000
00000000
01000000
00100000
01000000
00000000
00001000
00010000
00001000
00000000
00000010
00000100
00000010
00000000
00000001
00000000
,
00001001
00000000
00001010
00000000
00010010
00000000
00010000
00001000
,
00011000
00000000
00000000
00000000
00010000
00000000
01000000
00100000
01000000
00000000
10000000
00010000
10000000
00000000
00100000
01000000
,
00100000
00000000
00010000
00001000
00010000
00000000
00000100
00000010
00000100
00000000
00001000
00000001
00001000
00000000
00000010
00000100
,
00000010
00000000
00010000
00001000
00010000
00000000
01000000
00100000
01000000
00000000
10000000
00010000
10000000
00000000
00100000
01000000
,
00100000
00000000
00010000
00001000
00010000
00000000
00001000
00000000
00010000
00000000
00000100
00000010
00000001
00000000
00000000
00000000
,
00000100
00000000
00000010
00000000
00011000
00000000
00000000
00000000
00010000
00000000
00100000
01000000
00100000
00000000
10000000
00010000
,
10000000
00000000
01000000
00100000
01000000
00000000
00010000
00001000
00010000
00000000
00000010
00000100
00000010
00000000
00001000
00000000
,
00001001
00010010
00011000
01001000
,
10010000
00000000
00000000
00000000
10000000
00010000
10000000
00010000
02000000
00000000
00000000
00000000
03100000
00000000
00000000
00000000
,
00100000
00010000
00001000
00000100
,
00000001
00000010
00000100
00001000
,
00000010
00000000
00010000
00001000
00011000
00000000
00010000
00000000
,
01000000
00000000
00100000
00000000
00001000
00010000
00100000
00000000
,
00001000
00000000
00000000
00100000
00000000
00000000
00010000
00000000
00001000
00000000
00000000
00000000
00100000
00000000
00000000
00000000
,
01000000
00000000
10000000
00000000
00010000
00000000
01000000
01000000
,
01000000
00001000
00010000
00011000
,
00001000
00000000
00000000
00000100
00000000
00000000
00000001
00000000
00001000
00000000
00000000
00000001
00000010
00000001
00000010
00000100
,
00001000
00000000
00000010
00000000
00000100
00000001
00000000
00000001
00000010
00000000
00000100
00000000
00001000
00000010
00000000
00000010
,
00010000
00000000
00001000
00000000
00100000
00010000
00000000
00100000
00010000
00000000
01000000
00000000
00100000
10000000
00000000
00010000
,
01000000
00000000
00100000
00000000
00010000
00001000
00000000
00010000
00000100
00000000
00001000
00000000
00000001
00000100
00000000
00000100
,
00000010
00000000
00000001
00000000
00000010
00000100
00000000
00001000
00010000
00000000
01000000
00000000
10000000
01000000
00000000
00100000
,
00010000
00000000
00000000
00100000
00000000
00000000
00001000
00000000
00011000
00000000
00000000
00000000
00000000
00000000
00001000
00010000
,
00001000
00000000
00010000
00000000
00000100
00000000
00001000
00000000
00000001
00000100
00000001
00000100
00000010
00000000
00000000
00000000
,
00001001
00000000
00000000
00001010
00000000
00000000
00010010
00000000
00011000
00000000
00000000
00101000
00000000
00000000
00110000
00000000
,
00010000
10000000
00100000
00000000
01000000
00010000
10000000
00000000
00010000
00100000
00001000
00010000
00001000
00010000
00000100
00000010
,
00000002
00000000
00000000
00000000
,
00000003
00000000
00000000
00000000
,
00001001
00000001
00000010
00000100
00001000
00001000
00000010
00010000
,
00001000
00000000
00001000
00010000
00100000
00010000
00100000
01000000
,
00010000
00000000
00010000
00000000
00010000
00100000
00000000
00010000
,
00000000
00010000
00010000
00100000
01000000
10000000
00100000
10000000
,
00010000
00000000
00010000
01000000
00100000
00000000
01000000
00100000
,
00000000
00010000
00000000
00001000
00010000
00001000
00010000
00000100
,
00000010
00000000
00000010
00000000
00000010
00000010
00000001
00001000
,
00000000
00001000
00001000
00000010
00010000
00001000
00000010
00000001
,
00000101
00000000
00000000
00000000
00000011
00000000
00000000
00000000
00000101
00000000
00000000
00000000
00000011
00000000
00000010
00000100
,
00001000
00000000
00000000
00000000
00001010
00000000
00000000
00000000
00001100
00000000
00000000
00000000
00001010
00000000
00000010
00010000
,
00001000
00000000
00000000
00000000
00101000
00000000
00000000
00000000
00010010
00000000
00000000
00000000
00011000
00000000
00010000
00001000
,
00100000
00000000
00000000
00000000
00110000
00000000
00000000
00000000
01010000
00000000
00000000
00000000
00110000
00000000
00010000
01000000
,
00100000
10000000
00100000
00010000
00001000
00010000
00000100
00000010
,
00001000
00000010
00000001
00000100
00001000
00010000
00001000
00100000
,
00010000
10000000
00010000
10000000
01000000
00100000
00010000
00100000
00001000
00010000
00001000
00010000
00000100
00001000
00000001
00000100
,
00000010
00000000
00001000
00000000
00000001
00000000
00001000
00000100
00001000
00000100
00000010
00000001
00001000
00000000
00000000
00000000
,
00001010
00000000
00000101
00000000
00001010
00000010
00010000
00011000
,
00000000
00101000
00100000
01000000
21000000
00000000
30100000
00000000
,
01020000
10030000
20100000
30010000
01020000
10030000
01000000
00020000
,
00030000
00000000
00001000
00010000
00001000
00000000
00000010
00000000
00001000
00000000
00010000
00000000
01000000
00000000
10000000
00000000
,
21000000
30010000
00120000
10030000
21000000
30010000
01000000
00200000
,
00300000
00000000
00000000
10000000
00010000
10000000
00010000
00000000
00000000
00100000
00000000
00000000
00001000
00000000
00000000
00010000
00000000
00000000
00000100
00000000
00000000
00001000
00000000
00000000
,
00001020
00010030
00002010
00003001
00001020
00010030
00001000
00000200
,
00000300
00000000
00000001
00001000
00000001
00000000
00000010
00000000
00000100
00000000
00010000
00000000
00001000
00000000
00100000
00000000
,
00110000
01000000
10010000
00000000
10100000
01000000
10010000
00000000
,
00010000
00000000
00000000
10000000
00100000
10000000
00100000
00000000
00000000
00010000
00000000
00000000
00001000
00000000
00000000
00000100
00000000
00000000
00000110
00000000
00000000
00000000
00000000
00000000
,
00002010
00003001
00000102
00001003
00002010
00003001
00000100
00002000
,
00003000
00000000
00010000
00001000
00010000
00000000
00100000
00000000
00010000
00000000
00001000
00000000
00000100
00000000
00000001
00000000
,
00000012
00001003
00002100
00003001
00000012
00001003
00000100
00000110
,
00000000
00000000
00000000
00010000
00001000
00010000
00002000
00000000
00000000
00003200
00000000
00000000
00000302
00000000
00000000
00000023
00000000
00000000
00002030
00000000
00000000
00023000
00000000
00000000
,
02030000
03000000
00120000
10030000
00210000
00301000
00010000
02000000
,
03000000
00000000
10000000
00010000
10000000
00000000
00100000
00000000
01000000
00000000
00001000
00000000
00010000
00000000
00000100
00000000
,
00001100
00000010
00001001
00000000
00000011
00000100
00001001
00000000
,
00001000
00000000
00000000
00000001
00000010
00000001
00000010
00000000
00000000
00001000
00000000
00000000
00010000
00000000
00000000
01000000
00000000
00000000
00100000
00000000
00000000
00010000
10000000
00010000
,
10000000
00000000
00100000
00000000
01000000
00000000
00000000
00000000
00010000
00100000
00010000
00000000
00100000
00000000
00000000
00000000
,
01000000
00000000
00000000
00000000
00000000
00000000
10000000
00000000
00100000
00000000
10000000
00000000
00100000
00000000
00000000
00000000
00000000
00000000
00010000
00000000
00000000
00000000
00000000
00000000
00001000
00000000
00000000
00000000
00000000
00000000
00000000
00000000
00000000
00000100
00000000
00000000
00000000
00000000
00000000
00000000
00000000
00000000
00000010
00000000
00000000
00000000
00000000
00000000
,
00010000
00001000
00000010
00000000
00001000
00000010
00000001
00000000
,
00001001
00000000
00000001
00000100
00001000
00000000
00000100
00001000
00010000
00000000
00001000
00010000
00100000
01000000
00100000
01000000
,
10000000
00000000
01000000
00000000
00010000
00000000
10000000
00000000
00100000
01000000
00010000
00100000
00001000
00010000
00000100
00001000
,
00000020
00000000
00000000
00000000
,
00000000
00000000
00000000
00000000
,
00000030
00000000
00000000
00000000
,
00000000
00000000
00000000
00000000
;
