
//----- song ID: gunj -----//
#TITLE:群青;
#TITLETRANSLIT:Gunjou;
#BANNER:Gunjou.png;
#BACKGROUND:Gunjou-bg.png;
#CDTITLE:./CDTitles/jubeat (2021).png;
#MUSIC:Gunjou.ogg;
#SAMPLESTART:39.971;
#SAMPLELENGTH:15;
#BPMS:0=135;
#NOTES:
     dance-single:
     :
     Beginner:
     1:
     :
0000
0000
0000
0000
,
0000
0000
0000
0000
,
0000
0000
0000
0000
,
0000
0000
0000
0000
,
0000
0000
0000
0000
,
1000
0000
0000
0000
,
0000
0000
0000
0000
,
1000
0000
0000
0000
,
0000
0000
0000
0000
,
0010
0000
0000
0000
,
0000
0000
0000
0000
,
0010
0000
0000
0000
,
0000
0000
0000
0000
,
0100
0000
0000
0000
,
0000
0000
0000
0000
,
0100
0000
0000
0000
,
0000
0000
0000
0000
,
0100
0000
0000
0000
,
0000
0000
0000
0000
,
0001
0000
0000
0000
,
0000
0000
0000
0000
,
0001
0000
0000
0000
,
0000
0000
0000
0000
,
0010
0000
0001
0000
,
0010
0000
0000
0000
,
0000
0000
0000
0000
,
0000
0000
0000
0000
,
0001
0000
0100
0000
,
0001
0000
0000
0000
,
0000
0000
0000
0000
,
0000
0000
0000
0000
,
1000
0000
0010
0000
,
1000
0000
0000
0000
,
0000
0000
0000
0000
,
0000
0000
0000
0000
,
0100
0000
0000
0000
,
0100
0000
0000
0000
,
0100
0000
0000
0000
,
0000
0000
0000
0000
,
2000
0000
0000
0000
,
3000
0000
0000
0000
,
2000
0000
0000
0000
,
3000
0000
0000
0000
,
1000
0000
0010
0000
,
0010
0000
0000
0000
,
0010
0000
0000
0000
,
0000
0000
0000
0000
,
0020
0000
0000
0000
,
0030
0000
0000
0000
,
0020
0000
0000
0000
,
0030
0000
0000
0000
,
0001
0000
0010
0000
,
0010
0000
0000
0000
,
0010
0000
0000
0000
,
0000
0000
0000
0000
,
0001
0000
0000
0000
,
0001
0000
0000
0000
,
0010
0000
0001
0000
,
1000
0000
0000
0000
,
0000
0000
0000
0000
,
0000
0000
0000
0000
,
0010
0000
1000
0000
,
0001
0000
0000
0000
,
0002
0000
0000
0000
,
0003
0000
0000
0000
,
0000
0000
0000
0000
;
#NOTES:
     dance-single:
     :
     Easy:
     2:
     :
0000
0000
0000
0000
,
0000
0000
0000
0000
,
0000
0000
0000
0000
,
0000
0000
0000
0000
,
0000
0000
0000
0000
,
1000
0000
0000
0000
,
1000
0000
0000
0000
,
0100
0000
0000
0000
,
0100
0000
0000
0000
,
1000
0000
0000
0000
,
1000
0000
0000
0000
,
0010
0000
0000
0000
,
0010
0000
0000
0000
,
1000
0000
0000
0000
,
1000
0000
0000
0000
,
0020
0000
0000
0000
,
0030
0000
0000
0000
,
0020
0000
0000
0000
,
0030
0000
0000
0000
,
0200
0000
0000
0000
,
0300
0000
0000
0000
,
0000
0000
0000
0000
,
0000
0000
0000
0000
,
0001
0000
0010
0000
,
0001
0000
0000
0000
,
0100
0000
0000
0000
,
0000
0000
0000
0000
,
0010
0000
0010
0000
,
0001
0000
0000
0000
,
0100
0000
0000
0000
,
0000
0000
0000
0000
,
0010
0000
1000
0000
,
0010
0000
0000
0000
,
1000
0000
0000
0000
,
0000
0000
0000
0000
,
1000
0000
1000
0000
,
0100
0000
0000
0000
,
0000
0000
0000
0000
,
0000
0000
0000
0000
,
1000
1000
0100
0000
,
1000
0000
0000
0000
,
0010
0000
0000
0000
,
0000
0000
0000
0000
,
0010
1000
0001
0000
,
0001
0000
0000
0000
,
0010
0000
0000
0000
,
0000
0000
0000
0000
,
0100
0001
0010
0000
,
0010
0000
0000
0000
,
0001
0000
0000
0000
,
0000
0000
0000
0000
,
0010
1000
0100
0000
,
0100
0000
0000
0000
,
1000
0000
0000
0000
,
0001
0000
0000
0000
,
1001
0000
0000
0000
,
1001
0000
0000
0000
,
0010
0000
0100
0000
,
0010
0000
0000
0000
,
0110
0000
0000
0000
,
0000
0000
0000
0000
,
0100
0000
0010
0000
,
0100
0000
0000
0000
,
0010
0000
0000
0000
,
0110
0000
0000
0000
,
0000
0000
0000
0000
;
#NOTES:
     dance-single:
     :
     Medium:
     6:
     :
0000
0000
0000
0000
,
0000
0000
0000
0000
,
0000
0000
0000
0000
,
0000
0000
0000
0000
,
0000
0000
0000
0000
,
0001
1000
0001
0010
,
0100
0000
0010
0000
0001
1000
0001
0000
,
0100
0100
0010
0010
,
2000
3000
0002
0003
,
0100
0010
0100
0010
,
1000
0010
1000
0010
,
0100
0001
0100
0001
,
0010
0001
0010
0000
,
0001
0100
0001
0100
,
0001
1000
0001
1000
,
0002
0000
0000
0000
,
0000
0000
0000
0003
,
2000
0000
0000
0000
,
0000
0000
0000
3000
,
0020
0000
0000
0000
,
0000
0000
0000
0030
,
0200
0000
0000
0000
,
0000
0000
0000
0300
,
0010
0000
0000
0010
0000
0000
0000
0000
,
0100
0000
0000
0100
0000
0000
0000
0000
,
0001
0000
0000
0001
0000
0000
0000
0000
,
1000
0000
0000
1000
0000
0000
0000
0000
,
0100
0000
0000
1000
0000
0000
0000
0000
,
0001
0000
0000
0010
0000
0000
0000
0000
,
0001
0000
0000
0100
0000
0000
0000
0000
,
0010
0000
1000
0000
,
0100
1000
0100
0010
,
0001
1000
0010
0100
,
0001
0100
0001
1000
,
0010
0100
0010
0000
,
1000
1000
0100
0000
,
0010
0010
0001
0000
,
2002
0000
0000
0000
,
3003
0000
0000
0000
,
0001
0100
1000
0100
,
0001
0100
0010
1000
,
0100
0010
0001
0100
,
0010
1000
0001
0000
,
1000
0100
0001
0100
,
1000
0100
0010
0001
,
0100
0010
1000
0100
,
0010
0001
1000
0000
,
0010
1000
0100
0010
,
0001
0100
0001
1000
,
0001
0010
1000
0010
,
0001
1000
0001
0000
,
0010
0001
0100
0010
,
1000
0100
1000
0001
,
1000
0010
0001
0010
,
1000
0001
1000
0000
,
0001
0100
0001
0000
0010
0000
0000
0000
,
0100
1000
0100
0000
0010
0000
0000
0000
,
0001
0100
0001
0100
,
0010
1000
0100
1000
,
0010
1000
0100
1000
,
0010
0100
0010
0000
0100
0000
0000
0000
,
0001
1000
0001
1000
,
0100
0000
0010
0000
0100
0010
0100
0000
,
0110
0000
0000
0000
,
1001
0000
0000
0000
,
0000
0000
0000
0000
;
#NOTES:
     dance-single:
     :
     Hard:
     10:
     :
0000
0000
0000
0000
,
0000
0000
0000
0000
,
0000
0000
0000
0000
,
0000
0000
0000
0000
,
0000
0000
0000
0000
,
1001
0000
0000
0010
1000
0000
0001
0100
,
0000
0001
0000
0010
0000
0100
1000
0100
,
1000
0010
1000
0000
0001
0010
0001
0000
,
2002
0000
0000
0000
3003
0000
0010
1000
,
0010
0100
0010
0000
1000
0001
1000
0000
,
0100
0010
0100
0000
0010
0001
0010
0000
,
0001
0100
0001
0000
1000
0100
1000
0000
,
0010
0100
0010
0000
1000
0001
1000
0000
,
0001
0100
0010
0000
1000
0001
0100
0000
,
0010
1000
0100
0000
1000
0100
0010
0000
,
0002
0010
0010
0013
,
0001
0010
0001
0000
0100
0010
0100
0010
,
0200
0010
0010
0310
,
0100
0010
0100
0000
0010
1000
0010
0000
,
2000
0100
0100
3100
,
1000
0100
1000
0000
0001
0100
0001
0100
,
0002
1000
1000
1003
,
2002
0000
0000
3003
,
1000
0100
0010
0001
0000
0100
0010
1000
,
0000
0100
1000
0001
0000
0010
0001
0100
,
0000
0001
0100
0010
0000
0100
0001
1000
,
0000
0100
1000
0010
0000
0100
0010
0100
,
0000
0001
0100
0001
0000
1000
0010
1000
,
0000
0100
1000
0001
0000
0100
0001
0010
,
0001
0000
1000
0010
0000
0100
0010
1000
,
0000
0200
0020
0000
0330
0100
0010
0001
,
0000
0010
0001
1000
0000
0001
0100
0010
,
0000
0100
0010
1000
0000
0100
0010
0001
,
0000
1000
0100
0010
0000
0100
1000
0010
,
0100
0010
0000
0110
0000
0001
0100
1000
,
0000
1000
0100
0001
0000
1000
0100
0010
,
0001
0010
0001
0010
1000
0010
0001
0000
,
1000
0100
0010
0001
0100
0010
1000
0001
,
0000
1000
1000
0000
0020
0000
0000
0000
,
1030
0010
1000
0010
0000
0100
0001
0010
,
0000
0001
1000
0100
0000
0001
0100
1000
,
0000
0001
0010
0100
0000
1000
0010
0100
,
0000
0001
0010
0100
0000
1000
0010
0001
,
0000
0010
1000
0001
0000
0100
0001
1000
,
0000
0100
1000
0001
0000
0100
0010
0100
,
0010
1000
0010
1000
0001
0100
0001
0100
,
0001
0010
0100
1000
0100
0010
0001
1000
,
0000
0010
0001
0010
0000
0100
0010
1000
,
0000
0001
0010
0100
0000
0001
0100
0010
,
0000
0001
0010
0100
0000
1000
0010
1000
,
0100
1000
0000
1010
0000
0010
0100
0001
,
0000
0100
0001
0010
0000
1000
0010
0001
,
1000
0100
1000
0100
0010
0001
0010
0001
,
2000
0000
0010
0000
0100
0000
3100
0010
,
0002
0000
0010
0000
0103
0000
0001
1000
,
0000
0001
1000
0001
0000
0010
0100
0010
,
0100
1000
0100
1000
0001
1000
0001
0000
,
0100
0001
0000
0100
0001
0000
1000
0010
,
1000
0010
1000
0000
0001
0010
0100
1000
,
0001
0000
0000
1000
0000
0000
0001
0000
0000
0000
0010
0000
0001
0000
1000
0000
,
0100
0000
0000
0010
0000
0000
0100
0000
0000
0000
1000
0000
0001
0000
0000
0000
,
0010
0001
0000
0010
0001
0000
0100
0001
,
0100
0001
0100
0000
0010
1000
0100
0010
,
0001
0000
0000
1000
0000
0000
0001
0000
0000
0000
1000
0000
0001
0000
0100
0000
,
0010
0000
0000
0100
0000
0000
0010
0000
0000
0000
0000
0000
0000
0000
0000
0000
,
0000
0000
0000
0000
;
#NOTES:
     dance-double:
     :
     Easy:
     1:
     :
00000000
00000000
00000000
00000000
,
00000000
00000000
00000000
00000000
,
00000000
00000000
00000000
00000000
,
00000000
00000000
00000000
00000000
,
00000000
00000000
00000000
00000000
,
00010000
00000000
00000000
00000000
,
00010000
00000000
00000000
00000000
,
00001000
00000000
00000000
00000000
,
00001000
00000000
00000000
00000000
,
00000010
00000000
00000000
00000000
,
00000010
00000000
00000000
00000000
,
00000100
00000000
00000000
00000000
,
00000100
00000000
00000000
00000000
,
00010000
00000000
00000000
00000000
,
00010000
00000000
00000000
00000000
,
00002000
00000000
00000000
00000000
,
00003000
00000000
00000000
00000000
,
00002000
00000000
00000000
00000000
,
00003000
00000000
00000000
00000000
,
00020000
00000000
00000000
00000000
,
00030000
00000000
00000000
00000000
,
00020000
00000000
00000000
00000000
,
00030000
00000000
00000000
00000000
,
00100000
00000000
00000000
00000000
,
00100000
00000000
00000000
00000000
,
01000000
00000000
00000000
00000000
,
01000000
00000000
00000000
00000000
,
00010000
00000000
00000000
00000000
,
00010000
00000000
00000000
00000000
,
00100000
00000000
00000000
00000000
,
00100000
00000000
00000000
00000000
,
00001000
00000000
00000000
00000000
,
00001000
00000000
00000000
00000000
,
00010000
00000000
00000000
00000000
,
00010000
00000000
00000000
00000000
,
00000100
00000000
00000000
00000000
,
00000100
00000000
00000000
00000000
,
00000020
00000000
00000000
00000000
,
00000030
00000000
00000000
00000000
,
00000100
00000000
00001000
00000000
,
00000100
00000000
00000000
00000000
,
00010000
00000000
00000000
00000000
,
00000010
00000000
00000000
00000000
,
00000100
00000000
00001000
00000000
,
00000100
00000000
00000000
00000000
,
00001000
00000000
00000000
00000000
,
00010000
00000000
00000000
00000000
,
00100000
00000000
01000000
00000000
,
00100000
00000000
00000000
00000000
,
01000000
00000000
00000000
00000000
,
00010000
00000000
00000000
00000000
,
00100000
00000000
00001000
00000000
,
00100000
00000000
00000000
00000000
,
01000000
00000000
00000000
00000000
,
00010000
00000000
00000000
00000000
,
00001000
00000000
00000000
00000000
,
00011000
00000000
00000000
00000000
,
00010000
00000000
00000010
00000000
,
00010000
00000000
00000000
00000000
,
00001000
00000000
00000000
00000000
,
00010000
00000000
00000000
00000000
,
00001000
00000000
00100000
00000000
,
00001000
00000000
00000000
00000000
,
00010000
00000000
00000000
00000000
,
00001000
00000000
00000000
00000000
,
00000000
00000000
00000000
00000000
;
#NOTES:
     dance-double:
     :
     Medium:
     6:
     :
00000000
00000000
00000000
00000000
,
00000000
00000000
00000000
00000000
,
00000000
00000000
00000000
00000000
,
00000000
00000000
00000000
00000000
,
00000000
00000000
00000000
00000000
,
00001000
00010000
00001000
00010000
,
00001000
00100000
00001000
00100000
,
00010000
01000000
00010000
01000000
,
00200000
00300000
02000000
03000000
,
00010000
10000000
00010000
10000000
,
01000000
00010000
01000000
00010000
,
00001000
00010000
00001000
00010000
,
00001000
00000010
00001000
00000010
,
00000001
00000010
00000001
00000010
,
00000100
00001000
00000100
00001000
,
00000200
00000000
00000000
00000000
,
00000000
00000000
00000000
00000300
,
00020000
00000000
00000000
00000000
,
00000000
00000000
00000000
00030000
,
00002000
00000000
00000000
00000000
,
00000000
00000000
00000000
00003000
,
00200000
00000000
00000000
00000000
,
00000000
00000000
00000000
00300000
,
00010000
00000000
00000000
00010000
00000000
00000000
00000000
00000000
,
01000000
00000000
00000000
01000000
00000000
00000000
00000000
00000000
,
00100000
00000000
00000000
00100000
00000000
00000000
00000000
00000000
,
10000000
00000000
00000000
10000000
00000000
00000000
00000000
00000000
,
01000000
00000000
00000000
01000000
00000000
00000000
00000000
00000000
,
00010000
00000000
00000000
00010000
00000000
00000000
00000000
00000000
,
00001000
00000000
00000000
00001000
00000000
00000000
00000000
00000000
,
00000010
00000000
00000001
00000000
,
00000010
00000001
00000100
00000010
,
00001000
00000010
00000100
00001000
,
00010000
00100000
00010000
00100000
,
10000000
00100000
10000000
00000000
,
01000000
00100000
01000000
00100000
,
00001000
00100000
00001000
00000000
,
00022000
00000000
00000000
00000000
,
00033000
00000000
00000000
00000000
,
00010000
00000100
00001000
00000010
,
00000100
00000001
00000010
00000100
,
00001000
00000010
00000100
00001000
,
00010000
00100000
01000000
00100000
,
10000000
01000000
00100000
00010000
,
10000000
01000000
00010000
01000000
,
10000000
00100000
01000000
00010000
,
00100000
01000000
00010000
00001000
,
00000010
00000001
00000010
00000100
,
00001000
00000001
00000100
00000010
,
00001000
00000001
00000100
00001000
,
00010000
00100000
01000000
00010000
,
00100000
00001000
00100000
00010000
,
00100000
01000000
10000000
00010000
,
00100000
00001000
00010000
00000100
,
00001000
00000010
00001000
00000000
,
00000001
00000010
00001000
00010000
,
00001000
00010000
00001000
00000000
00010000
00000000
00000000
00000000
,
00001000
01000000
00001000
01000000
,
00010000
00100000
00010000
00100000
,
01000000
10000000
00010000
00100000
,
01000000
00000000
00010000
00000000
00001000
00010000
00001000
00000000
,
00010000
00001000
00000010
00000001
,
00001000
00000100
00000010
00000001
,
00001001
00000000
00000000
00000000
,
00000110
00000000
00000000
00000000
,
00000000
00000000
00000000
00000000
;
#NOTES:
     dance-double:
     :
     Hard:
     10:
     :
00000000
00000000
00000000
00000000
,
00000000
00000000
00000000
00000000
,
00000000
00000000
00000000
00000000
,
00000000
00000000
00000000
00000000
,
00000000
00000000
00000000
00000000
,
00001000
00000000
00000000
01000000
00010000
00000000
00100000
00010000
,
00000000
00100000
00000000
01000000
00000000
10000000
00100000
10000000
,
00100000
00010000
00001000
00010000
00000000
00001000
00010000
00001000
,
00000000
00001000
00020000
00000000
00030000
00000000
00010000
00001000
,
00000010
00000001
00000010
00000000
00000001
00000100
00000001
00000000
,
00001000
00000010
00001000
00000000
00000100
00010000
00000100
00000000
,
00010000
00001000
00010000
00000000
00001000
01000000
00001000
00000000
,
01000000
00010000
01000000
00000000
00010000
00100000
00010000
00000000
,
00100000
01000000
10000000
00000000
00100000
01000000
00010000
00000000
,
00100000
00001000
00010000
00000000
00001000
00010000
00000010
00000000
,
00002000
00000010
00000010
00003010
,
00000100
00000001
00000100
00000000
00000010
00001000
00000010
00001000
,
00000020
00000100
00000100
00000130
,
00000010
00001000
00000010
00000000
00010000
00001000
00010000
00000000
,
00002000
00010000
00010000
00013000
,
00001000
01000000
00001000
00000000
00100000
00010000
00100000
00010000
,
00200000
01000000
01000000
01300000
,
02200000
00000000
00000000
03300000
,
10000000
01000000
10000000
00100000
00000000
01000000
00010000
01000000
,
00000000
00010000
00100000
00010000
00000000
00100000
00001000
00010000
,
00000000
00001000
00010000
00001000
00000000
00010000
00001000
00000010
,
00000000
00000001
00001000
00000001
00000000
00000100
00000010
00000100
,
00000000
00000001
00000100
00000001
00000000
00001000
00000100
00001000
,
00000000
00000010
00010000
00000010
00000000
00010000
00001000
00010000
,
00001000
00000000
01000000
00010000
00000000
00100000
00010000
01000000
,
00000000
00200000
02000000
00000000
03300000
00100000
10000000
00100000
,
00000000
01000000
00010000
00100000
00000000
00001000
00010000
00001000
,
00000000
00010000
00000100
00001000
00000000
00000010
00001000
00000010
,
00000000
00000100
00000001
00000100
00000000
00000001
00000010
00000100
,
00001000
00000100
00000000
00001100
00000000
00001000
00000100
00010000
,
00000000
00001000
00010000
00001000
00000000
00100000
00001000
00010000
,
01000000
10000000
01000000
10000000
00010000
01000000
00100000
00000000
,
10000000
01000000
00010000
01000000
00010000
00001000
00010000
00001000
,
00000000
00000010
00000010
00000000
00000002
00000000
00000000
00000000
,
00000103
00000010
00000100
00000010
00000000
00000100
00001000
00000100
,
00000000
00001000
00010000
00001000
00000000
00010000
00100000
00010000
,
00000000
00100000
10000000
00100000
00000000
10000000
00010000
01000000
,
00000000
00010000
10000000
01000000
00000000
00100000
00010000
01000000
,
00000000
00010000
00100000
00001000
00000000
00010000
00000100
00001000
,
00000000
00000100
00001000
00000010
00000000
00000100
00000001
00000100
,
00000010
00000000
00001000
00000010
00000000
00000100
00000001
00000100
,
00000000
00001000
00020000
00000000
00030000
00001000
00010000
00001000
,
00000000
01000000
00010000
00100000
00000000
01000000
10000000
00010000
,
00000000
10000000
00100000
00010000
00000000
00001000
00010000
00001000
,
00000000
00010000
00001000
00000010
00000000
00000001
00000010
00000001
,
00000100
00000001
00000000
00001001
00000000
00000001
00000100
00001000
,
00000000
00000100
00001000
00010000
00000000
00001000
00010000
00100000
,
10000000
00100000
10000000
00010000
00100000
00010000
00100000
00000000
,
00002000
00000000
01000000
00000000
01000000
00000000
01003000
00001000
,
00020000
00000000
00000010
00000000
00000010
00000000
00030010
00010000
,
00000000
00000100
00001000
00000100
00000000
00000010
00000001
00000010
,
00000001
00001000
00000100
00001000
00000100
00010000
00001000
00000000
,
00100000
00010000
00000000
00100000
00010000
00000000
10000000
00010000
,
10000000
00010000
10000000
00000000
01000000
00010000
00001000
00000000
,
00000010
00000000
00000000
00001000
00000000
00000000
00010000
00000000
00000000
00000000
00001000
00000000
00010000
00000000
00000000
00000000
,
00100000
00000000
00000000
00010000
00000000
00000000
00001000
00000000
00000000
00000000
00010000
00000000
00001000
00000000
00000000
00000000
,
00000010
00000001
00000000
00000010
00000001
00000000
00000100
00000001
,
00000100
00000001
00001000
00000000
00000001
00000100
00001000
00000000
,
00010000
00000000
00000000
00100000
00000000
00000000
10000000
00000000
00000000
00000000
00010000
00000000
10000000
00000000
00000000
00000000
,
01000000
00000000
00000000
00010000
00000000
00000000
00001000
00000000
00000000
00000000
00000000
00000000
00000000
00000000
00000000
00000000
,
00000000
00000000
00000000
00000000
;
