
//----- song ID: dryf -----//
#TITLE:ドライフラワー;
#TITLETRANSLIT:Dry flower;
#BANNER:Dry flower.png;
#BACKGROUND:Dry flower-bg.png;
#CDTITLE:./CDTitles/jubeat (2021).png;
#MUSIC:Dry flower.ogg;
#SAMPLESTART:86.728;
#SAMPLELENGTH:15;
#DISPLAYBPM:148;
#BPMS:0=146.5,4=148;
#NOTES:
     dance-single:
     :
     Beginner:
     1:
     :
0000
0000
0000
0000
,
0000
0000
0000
0000
,
0000
0000
0000
0000
,
0000
0000
0000
0000
,
0000
0000
0000
0000
,
0000
0000
0000
0000
,
0001
0000
0000
0000
,
0000
0000
0000
0000
,
1000
0000
0000
0000
,
0000
0000
0000
0000
,
0010
0000
0000
0000
,
0000
0000
0000
0000
,
0010
0000
0000
0000
,
0000
0000
0000
0000
,
0100
0000
0000
0000
,
0000
0000
0000
0000
,
0100
0000
0000
0000
,
0000
0000
0000
0000
,
0001
0000
0000
0000
,
0001
0000
0000
0000
,
1000
0000
0000
0000
,
1000
0000
0000
0000
,
0100
0000
0000
0000
,
0100
0000
0000
0000
,
0010
0000
0000
0000
,
0010
0000
0000
0000
,
0002
0000
0000
0000
,
0000
0000
0000
0003
,
2000
0000
0000
0000
,
0000
0000
3000
0000
,
0002
0000
0000
0000
,
0000
0000
0003
0000
,
2000
0000
0000
0000
,
0000
0000
3000
0000
,
0020
0000
0000
0000
,
0000
0000
0030
0000
,
0200
0000
0000
0000
,
0000
0000
0300
0000
,
0010
0000
0000
0000
,
0010
0000
0000
0000
,
0100
0000
0000
0000
,
0100
0000
0000
0000
,
1001
0000
0000
0000
,
0000
0000
0000
0000
,
1001
0000
0000
0000
,
0000
0000
0000
0000
,
1001
0000
0000
0000
,
0000
0000
0000
0000
,
1001
0000
0000
0000
,
0000
0000
0000
0000
,
0001
0000
0001
0000
,
0000
0000
0000
0000
,
1000
0000
1000
0000
,
0000
0000
0000
0000
,
0010
0000
0010
0000
,
0000
0000
0000
0000
,
0200
0000
0000
0000
,
0000
0000
0300
0000
,
0010
0000
0000
0000
,
0100
0000
0000
0000
,
0001
0000
0000
0000
,
1000
0000
0000
0000
,
0010
0000
0000
0000
,
0100
0000
0000
0000
,
0001
0000
0000
0000
,
1001
0000
0000
0000
,
0100
0000
0000
0000
,
0010
0000
0000
0000
,
1000
0000
0000
0000
,
0001
0000
0000
0000
,
0100
0000
0000
0000
,
0010
0000
0000
0000
,
1000
0000
0000
0000
,
0000
0000
0000
0000
;
#NOTES:
     dance-single:
     :
     Easy:
     5:
     :
0000
0000
0000
0000
,
0000
0000
0000
0000
,
0000
0000
0000
0000
,
0000
0000
0000
0000
,
0000
0000
0000
0000
,
0000
0000
0000
0000
,
0100
0000
0010
0000
,
1000
0000
0000
0000
,
0001
0000
0000
1001
,
0000
0000
0000
0000
,
0000
0001
0100
0001
,
0010
0000
0100
0000
,
0000
1000
0010
1000
,
0100
0000
0010
0000
,
0000
0001
0100
0010
,
1000
0000
0100
0000
,
1000
0001
0010
0100
,
0000
0000
0000
0000
,
1000
1000
0001
0001
,
0100
0010
0000
0000
,
0100
0100
0010
0010
,
1000
0001
0000
0000
,
0100
0010
1000
0001
,
0010
0100
0000
0000
,
1000
0010
0100
0001
,
1000
0010
0000
0100
,
0020
0000
0000
0030
,
0010
0000
0100
0001
,
0010
0000
0001
0000
,
1000
0000
0100
0010
,
0200
0000
0000
0300
,
0100
0000
0000
0000
,
0001
0000
1000
0000
,
0001
0000
0100
0010
,
2000
0000
0000
3000
,
1000
0000
0010
0100
,
0001
0000
0010
0000
,
0001
0000
1000
0010
,
0100
0000
0010
0000
,
1000
0100
1000
0000
,
0001
0000
0010
0100
,
1000
0000
0001
0000
,
0100
0000
0010
0000
,
0100
0000
0001
0100
,
0001
0000
1000
0010
,
1000
0000
0001
0000
,
0100
0000
1000
0000
,
0100
0000
0010
0100
,
0010
0000
0001
1000
,
1001
0000
0110
0000
,
0001
0100
1000
0100
,
0010
0000
1000
0000
,
0100
0010
0001
0100
,
0010
0000
1000
0001
,
0000
0001
1000
0000
,
1000
0001
0000
0110
,
1001
0000
0200
0000
,
0320
0000
0130
0000
,
0001
1000
0001
0100
,
0010
1000
0010
0000
,
1000
0100
1000
0010
,
0100
0001
0100
0000
,
0010
0100
0001
0100
,
0010
1000
0100
1000
,
0010
0100
0000
0110
,
0000
1000
0001
0000
,
1000
0010
1000
0001
,
0100
0001
0010
0000
,
0001
0010
1000
0010
,
0001
0100
0010
1000
,
0100
0000
0100
0000
,
0010
0000
0010
0000
,
0001
0000
0000
1001
,
0000
0000
0000
0000
;
#NOTES:
     dance-single:
     :
     Medium:
     9:
     :
0000
0000
0000
0000
,
0000
0000
0000
0000
,
0000
0000
0000
0000
,
0000
0000
0000
0000
,
0000
0000
0000
0000
,
0000
0000
0000
0000
,
1000
0000
0100
0000
,
1000
0000
0001
0000
,
0100
0010
0000
0110
,
0000
0000
0000
0000
,
0000
0001
0010
0001
,
1000
0010
0100
0001
,
0000
1000
0100
1000
,
0001
0100
0010
1000
,
0000
0100
0010
0100
,
1000
0010
0100
0010
,
1000
0100
0010
0001
,
0000
0100
0010
1000
,
0100
0001
0100
1000
,
0010
0100
0000
0001
,
0100
1000
0100
0001
,
0100
0010
0000
0100
,
0001
1000
0100
0010
,
0100
1000
0000
0010
,
1000
0001
0010
0100
,
0010
0001
0000
1000
,
0002
0000
0000
0000
0000
0000
0000
0000
0000
0103
0000
0010
,
0000
0000
0000
0000
0000
0000
1000
0000
0000
0100
0000
1000
,
0000
0000
0000
0001
0000
0100
0000
0000
0000
0001
0000
0010
,
0000
0000
0100
0100
,
2000
0000
0000
0000
0000
0000
0000
0000
0000
3001
0000
0100
,
0000
0000
0000
0000
0000
0000
0010
0000
0000
1000
0000
0010
,
0000
0000
0000
1000
0000
0100
0000
0000
0000
0010
0000
0001
,
0000
0000
0010
0010
,
0002
0000
0000
0000
0000
0000
0000
0000
0000
1003
0000
0100
,
0000
0000
0000
0000
0000
0000
0010
0000
0000
0001
0000
0010
,
0000
0000
0000
0100
0000
1000
0000
0000
0000
0100
0000
0010
,
0000
0000
0000
0000
0000
0000
0001
0000
0000
0100
0000
0010
,
0000
0000
0000
0100
0000
0001
0000
0000
0000
1000
0000
0010
,
0000
0000
0000
1000
0000
0100
0000
0000
0000
0010
0000
0001
,
0000
0000
0000
0010
0000
0100
0000
0000
0000
1000
0000
0100
,
0000
0000
0000
0000
0000
0000
1000
0000
0000
0100
0000
0001
,
0000
0000
0000
0100
0000
0000
1000
0000
0000
0010
0000
0001
,
0000
0000
0000
0010
0000
0000
1000
0000
0000
0100
0000
1000
,
0000
0000
0000
0001
0000
1000
0000
0000
0000
0001
0000
0010
,
0000
0000
0000
0010
0000
0000
0001
0000
0000
0100
0000
1000
,
0000
0000
0000
0100
0000
0000
0001
0000
0000
0010
0000
1000
,
0000
0000
0000
0010
0000
0000
0001
0000
0000
0001
0000
0100
,
0000
0000
0000
1000
0000
0100
0000
0000
0000
0001
0000
0010
,
0100
0000
0000
0100
0000
0000
1000
0000
1000
0010
0000
0010
,
1000
0000
0000
0001
0000
0000
0010
0000
0001
0010
0000
0000
,
0100
0000
0000
1000
0000
0000
0010
0000
1000
0010
0000
0000
,
1000
0000
0100
0000
0010
0000
0100
0000
0000
1000
0000
0001
,
1000
0100
0010
0110
,
0001
1000
1000
0001
,
0010
0010
0100
0110
,
1001
0000
2000
0000
,
3020
0230
0310
0010
,
1000
0000
0000
0100
0000
0000
0010
0000
0000
0100
0000
1000
,
0100
0000
0000
0010
0000
0000
0001
0000
0000
0100
0000
0010
,
0100
0000
0000
0001
0000
0000
0010
0000
0000
0100
0000
0010
,
0100
1000
0100
0001
,
0100
0000
0000
0010
0000
0000
0001
0000
0000
0100
0000
0010
,
0100
0000
0000
0001
0000
0000
1000
0000
0000
0100
0000
0010
,
0100
0000
0000
1000
0000
0010
0000
0000
0000
1000
0000
0000
,
0000
0000
0100
0010
0000
0000
0001
0000
0000
0100
0000
0000
,
0001
0000
0000
0100
0000
0000
0010
0000
0000
1000
0000
0001
,
0010
0000
0100
0010
0000
0000
0001
0000
0000
0100
0000
0000
,
0001
0000
0000
0100
0000
0000
0010
0000
0000
1000
0000
0001
,
0010
0000
0001
0100
0000
0000
0001
0000
0000
1000
0000
0000
,
0010
0100
0001
1000
,
0100
0010
0001
1000
,
0010
0000
0000
0000
0000
0100
0000
0000
0000
1001
0000
0000
,
0000
0000
0000
0000
;
#NOTES:
     dance-single:
     :
     Hard:
     13:
     :
0000
0000
0000
0000
,
0000
0000
0000
0000
,
0000
0000
0000
0000
,
0000
0000
0000
0000
,
0000
0000
0000
0000
,
0000
0000
0000
0000
,
0001
0000
0100
0000
,
0001
0010
0100
1000
,
0010
0100
0000
0110
,
0000
0000
0000
0000
,
0000
1000
0010
1000
,
0100
0000
0010
0001
0000
0100
0010
0000
0100
0001
0000
0000
,
0000
1000
0100
0010
,
0001
0000
1000
0100
0000
1000
0010
0000
0100
0010
0000
0000
,
0000
0000
0001
0010
0000
0100
1000
0000
0010
0100
0000
0001
,
0010
0000
0000
0001
0000
0100
0010
0000
1000
0010
0000
0000
,
1000
0100
0010
0001
,
0000
0000
0100
0010
0000
0000
0100
0000
0000
0001
0000
0000
,
0100
0000
0010
1000
0000
0010
0100
0000
0010
1000
0000
0100
,
0010
0000
0001
0010
0000
0000
0110
0000
0000
1000
0000
0000
,
0100
0000
0010
0001
0000
0010
0100
0000
0010
0001
0000
0100
,
0010
0000
1000
0010
0000
0000
0110
0000
0001
1000
0000
0010
,
1000
0000
0100
1000
0000
0010
0100
0000
0001
0010
0000
0001
,
0100
0000
0010
1000
0000
0000
0101
0000
1000
0001
0000
0010
,
0001
0000
0100
0001
0000
0010
0100
0000
1000
0010
0000
1000
,
0100
0000
0010
0001
0000
0000
0000
0000
0100
0010
0000
0000
,
2000
0000
0000
0100
0000
0000
0001
0000
0000
3010
0000
0100
,
0010
0000
0000
0100
0000
0000
0001
0000
0100
0010
0000
0010
,
0100
0000
0000
0001
0000
0100
1000
0000
0000
0001
0000
0100
,
1000
0000
0000
0100
0000
0000
0010
0000
1000
0010
0000
0000
,
0200
0000
0000
1000
0000
0000
0010
0000
0000
0301
0000
0010
,
0001
0000
0000
0000
0000
0100
0010
0000
0010
1000
0000
1000
,
0001
0000
0000
1000
0000
0010
0001
0000
0000
1000
0000
0010
,
0001
0000
0000
0010
0000
1000
0100
0000
1000
0001
0000
0000
,
0200
0000
0000
0001
0000
0000
0010
0000
0000
1300
0000
0100
,
0010
0000
0000
0100
0000
0000
0001
0000
0010
0100
0000
0100
,
0010
0000
0000
0001
0000
0010
1000
0000
0000
0001
0000
0010
,
1000
0000
0000
0010
0000
0000
0100
0000
1000
0100
0000
0010
,
0001
0000
0000
0100
0000
0001
0010
0000
0000
0010
0000
0001
,
0100
0000
0000
0010
0000
1000
0100
0000
0000
1000
0000
0100
,
0001
0000
0000
0001
0000
0100
1000
0000
0000
0001
0000
0100
,
1000
0000
0000
0100
0000
0000
0010
0000
0000
0010
0000
0100
,
0001
0000
0000
0001
0000
0000
1000
0000
0000
1000
0000
0100
,
0010
0000
0000
0010
0000
0000
0100
0000
0000
0100
0000
1000
,
0010
0000
0000
1000
0000
0001
0010
0000
0000
0001
0000
0100
,
1000
0000
0100
0001
0000
0000
0100
0000
0000
0100
0000
0010
,
1000
0000
0000
1000
0000
0000
0001
0000
0000
0001
0000
0010
,
0100
0000
0000
0100
0000
0000
0010
0000
0000
0010
0000
0001
,
0100
0000
0000
0010
0000
1000
0100
0000
0000
1000
0000
0100
,
0010
0000
0001
0100
0001
0100
0010
0000
1000
0100
1000
0100
,
0010
0000
0001
0010
0000
0000
0001
0100
0010
0100
0000
0010
,
1000
0000
0001
1000
0000
0100
0010
0100
1000
0001
0000
0000
,
0100
0000
0010
0000
0100
0000
0001
0000
0000
1000
0000
0010
,
0100
0000
0001
0100
0000
0000
0101
0000
0000
1001
0000
0000
,
1000
0000
0000
1100
0000
0000
0001
0010
0100
1000
0000
0001
,
0100
0000
0001
1000
0000
0000
0010
0000
0000
0110
0000
0000
,
1001
0000
0020
0000
,
2030
3200
0310
0110
,
0001
0000
0000
0011
0000
0000
1000
0000
0100
0010
0000
0010
,
0100
0000
0000
1100
0000
0000
0001
0000
0100
0010
0000
0010
,
0100
0000
0000
0101
0000
0000
0010
0000
1000
0100
0000
0100
,
1000
0000
0000
1010
0000
0000
0010
0100
0010
1000
0000
0000
,
0001
0000
0000
0011
0000
0000
1000
0000
0001
0010
0000
0010
,
0100
0000
0000
1100
0000
0000
0001
0000
1000
0010
0000
0010
,
0100
0000
0000
0101
0000
0101
0000
0000
0010
0100
0000
0000
,
0000
0000
0100
0001
0000
0000
1000
0100
1000
0010
0100
0001
,
0100
0000
0000
0001
0000
0000
0010
0000
0100
1000
0000
1000
,
0010
0000
0100
0010
0000
0000
1000
0000
0100
0010
0000
0010
,
0001
0000
0000
0100
0000
0000
0010
0000
1000
0001
0000
0001
,
0100
0000
0001
0010
0000
0000
0100
1000
0100
0010
0000
0000
,
0001
0100
0010
1000
,
0001
0010
0100
1000
,
0010
0000
0000
0000
0000
0100
0000
0000
0000
1001
0000
0000
,
0000
0000
0000
0000
;
#NOTES:
     dance-double:
     :
     Easy:
     6:
     :
00000000
00000000
00000000
00000000
,
00000000
00000000
00000000
00000000
,
00000000
00000000
00000000
00000000
,
00000000
00000000
00000000
00000000
,
00000000
00000000
00000000
00000000
,
00000000
00000000
00000000
00000000
,
00001000
00000000
00010000
00000000
,
00001000
00000000
00000000
00000000
,
01000000
00000000
00000000
01100000
,
00000000
00000000
00000000
00000000
,
00000000
00100000
01000000
00010000
,
00100000
00000000
00001000
00000000
,
00000000
00010000
00000100
00001000
,
00000100
00000000
00000010
00000000
,
00000000
00000001
00000100
00001000
,
00010000
00000000
00001000
00000000
,
00100000
00010000
10000000
01000000
,
00000000
00000000
00000000
00000000
,
10000000
10000000
00100000
00100000
,
00010000
00001000
00000000
00000000
,
00010000
00010000
00001000
00001000
,
00000100
00000010
00000000
00000000
,
00000001
00000100
00000010
00001000
,
00000100
00010000
00000000
00000000
,
00001000
00100000
00010000
01000000
,
00100000
10000000
00000000
00010000
,
00200000
00000000
00000000
00300000
,
00100000
00000000
00001000
00010000
,
00001000
00000000
00000100
00000000
,
00000001
00000000
00001000
00000100
,
00002000
00000000
00000000
00003000
,
00001000
00000000
00000000
00000000
,
00000100
00000000
00010000
00000000
,
00001000
00000000
01000000
00010000
,
02000000
00000000
00000000
03000000
,
01000000
00000000
00100000
10000000
,
00010000
00000000
01000000
00000000
,
00001000
00000000
00010000
00000010
,
00001000
00000000
00000001
00000000
,
00000100
00000010
00000100
00000000
,
00000001
00000000
00001000
00000100
,
00010000
00000000
00001000
00000000
,
00001000
00000000
00100000
00000000
,
00100000
00000000
00010000
01000000
,
00010000
00000000
10000000
00100000
,
10000000
00000000
01000000
00000000
,
00010000
00000000
00001000
00000000
,
00000100
00000000
00000001
00000100
,
00000001
00000000
00001000
00000010
,
00001000
00000000
00011000
00000000
,
00001000
00010000
01000000
10000000
,
01000000
00000000
00100000
00000000
,
00010000
10000000
00100000
00010000
,
00001000
00000000
00010000
00000010
,
00000000
00000010
00001000
00000000
,
00001000
00000001
00000000
00001100
,
00011000
00000000
00020000
00000000
,
00032000
00000000
00013000
00000000
,
00001000
01000000
00010000
01000000
,
00100000
10000000
00100000
01000000
,
00010000
00100000
00001000
00010000
,
00001000
00010000
00000010
00001000
,
00000100
00000010
00000001
00000010
,
00000001
00001000
00000100
00010000
,
00001000
00010000
00000000
00011000
,
00000000
01000000
00010000
00000000
,
10000000
00100000
00010000
00001000
,
00000010
00000001
00001000
00000000
,
00000100
00000010
00000001
00000100
,
00001000
00010000
01000000
10000000
,
00010000
00000000
00100000
00000000
,
00001000
00000000
00010000
00000000
,
00000100
00000000
00000000
00001001
,
00000000
00000000
00000000
00000000
;
#NOTES:
     dance-double:
     :
     Medium:
     10:
     :
00000000
00000000
00000000
00000000
,
00000000
00000000
00000000
00000000
,
00000000
00000000
00000000
00000000
,
00000000
00000000
00000000
00000000
,
00000000
00000000
00000000
00000000
,
00000000
00000000
00000000
00000000
,
00000001
00000000
00000100
00000000
,
00000010
00000000
00001000
00000000
,
00000100
00010000
00000000
00011000
,
00000000
00000000
00000000
00000000
,
00000000
00100000
00010000
00100000
,
01000000
10000000
00100000
01000000
,
00000000
00001000
00010000
00001000
,
00000100
00000010
00000100
00000001
,
00000000
00001000
00000100
00010000
,
00001000
00010000
00100000
01000000
,
00010000
10000000
01000000
00100000
,
00000000
00010000
10000000
01000000
,
00010000
00001000
00000100
00000001
,
00000100
00000010
00000000
00000100
,
00000001
00000010
00001000
00010000
,
00100000
10000000
00000000
00010000
,
00100000
00001000
00010000
00000010
,
00001000
00000100
00000000
00000010
,
00000001
00001000
00000100
00010000
,
00001000
00100000
00000000
00010000
,
20000000
00000000
00000000
00000000
00000000
00000000
00000000
00000000
00000000
30100000
00000000
01000000
,
00000000
00000000
00000000
00000000
00000000
00000000
00010000
00000000
00000000
00100000
00000000
00010000
,
00000000
00000000
00000000
00100000
00000000
00001000
00000000
00000000
00000000
00010000
00000000
00000100
,
00000000
00000000
00001000
00001000
,
00000002
00000000
00000000
00000000
00000000
00000000
00000000
00000000
00000000
00000103
00000000
00000010
,
00000000
00000000
00000000
00000000
00000000
00000000
00001000
00000000
00000000
00000100
00000000
00010000
,
00000000
00000000
00000000
00001000
00000000
00100000
00000000
00000000
00000000
00010000
00000000
01000000
,
00000000
00000000
00010000
00010000
,
20000000
00000000
00000000
00000000
00000000
00000000
00000000
00000000
00000000
31000000
00000000
00100000
,
00000000
00000000
00000000
00000000
00000000
00000000
00010000
00000000
00000000
01000000
00000000
00001000
,
00000000
00000000
00000000
00010000
00000000
00000100
00000000
00000000
00000000
00001000
00000000
00000010
,
00000000
00000000
00000000
00000000
00000000
00000000
00000100
00000000
00000000
00000001
00000000
00000100
,
00000000
00000000
00000000
00001000
00000000
00010000
00000000
00000000
00000000
01000000
00000000
10000000
,
00000000
00000000
00000000
00010000
00000000
00100000
00000000
00000000
00000000
00010000
00000000
10000000
,
00000000
00000000
00000000
00100000
00000000
00010000
00000000
00000000
00000000
00001000
00000000
00010000
,
00000000
00000000
00000000
00000000
00000000
00000000
00001000
00000000
00000000
00000100
00000000
00000001
,
00000000
00000000
00000000
00000100
00000000
00000000
00000001
00000000
00000000
00000100
00000000
00001000
,
00000000
00000000
00000000
00010000
00000000
00000000
00001000
00000000
00000000
00010000
00000000
01000000
,
00000000
00000000
00000000
10000000
00000000
01000000
00000000
00000000
00000000
00010000
00000000
00001000
,
00000000
00000000
00000000
00010000
00000000
00000000
00001000
00000000
00000000
00000010
00000000
00000001
,
00000000
00000000
00000000
00000010
00000000
00000000
00001000
00000000
00000000
00010000
00000000
00100000
,
00000000
00000000
00000000
10000000
00000000
00000000
00010000
00000000
00000000
00010000
00000000
00100000
,
00000000
00000000
00000000
00001000
00000000
00010000
00000000
00000000
00000000
00000010
00000000
00001000
,
00000001
00000000
00000000
00000001
00000000
00000000
00000100
00000000
00000100
00000010
00000000
00000000
,
00001000
00000000
00000100
00010000
00000000
00000000
00001000
00000000
01000000
00010000
00000000
00000000
,
10000000
00000000
01000000
00100000
00000000
00000000
00010000
00000000
00100000
00001000
00000000
00000000
,
00010000
00000000
00001000
00000000
00000100
00000000
00000001
00000000
00000000
00000100
00000000
00001000
,
00010000
00010000
00001000
01000000
,
00010000
10000000
10000000
00100000
,
00010000
00010000
00001000
00011000
,
00001010
00000000
00000002
00000000
,
00000203
00002300
00013000
00010000
,
00100000
00000000
00000000
10000000
00000000
00000000
01000000
00000000
00000000
10000000
00000000
00100000
,
01000000
00000000
00000000
00010000
00000000
00000000
01000000
00000000
00000000
00001000
00000000
00010000
,
00001000
00000000
00000000
00010000
00000000
00000000
00000100
00000000
00000000
00001000
00000000
00000100
,
00000010
00000100
00001000
00000001
,
00000100
00000000
00000000
00000010
00000000
00000000
00000100
00000000
00000000
00000010
00000000
00001000
,
00000010
00000000
00000000
00010000
00000000
00000000
00001000
00000000
00000000
00010000
00000000
00001000
,
00100000
00000000
00000000
00010000
00000000
10000000
00000000
00000000
00000000
00100000
00000000
00000000
,
00000000
00000000
01000000
00100000
00000000
00000000
10000000
00000000
00000000
01000000
00000000
00000000
,
00010000
00000000
00000000
00001000
00000000
00000000
00000100
00000000
00000000
00001000
00000000
00010000
,
00001000
00000000
00000000
00000100
00000000
00000000
00000001
00000000
00000000
00000100
00000000
00000001
,
00000100
00000000
00000000
00001000
00000000
00000000
00010000
00000000
00000000
01000000
00000000
10000000
,
01000000
10000000
00100000
00010000
,
00001000
00000010
00000001
00000010
,
00001000
00010000
00001000
00100000
,
00010000
00000000
00000000
00000000
00000000
01000000
00000000
00000000
00000000
01100000
00000000
00000000
,
00000000
00000000
00000000
00000000
;
#NOTES:
     dance-double:
     :
     Hard:
     13:
     :
00000000
00000000
00000000
00000000
,
00000000
00000000
00000000
00000000
,
00000000
00000000
00000000
00000000
,
00000000
00000000
00000000
00000000
,
00000000
00000000
00000000
00000000
,
00000000
00000000
00000000
00000000
,
10000000
00000000
01000000
00000000
,
00010000
00001000
00000100
00000001
,
00001000
00000010
00000000
00000110
,
00000000
00000000
00000000
00000000
,
00000000
00000001
00001000
00000100
,
00010000
00000000
00001000
00100000
00000000
00010000
01000000
00000000
00010000
10000000
00000000
00000000
,
00000000
01000000
00100000
00010000
,
01000000
00000000
00001000
00010000
00000000
00000010
00001000
00000000
00000010
00000100
00000000
00000000
,
00000000
00000000
00000001
00000010
00000000
00000100
00001000
00000000
00000100
00010000
00000000
00001000
,
00010000
00000000
00000000
00001000
00000000
01000000
00010000
00000000
00100000
00010000
00000000
00000000
,
10000000
01000000
00010000
00001000
,
00000000
00000000
00010000
00001000
00000000
00000000
00000010
00000000
00000000
00000001
00000000
00000000
,
00001000
00000000
00000100
00010000
00000000
00000100
00001000
00000000
00000100
00010000
00000000
00001000
,
00100000
00000000
00010000
10000000
00000000
00000000
01100000
00000000
00000000
10000000
00000000
00000000
,
00010000
00000000
00100000
00001000
00000000
00100000
00010000
00000000
00100000
00001000
00000000
00010000
,
00000010
00000000
00001000
00000001
00000000
00000000
00000100
00000000
00000010
00001000
00000000
00000100
,
00001000
00000000
00000010
00010000
00000000
00001000
00010000
00000000
00001000
01000000
00000000
00001000
,
00100000
00000000
00010000
10000000
00000000
00000000
00100000
00000000
01000000
00010000
00000000
00100000
,
00010000
00000000
01000000
00001000
00000000
00010000
00001000
00000000
00010000
00000100
00000000
00010000
,
00000010
00000000
00001000
00000001
00000000
00000000
00000000
00000000
00000010
00000001
00000000
00000000
,
00002000
00000000
00000000
00000010
00000000
00000000
00000001
00000000
00000000
00003100
00000000
00010000
,
00001000
00000000
00000000
00010000
00000000
00000000
00001000
00000000
00100000
00010000
00000000
00010000
,
01000000
00000000
00000000
00100000
00000000
10000000
01000000
00000000
00000000
00010000
00000000
00001000
,
00000100
00000000
00000000
00000001
00000000
00000000
00001000
00000000
00000100
00001000
00000000
00000000
,
00000002
00000000
00000000
00000010
00000000
00000000
00001000
00000000
00000000
00000103
00000000
00000001
,
00001000
00000000
00000000
00000000
00000000
00000100
00010000
00000000
00010000
00001000
00000000
00001000
,
01000000
00000000
00000000
00010000
00000000
00100000
01000000
00000000
00000000
10000000
00000000
00100000
,
01000000
00000000
00000000
00010000
00000000
00100000
00001000
00000000
00010000
00000010
00000000
00000000
,
00002000
00000000
00000000
00000100
00000000
00000000
00000001
00000000
00000000
00003010
00000000
00010000
,
00001000
00000000
00000000
00010000
00000000
00000000
00001000
00000000
01000000
00010000
00000000
00010000
,
00100000
00000000
00000000
01000000
00000000
10000000
00100000
00000000
00000000
00010000
00000000
00001000
,
00000010
00000000
00000000
00000001
00000000
00000000
00000100
00000000
00000010
00001000
00000000
00000100
,
00010000
00000000
00000000
00001000
00000000
00100000
00001000
00000000
00000000
01000000
00000000
00010000
,
01000000
00000000
00000000
00100000
00000000
10000000
00100000
00000000
00000000
10000000
00000000
01000000
,
00010000
00000000
00000000
00001000
00000000
00000100
00000001
00000000
00000000
00000010
00000000
00001000
,
00010000
00000000
00000000
00001000
00000000
00000000
00100000
00000000
00000000
00100000
00000000
00010000
,
10000000
00000000
00000000
10000000
00000000
00000000
00010000
00000000
00000000
00010000
00000000
00100000
,
00001000
00000000
00000000
00001000
00000000
00000000
00010000
00000000
00000000
00010000
00000000
00000100
,
00001000
00000000
00000000
00000001
00000000
00000010
00000001
00000000
00000000
00000100
00000000
00001000
,
00010000
00000000
01000000
10000000
00000000
00000000
00010000
00000000
00000000
00010000
00000000
00100000
,
00001000
00000000
00000000
00001000
00000000
00000000
00010000
00000000
00000000
00010000
00000000
00000100
,
00001000
00000000
00000000
00001000
00000000
00000000
00000001
00000000
00000000
00000001
00000000
00000010
,
00000100
00000000
00000000
00001000
00000000
00000100
00010000
00000000
00000000
00001000
00000000
00010000
,
00001000
00000000
00100000
00010000
00100000
00010000
01000000
00000000
00100000
10000000
00100000
10000000
,
01000000
00000000
00100000
00010000
00000000
00000000
00100000
00000000
00001000
00010000
00000000
00010000
,
00001000
00000000
00000010
00000001
00000000
00000100
00000010
00000000
00000010
00000100
00000000
00000000
,
00000001
00000000
00000010
00000000
00001000
00000000
00010000
00000000
00000000
01000000
00000000
10000000
,
00100000
00000000
01000000
00010000
00000000
00000000
00011000
00000000
00000000
00001010
00000000
00000000
,
00000001
00001100
00011000
00100000
,
10010000
00011000
00000100
00001001
,
00011000
00000000
00020000
00000000
,
00230000
20300000
31000000
01000000
,
00100000
00000000
00000000
00010000
00000000
00000000
01000000
00000000
00001000
00010000
00000000
00010000
,
00001000
00000000
00000000
00000100
00000000
00000000
00000001
00000000
00000010
00000001
00000000
00000001
,
00000100
00000000
00000000
00000010
00000000
00000000
00001000
00000000
00000100
00010000
00000000
00010000
,
00001000
00000000
00000000
00010000
00000000
00000000
01000000
00000000
10000000
00010000
00000000
00000000
,
10000000
00000000
00000000
00100000
00000000
00000000
00010000
00000000
00001000
00000100
00000000
00000100
,
00000001
00000000
00000000
00001000
00000000
00000000
00000001
00000000
00000010
00001000
00000000
00001000
,
00010000
00000000
00000000
00011000
00000000
00011000
00000000
00000000
00001000
00100000
00000000
00000000
,
00000000
00000000
00010000
10000000
00000000
00000000
01000000
10000000
01000000
00100000
00000000
00000000
,
00010000
00000000
00000000
10000000
00000000
00000000
01000000
00000000
00010000
00001000
00000000
00001000
,
00010000
00000000
00001000
00000100
00000000
00000000
00000001
00000000
00000010
00000001
00000000
00000001
,
00000100
00000000
00000000
00001000
00000000
00000000
00010000
00000000
00001000
00010000
00000000
00010000
,
00100000
00000000
01000000
00100000
00000000
00000000
10000000
01000000
00100000
00010000
00000000
00000000
,
01000000
00001000
00010000
00000100
,
00001000
00000001
00000010
00001000
,
00010000
00000000
00000000
00000000
00000000
00100000
00000000
00000000
00000000
10010000
00000000
00000000
,
00000000
00000000
00000000
00000000
;
