#VERSION:0.83;
#TITLE:Dear Deer;
#ARTIST:Hylen;
#BANNER:Dear Deer.png;
#BACKGROUND:Dear Deer-bg.png;
#CDTITLE:./CDTitles/Polaris Chord.png;
#MUSIC:Dear Deer.ogg;
#SAMPLESTART:22.054;
#SAMPLELENGTH:15;
#BPMS:0=185;
#BGSTAGE:4;
#NOTEDATA:;
#STEPSTYPE:dance-single;
#DIFFICULTY:Beginner;
#METER:3;
#NOTES:
0000
0000
0000
0000
,
0000
0000
0000
0000
,
0000
0000
0000
0000
,
0000
0000
0000
0000
,
0000
0000
0000
0000
,
0000
0000
0000
0000
,
0000
0000
0000
0000
,
0000
0000
0000
0000
,
0000
0000
0000
0000
,
0001
0000
0000
0000
,
0001
0000
0000
0000
,
1000
0000
0000
0000
,
1000
0000
0000
0000
,
0001
0000
0000
0000
,
0001
0000
0000
0000
,
0010
0000
0010
0000
,
0010
0000
0000
0000
,
1001
0000
0000
0000
,
0000
0000
0000
0000
,
0001
0000
1000
0000
,
0001
0000
1000
0000
,
1001
0000
0000
0000
,
0000
0000
0000
0000
,
1000
0000
0001
0000
,
1000
0000
0001
0000
,
1001
0000
0000
0000
,
0001
0001
0001
0000
,
0100
0000
0000
0000
,
0001
0000
0000
0000
,
1000
1000
0000
0000
,
0000
0000
0000
0000
,
0001
0000
1000
0000
,
0001
0000
1000
0000
,
1001
0000
0000
0000
,
0000
0000
0000
0000
,
0000
0000
0000
0000
,
0000
0000
0000
0000
,
0001
0000
0000
0000
,
0001
0000
0000
0000
,
0100
0000
0000
0000
,
0100
0000
0000
0000
,
0110
0000
0000
0000
,
0001
0000
1000
0000
,
0000
0000
0000
0000
,
0001
0000
1000
0000
,
0010
0000
0000
0000
,
0010
0000
0010
0000
,
0000
0000
0000
0000
,
1000
0000
0001
0000
,
0100
0000
0000
0000
,
0010
0000
0010
0000
,
0000
0000
0000
0000
,
1000
0000
0001
0000
,
0001
0000
0000
0000
,
0100
0000
0100
0000
,
0000
0000
0000
0000
,
0001
0000
1000
0000
,
1001
0000
0000
0000
,
0000
0000
0000
0000
,
0001
0000
0000
0000
,
0000
0000
0000
0000
,
0001
0000
0000
0000
,
0001
0000
0000
0000
,
1000
0000
0000
0000
,
1000
0000
0000
0000
,
0001
0000
0100
0000
,
0001
0000
0000
0000
,
1000
0000
0010
0000
,
1000
0000
0000
0000
,
0001
0000
0001
0000
,
1000
0000
1000
0000
,
0001
0000
0001
0000
,
0100
0000
0000
0000
,
0010
0000
1000
0000
,
0010
0000
0000
0000
,
0100
0000
0001
0000
,
0100
0000
0000
0000
,
0001
0000
0001
0000
,
1000
0000
1000
0000
,
0001
0000
0001
0000
,
0100
0000
0000
0000
,
0020
0000
0000
0000
,
0030
0000
0000
0000
,
2000
0000
0000
0000
,
3000
0000
0000
0000
,
0002
0000
0000
0000
,
0003
0000
0000
0000
,
0200
0000
0000
0000
,
0000
0000
0300
0000
;
#NOTEDATA:;
#STEPSTYPE:dance-single;
#DIFFICULTY:Easy;
#METER:7;
#NOTES:
0000
0000
0000
0000
,
0000
0000
0000
0000
,
0000
0000
0000
0000
,
0000
0000
0000
0000
,
0000
0000
0000
0000
,
0000
0000
0000
0000
,
0000
0000
0000
0000
,
0000
0000
0000
0000
,
0000
0000
0000
0000
,
0001
0001
1000
0010
,
0100
0001
1000
0000
,
1000
1000
0001
0100
,
0010
1000
0001
0000
,
1000
1000
0001
0001
,
0100
0100
0010
0010
,
1000
0100
0010
0001
,
0100
0010
0110
0000
,
1001
0000
0000
0000
0000
0020
0000
0000
,
0000
0000
0000
0030
,
1001
0000
1000
0100
,
1000
0001
0100
0001
,
1001
0000
0000
0000
0000
0200
0000
0000
,
0000
0000
0000
0300
,
1001
0000
0001
0010
,
0001
1000
0100
1000
,
1001
0220
0000
0330
,
0001
0001
0001
0000
,
1000
0010
0100
0010
,
1000
0001
0010
0001
,
1001
0000
1001
0000
0000
0200
0000
0000
,
0000
0000
0000
0300
,
1001
0000
0001
0100
,
0001
0010
0100
1000
,
2002
0000
0000
0000
,
0000
0000
0000
0000
,
0000
0000
0000
0000
,
3003
0000
0000
0000
,
0001
0000
0001
0000
,
1000
0000
1000
0000
,
0010
0000
0010
0000
,
1000
0001
0000
0000
,
0100
0010
0110
0000
,
1000
0001
1001
0200
,
0000
0310
0110
0000
,
0001
1000
1001
0000
,
1000
0001
0011
0000
,
0001
1000
1100
0020
,
0000
0130
0110
0000
,
1000
0001
1001
0000
,
0100
0100
0010
0010
,
0100
0010
0110
0002
,
0003
0001
1000
1000
,
0001
1000
1001
0000
,
1000
1000
0010
0010
,
1000
0010
1010
0002
,
0003
0001
0100
0100
,
0001
0100
0101
0000
,
0002
0000
0000
0000
,
0023
0000
0000
0000
,
0230
0000
0000
0000
,
2300
0000
3000
0000
,
1000
1000
0010
0010
,
0100
0100
0001
0001
,
0011
0011
0010
0100
,
2000
0000
3000
0000
,
0010
0100
0100
0100
,
0100
0100
0100
0010
,
1000
0001
0001
0001
,
0001
0001
0001
1000
,
1010
0010
0100
0001
,
0011
0010
0100
1000
,
1010
0010
0100
0001
,
0011
0010
0100
1000
,
0020
0100
0100
0100
,
0100
0100
0100
0030
,
2000
0001
0001
0001
,
0001
0001
0001
3000
,
0101
0100
0010
1000
,
1100
0100
0010
0001
,
0101
0100
0010
1000
,
1100
0100
0010
0001
,
2000
3000
0020
0030
,
0200
0300
0002
0003
,
0020
0000
0000
0000
0000
0030
0000
0000
0002
0000
0000
0000
0000
0003
0000
0000
,
0200
0000
0000
0000
0000
0300
0000
0000
0020
0000
0000
0000
0000
0030
0000
0000
,
2000
0000
0000
3000
0200
0000
0000
0300
,
0020
0000
0000
0030
0002
0000
0000
0003
,
0200
0000
0320
0000
,
2030
0000
0002
0000
,
0000
0000
0000
0000
,
0000
3003
0000
0000
0000
0000
0000
0000
0000
0000
0000
0000
0000
0000
0000
0000
;
#NOTEDATA:;
#STEPSTYPE:dance-single;
#DIFFICULTY:Medium;
#METER:10;
#BPMS:0=185,291=370,291.5=185,291.75=92.5,292=185;
#STOPS:103=0.162,103.5=0.162,104=0.162,104.5=0.164;
#NOTES:
0000
0000
0000
0000
,
0000
0000
0000
0000
,
0000
0000
0000
0000
,
0000
0000
0000
0000
,
0000
0000
0000
0000
,
0000
0000
0000
0000
,
0000
0000
0000
0000
,
0000
0000
0000
0000
,
0000
0000
0000
0000
,
0001
0010
0001
0100
,
0010
1000
0100
1000
,
0001
0000
1000
0010
1000
0000
0001
0100
,
0001
0000
1000
0010
1000
0000
0001
0000
,
0011
0010
0100
1000
,
1010
0010
0100
0001
,
1000
1100
0001
0011
,
1000
0001
1000
0001
0200
0000
0300
0000
,
1001
0000
0000
0000
0000
0220
0000
0000
,
0000
0000
0000
0330
,
0001
0000
0000
1000
0000
0000
0100
0000
1000
0000
0000
0000
0010
0000
0000
0000
,
0100
0000
0000
0001
0000
0000
0010
0000
0001
0000
0000
0000
1000
0000
0000
0000
,
1001
0000
0000
0000
0000
0220
0000
0000
,
0000
0000
0000
0330
,
1000
0000
0000
0001
0000
0000
0010
0000
0001
0000
0000
0000
0100
0000
0000
0000
,
0010
0000
0000
1000
0000
0000
0100
0000
1000
0000
0000
0000
0001
0000
0000
0000
,
1001
0000
0000
0000
0000
0000
0000
0000
0000
0000
0000
0000
0000
0000
0000
0000
0220
0000
0000
0000
0000
0000
0000
0000
0000
0000
0000
0000
0000
0000
0000
0000
0000
0000
0000
0000
0000
0000
0000
0000
0000
0000
0000
0000
0000
0000
0000
0000
0330
0000
0000
0000
0000
0000
0000
0000
0202
0303
0000
0000
0000
0000
0000
0000
,
2200
3300
0000
0000
0000
0000
0000
0000
0202
0303
0000
0000
0000
0000
0000
0000
0000
0000
0000
0000
0000
0000
0000
0000
0000
0000
0000
0000
0000
0000
0000
0000
1000
0000
0000
0000
0000
0000
0000
0000
0000
0000
0000
0000
0000
0000
0000
0000
0001
0000
0000
0000
0000
0000
0000
0000
0010
0000
0000
0000
0000
0000
0000
0000
,
0100
0000
1000
0000
0010
0000
1000
0001
,
0100
0010
0110
1001
,
0000
0220
0000
0000
0000
0000
0000
0000
,
0000
0000
0330
0000
1001
0000
0001
0010
,
0100
0000
1000
0000
1010
0000
0010
0100
,
0001
1000
1002
0000
,
0000
0000
0000
0000
,
0000
0000
0203
0000
,
0000
0000
0320
0000
,
2030
0000
3002
0000
,
0010
0000
2003
0000
,
0010
0000
3001
0000
,
1000
0000
0010
0110
,
0000
0000
0000
0000
1000
0100
0000
1000
,
0010
0000
1000
0100
0000
1000
0010
0000
,
1000
0100
0020
0000
0000
0000
0031
0010
,
0100
0000
0000
0000
1000
0000
0000
0010
0000
0000
1000
0000
0000
0100
0000
0000
,
1000
0000
0000
0001
0000
0000
0000
0000
0001
0000
0100
0000
0000
0000
0001
0000
,
0010
0000
0001
0100
0000
0001
0010
0000
,
0001
0100
0020
0000
0000
0000
1030
0010
,
0100
0000
0000
0000
0001
0000
0000
0010
0000
0000
0001
0000
0000
0100
0000
0000
,
0001
0000
0000
1000
0000
0000
0000
0000
1000
0000
1000
0000
0000
0000
0001
0000
,
0001
0000
0100
0100
0000
0010
0010
0000
,
1000
0001
2000
0000
3000
0010
0010
0100
,
0100
0000
0000
0000
0001
0000
1000
0000
0001
0000
0010
0000
0000
0100
0000
0000
,
1000
0001
1000
0000
0001
0001
0000
1000
,
1000
0000
0010
0010
0000
0100
0100
0000
,
0001
1000
0002
0000
0003
0100
0100
0010
,
0010
0000
0000
0000
1000
0000
0001
0000
1000
0000
0100
0000
0000
0010
0000
0000
,
0001
0100
0100
0000
0020
0000
0000
0000
,
0000
0000
0230
0000
,
0000
0000
0302
0000
,
0000
0000
2000
0000
,
0003
3000
0000
0000
0001
0100
0001
0100
,
0001
0100
0001
0000
1000
0100
1000
0100
,
1000
0000
0100
0000
1000
0000
0000
0000
0001
0100
0000
0000
0001
0100
0000
0000
,
0001
0100
0000
0000
0001
0100
0000
0000
0010
0000
0000
0000
0000
0000
0000
0000
,
0000
0000
1001
1100
,
1100
1100
0011
0011
,
0011
0100
1001
0101
,
0101
0101
1010
1010
,
1010
0000
0100
0000
1001
0000
0001
0100
,
0001
0100
0001
0000
0010
0000
0001
1000
,
0001
1000
0001
0000
0100
0000
0001
0010
,
0001
0010
0001
0000
1000
0000
0010
0100
,
0010
0100
0010
0000
1001
0000
0120
0000
,
0130
1001
1100
1100
,
1100
0010
1001
1010
,
1010
1010
0101
0101
,
0101
0000
0010
0000
1001
0000
1000
0010
,
1000
0010
1000
0000
0100
0000
1000
0001
,
1000
0001
1000
0000
0010
0000
1000
0100
,
1000
0100
1000
0000
0001
0000
0100
0010
,
0100
0010
0100
0000
0002
0003
0020
0030
,
0200
0000
0000
0000
0300
0000
0000
0000
0020
0000
0000
0000
0030
0000
0000
0000
0002
0000
0000
0000
0000
0003
0000
0000
0200
0000
0000
0000
0000
0300
0000
0000
,
0020
0000
0000
0000
0000
0000
0000
0000
0000
0000
0030
0000
0000
0000
0000
0000
2000
0000
0000
0000
0000
0000
0000
0000
0000
0000
3000
0000
0000
0000
0000
0000
0002
0000
0000
0000
0000
0000
0000
0000
0000
0000
0000
0003
0000
0000
0000
0000
0020
0000
0000
0000
0000
0000
0000
0000
0000
0000
0000
0030
0000
0000
0000
0000
,
0002
0000
0000
0000
0000
0000
0000
0000
0000
0000
0000
0003
0000
0000
0000
0000
2000
0000
0000
0000
0000
0000
0000
0000
0000
0000
0000
3000
0000
0000
0000
0000
0020
0000
0000
0000
0000
0000
0000
0000
0000
0000
0000
0000
0030
0000
0000
0000
0200
0000
0000
0000
0000
0000
0000
0000
0000
0000
0000
0000
0300
0000
0000
0000
,
0002
0000
0000
0000
0000
0000
0000
0000
0000
0000
0000
0000
0003
0000
0000
0000
0020
0000
0000
0000
0000
0000
0000
0000
0000
0000
0000
0000
0030
0000
0000
0000
0200
0000
0000
0000
0000
0000
0000
0000
0000
0000
0000
0000
0000
0300
0000
0000
2000
0000
0000
0000
0000
0000
0000
0000
0000
0000
0000
0000
0000
3000
0000
0000
,
0020
0000
0000
0000
0000
0000
0000
0000
0000
0000
0000
0000
0000
0030
0000
0000
2000
0000
0000
0000
0000
0000
0000
0000
0000
0000
0000
0000
0000
3000
0000
0000
0002
0000
0000
0000
0000
0000
0000
0000
0000
0000
0000
0000
0000
0000
0003
0000
0200
0000
0000
0000
0000
0000
0000
0000
0000
0000
0000
0000
0000
0000
0300
0000
,
0002
0000
0000
0000
0000
0000
0000
0000
0000
0000
0000
0000
0000
0000
0003
0000
2000
0000
0000
0000
0000
0000
0000
0000
0000
0000
0000
0000
0000
0000
3000
0000
0200
0000
0000
0000
0000
0000
0000
0000
0000
0000
0000
0000
0000
0000
0000
0300
0020
0000
0000
0000
0000
0000
0000
0000
0000
0000
0000
0000
0000
0000
0000
0030
,
0002
0000
0000
0000
0000
0000
0000
0000
0000
0000
0000
0000
0000
0000
0000
0003
0200
0000
0000
0000
0000
0000
0000
0000
0000
0000
0000
0000
0000
0000
0000
0300
0020
0000
0000
0000
0000
0000
0000
0000
0000
0000
0000
0000
0000
0000
0000
0000
2030
0000
0000
0000
0000
0000
0000
0000
0000
0000
0000
0000
0000
0000
0000
0000
,
0002
0000
0000
0000
,
0000
0000
0000
0000
0000
0000
0000
0000
0000
3003
0000
0000
0000
0000
0000
0000
;
#NOTEDATA:;
#STEPSTYPE:dance-single;
#DIFFICULTY:Hard;
#METER:14;
#BPMS:0=185,291=370,291.5=185,291.75=92.5,292=185;
#STOPS:103=0.162,103.5=0.162,104=0.162,104.5=0.164;
#NOTES:
0000
0000
0000
0000
,
0000
0000
0000
0000
,
0000
0000
0000
0000
,
0000
0000
0000
0000
,
0000
0000
0000
0000
,
0000
0000
0000
0000
,
0000
0000
0000
0000
,
0000
0000
0000
0000
,
0000
0000
0000
0000
,
1000
0000
0001
0000
1000
0010
0100
0000
,
0001
0000
1000
0000
0010
1000
0100
0000
,
1000
0000
0001
0000
0010
0100
1000
0000
,
0001
0000
1000
0000
0100
1000
0010
0000
,
1010
0000
1000
0001
0100
0010
0100
0010
,
0001
1000
0001
1000
0100
0010
0100
0010
,
1000
0000
0000
0001
1000
0000
0100
0000
0010
0000
0000
0001
1000
0000
0010
0000
,
0100
0100
0001
0001
1010
0000
0101
0000
,
1000
0010
0001
0000
0000
0220
0000
0000
,
0000
0000
0000
0330
,
0001
0000
0000
1000
0100
0000
1000
0000
0010
0100
0000
0000
0001
0000
0010
0000
,
0001
0000
1000
0100
0000
0000
1000
0000
0010
0100
0000
0000
0001
0000
0010
0000
,
0001
0100
1000
0000
0000
0220
0000
0000
,
0000
0000
0000
0330
,
1000
0000
0000
0001
0010
0000
0001
0000
0100
0010
0000
0000
1000
0000
0100
0000
,
1000
0000
0001
0010
0000
0000
0001
0000
0100
0010
0000
0000
1000
0000
0010
0000
,
0110
0000
0000
0000
0000
0000
0000
0000
0000
0000
0000
0000
0000
0000
0000
0000
2002
0000
0000
0000
0000
0000
0000
0000
0000
0000
0000
0000
0000
0000
0000
0000
0000
0000
0000
0000
0000
0000
0000
0000
0000
0000
0000
0000
0000
0000
0000
0000
3003
0000
0000
0000
0000
0000
0000
0000
0022
0033
0000
0000
0000
0000
0000
0000
,
2200
3300
0000
0000
0000
0000
0000
0000
2020
3030
0000
0000
0000
0000
0000
0000
0000
0000
0000
0000
0000
0000
0000
0000
0000
0000
0000
0000
0000
0000
0000
0000
0010
0000
0000
0000
0000
0000
0000
0000
1000
0000
0000
0000
0001
0000
0000
0000
0100
0000
0000
0000
0000
0000
0000
0000
0001
0000
0000
0000
0000
0000
0000
0000
,
0010
0001
0010
0000
0100
0000
1000
0000
0010
0000
1000
0010
0100
0000
0001
0000
,
1000
0100
0000
0000
1000
0000
0010
0000
0110
0000
0000
0000
1001
0000
0000
0000
,
0000
0220
0000
0000
0000
0000
0000
0000
,
0000
0000
0000
0000
0330
0000
0000
0000
1000
0000
0000
0001
1000
0000
0001
0000
,
0100
0010
0000
0000
0001
0000
0010
0000
0100
0000
0001
1000
0000
0000
0001
0000
,
1000
0100
0000
0000
0010
0000
0001
0000
2002
0000
0000
0000
0000
0000
0000
0000
,
0000
0003
0020
0000
,
0000
3000
0200
0000
,
0000
0030
0002
0000
,
0000
0300
2003
0010
,
0000
0010
0000
0000
3002
0000
0100
0000
,
0000
0100
0000
0000
2003
0000
0010
0000
,
0000
0010
0000
0000
3002
0000
0003
0000
,
0000
0000
0000
0000
0000
0000
0000
0000
0001
1000
0001
1000
0000
0000
0001
0100
,
0001
0100
0000
0000
0010
0100
0010
0100
0000
0000
0010
1000
0010
1000
0000
0000
,
0001
1000
0001
0000
2000
0000
3200
0000
0320
0000
0032
0000
1003
0001
1000
0000
,
0001
1000
0000
0000
0001
0010
0000
0001
1000
0000
0001
0100
0000
0001
1000
0000
,
0001
0010
0000
0100
2000
0000
3000
0000
0001
1000
0001
1000
0000
0000
0001
0010
,
0001
0010
0000
0000
0100
0010
0100
0010
0000
0000
0100
1000
0100
1000
0000
0000
,
0001
1000
0001
0000
0200
0000
0320
0000
1030
0000
0000
0000
0001
0000
1000
0001
,
1000
0001
0000
0000
1000
0100
0000
1000
0001
0000
1000
0010
0000
1000
0001
0000
,
1000
0100
0000
0010
0001
0000
1000
0000
0002
0000
0103
0001
0000
0000
2000
0000
,
3010
1000
0000
0000
0002
0000
0103
0001
0000
0000
0020
0000
0130
0010
0000
0000
,
0001
0000
0100
0010
0200
0000
0000
0000
0300
0000
0001
0000
1000
0010
0000
0100
,
0001
0000
0000
0000
1000
0100
0000
1000
0010
0000
1000
0000
0001
0100
0000
0001
,
0010
0000
0001
0000
1000
0100
1000
0000
0002
0000
0103
0010
0000
0000
0200
0000
,
0301
1000
0000
0000
0200
0000
0310
0100
0000
0000
2000
0000
3010
0100
0000
0000
,
0001
0100
0010
0000
2000
0000
0000
0000
3000
0000
0001
0000
0010
0100
0000
0010
,
0100
0000
0000
0000
1000
0010
0000
0100
0001
0000
0010
0000
0001
0100
0000
0010
,
1000
0000
0100
0000
0010
0100
0010
0000
0002
0000
0000
0000
0000
0000
0000
0000
,
0000
0000
0000
0000
,
0000
0000
2000
0000
,
0000
0000
0000
0000
,
0003
3000
0000
0000
0001
0100
0001
0010
,
0100
1000
0010
1000
0100
0010
0001
0100
,
0001
0000
0010
0000
0100
0000
1000
0000
0010
0100
0001
0000
0010
0100
1000
0000
,
0010
0100
0001
0000
0010
0100
1000
0000
0001
0000
0010
0000
0001
0000
0100
0000
,
0010
0000
0000
0000
1000
0000
0000
0000
0100
0000
0000
0000
1000
0000
0000
0000
1001
0000
0000
0000
0000
0000
0000
0000
0001
0100
0000
0000
0000
0000
0000
0000
,
0001
0100
0000
0000
0000
0000
0000
0000
0001
0100
0000
0000
0000
0000
0000
0000
0001
0010
0000
0000
0000
0000
0000
0000
0001
0010
0000
0000
0000
0000
0000
0000
,
0001
0010
0000
0000
0000
0000
0000
0000
0001
0000
0000
0000
0010
0000
0000
0000
0100
0000
0000
0000
0000
0000
0000
0000
1000
0100
0000
0000
0000
0000
0000
0000
,
1000
0100
0000
0000
0000
0000
0000
0000
1000
0100
0000
0000
0000
0000
0000
0000
1000
0010
0000
0000
0000
0000
0000
0000
1000
0010
0000
0000
0000
0000
0000
0000
,
1000
0010
0000
0000
0000
0000
0000
0000
1000
0000
0000
0000
0010
0000
0000
0000
0100
0000
0000
0000
0000
0000
0000
0000
0001
0000
0010
0000
0001
0000
0000
0000
,
0010
0000
0100
0000
1000
0000
0001
0000
0101
0000
0000
0000
0100
0010
0100
0000
,
0001
0000
0010
0000
0100
0000
1000
0000
1001
0000
0000
0000
0001
1000
0001
0000
,
0100
0000
0010
0000
1000
0000
0100
0000
1100
0000
0000
0000
1000
0100
1000
0000
,
0010
0000
0100
0000
0001
0000
0010
0000
0110
0000
0000
0000
2002
0000
0000
3003
,
1000
0001
0000
0000
0000
0000
0000
0000
1000
0001
0000
0000
0000
0000
0000
0000
0100
0010
0000
0000
0000
0000
0000
0000
0100
0010
0000
0000
0000
0000
0000
0000
,
0100
0010
0000
0000
0000
0000
0000
0000
0100
0000
0000
0000
0001
0000
0000
0000
1000
0000
0000
0000
0000
0000
0000
0000
0001
1000
0000
0000
0000
0000
0000
0000
,
0001
1000
0000
0000
0000
0000
0000
0000
0001
1000
0000
0000
0000
0000
0000
0000
0100
0010
0000
0000
0000
0000
0000
0000
0100
0010
0000
0000
0000
0000
0000
0000
,
0100
0010
0000
0000
0000
0000
0000
0000
0001
0000
0000
0000
0010
0000
0000
0000
0100
0000
0000
0000
0000
0000
0100
0000
1000
0000
0000
0000
0010
0000
0000
0000
,
0100
0000
0000
0100
0001
0000
0010
0000
0100
0000
0000
0100
1000
0000
0010
0000
,
1000
0000
0000
1000
0100
0000
0010
0000
0001
0000
0000
0001
1000
0000
0010
0000
,
0100
0000
0000
0100
1000
0000
0100
0000
0010
0000
0000
0010
1000
0000
0001
0000
,
1000
0000
0000
1000
0100
0000
0010
0001
2000
0000
3000
0000
0020
0000
0030
0000
,
0200
0000
0000
0000
0300
0000
0000
0000
0002
0000
0000
0000
0003
0000
0000
0000
0020
0000
0000
0000
0000
0030
0000
0000
0002
0000
0000
0000
0000
0003
0000
0000
,
2000
0000
0000
0000
0000
3000
0000
0000
0020
0000
0000
0000
0000
0030
0000
0000
0200
0000
0000
0000
0000
0000
0300
0000
2000
0000
0000
0000
0000
0000
3000
0000
,
0200
0000
0000
0000
0000
0000
0300
0000
0002
0000
0000
0000
0000
0000
0003
0000
0020
0000
0000
0000
0000
0000
0000
0030
0200
0000
0000
0000
0000
0000
0000
0300
,
0002
0000
0000
0000
0000
0000
0000
0003
2000
0000
0000
0000
0000
0000
0000
3000
0020
0000
0000
0000
0000
0000
0000
0000
0032
0000
0000
0000
0000
0000
0000
0000
,
0203
0000
0000
0000
2300
0000
0000
0000
3200
0000
0000
0000
0002
0300
0000
0000
,
0020
0003
0000
0000
2000
0030
0000
0000
0002
3000
0000
0000
0200
0000
0003
0000
,
2000
0000
0300
0000
0020
0000
3000
0000
0200
0000
0030
0000
0002
0000
0000
0300
,
2000
0000
0000
0000
,
0000
0000
0000
0000
0000
0000
0000
0000
0000
3003
0000
0000
0000
0000
0000
0000
;
#NOTEDATA:;
#STEPSTYPE:dance-single;
#DIFFICULTY:Challenge;
#METER:17;
#BPMS:0=185,291=370,291.5=185,291.75=92.5,292=185;
#STOPS:103=0.162,103.5=0.162,104=0.162,104.5=0.164;
#NOTES:
0000
0000
0000
0000
,
0000
0000
0000
0000
,
0000
0000
0000
0000
,
0000
0000
0000
0000
,
0000
0000
0000
0000
,
0000
0000
0000
0000
,
0000
0000
0000
0000
,
0000
0000
0000
0000
,
0000
0000
0000
0000
,
0001
0000
0000
1000
0010
0000
1000
0000
0001
0000
0100
0000
0010
1000
0001
0000
,
0010
0000
0000
0001
0100
0000
0001
0000
0010
0000
0100
0000
1000
0000
MMMM
0000
,
1000
0000
0000
0001
0010
0000
0001
0000
1000
0000
0100
0000
0010
0001
1000
0000
,
0010
0000
0000
1000
0100
0000
1000
0000
0010
0000
0100
0000
0001
0000
MMMM
0000
,
0001
0010
0001
1000
0001
0100
0010
1000
,
0001
1000
0100
1000
0010
0100
0001
0010
,
0001
0100
0010
1000
0100
1000
0010
0100
,
0001
0010
0100
1000
0001
1000
0010
0100
0002
0000
0000
0000
1003
0000
0000
0000
,
0012
0000
0000
0000
0103
0000
0000
MMMM
0000
0000
0210
0000
0000
0000
0000
0000
,
1000
0001
1000
0310
,
MMMM
0000
0000
0000
0000
0000
0001
0000
1000
0000
0000
0000
0001
0000
0000
0000
0010
0000
0100
0000
0000
MMMM
0000
0000
0001
0000
0000
0000
1000
0000
0000
0000
,
MMMM
0000
0000
0000
1000
0000
0001
0000
0100
0000
0000
0000
0001
0000
0000
0000
0100
0000
0010
0000
0000
MMMM
0000
0000
0001
0000
0000
0000
1000
0000
0000
0000
,
2001
0000
0000
0000
3100
0000
0000
MMMM
0000
0000
0210
0000
0000
0000
0000
0000
,
0001
1000
0001
0310
,
MMMM
0000
0000
0000
0000
0000
1000
0000
0001
0000
0000
0000
0100
0000
0000
0000
0010
0000
1000
0000
0000
MMMM
0000
0000
1000
0000
0000
0000
0100
0000
0000
0000
,
MMMM
0000
0000
0000
0001
0000
1000
0000
0010
0000
0000
0000
0100
0000
0000
0000
0010
0000
1000
0000
0000
MMMM
0000
0000
0010
0000
0000
0000
0100
0000
0000
0000
,
0110
0000
0000
0000
0000
0000
0000
0000
0000
0000
0000
0000
0000
0000
0000
0000
2002
0000
0000
0000
0000
0000
0000
0000
0000
0000
0000
0000
0000
0000
0000
0000
0000
0000
0000
0000
0000
0000
0000
0000
3003
0000
0000
0000
0000
0000
0000
0000
2002
3003
0000
0000
0000
0000
0000
0000
0022
0033
0000
0000
MMMM
0000
0000
0000
,
0202
0303
0000
0000
MMMM
0000
0000
0000
0022
0003
0000
0000
0000
0000
0000
0000
1030
0000
0000
0000
0000
0000
0000
0000
0000
0000
0000
0000
0000
0000
0000
0000
MMMM
0000
0000
0000
0000
0000
0000
0000
0000
0000
0000
0000
0001
0000
0000
0000
0100
0000
0000
0000
0000
0000
0000
0000
0001
0000
0000
0000
0000
0000
0000
0000
,
0010
0000
0001
0000
0000
MMMM
0000
0000
0010
0000
0000
0000
1000
0000
0000
0000
MMMM
0000
0000
0000
0100
0000
0001
0000
0010
0000
0000
0000
0100
0000
0000
0000
,
0010
0000
0001
0000
0000
MMMM
0000
0000
0010
0000
0000
0000
0100
0000
0000
0000
1001
0000
0000
0000
MMMM
0000
0000
0000
1001
0000
0000
0000
MMMM
0000
0000
0000
,
1001
0210
0000
0000
0001
0000
1000
0000
,
0001
0000
0000
0000
0310
0000
0000
0000
MMMM
0000
0000
1000
0100
0000
1000
0000
,
0010
0000
1000
0000
0000
MMMM
0000
0000
0010
0000
0000
0000
0001
0000
0000
0000
MMMM
0000
0000
0000
0100
0000
1000
0000
0010
0000
0000
0000
0100
0000
0000
0000
,
0010
0000
1000
0000
0000
MMMM
0000
0000
1000
0000
0000
0000
0001
0000
0000
0000
MMMM
0000
0000
0000
0000
0000
0000
0000
MMMM
0000
0000
0000
0000
0000
0000
0000
,
MMMM
MMMM
MMMM
MMMM
,
MMMM
MMMM
MMMM
MMMM
,
MMMM
MMMM
MMMM
MMMM
,
MMMM
0000
MMMM
0000
0001
1000
0001
0010
,
0100
1000
0001
1000
0010
0100
0001
1000
,
0001
0010
0100
1000
0010
1000
0100
0010
,
0001
0100
0001
0010
0200
0000
0310
0000
,
0000
0000
0000
0000
MMMM
0000
0000
0000
0000
0000
0000
0000
0000
0000
0000
0000
0001
0000
0100
0000
0001
0000
0100
0000
0000
MMMM
0000
0000
1000
0000
0100
0000
,
1000
0000
0100
0000
0000
MMMM
0000
0000
0001
0000
1000
0000
0001
0000
1000
0000
0000
MMMM
0000
0000
1000
0000
0001
0000
1000
0000
0001
0000
0000
MMMM
0000
0000
,
0010
0000
0100
0000
0010
0000
0100
0000
0000
MMMM
0000
MMMM
0000
MMMM
0000
MMMM
0000
MMMM
0000
MMMM
0000
MMMM
0000
0000
1000
0000
0001
0000
0010
0000
0001
0000
,
1000
0001
0100
0000
0010
1000
0000
0001
0010
0000
0100
1000
0000
0001
0100
0000
,
0001
0000
0010
0000
0000
0000
0100
0000
2000
0000
0000
0000
3000
0000
0000
0000
0010
0000
1000
0000
0001
0000
0100
0000
0000
MMMM
0000
0000
0100
0000
0010
0000
,
1000
0000
0001
0000
0000
MMMM
0000
0000
0100
0000
1000
0000
0001
0000
0010
0000
0000
MMMM
0000
0000
0010
0000
0100
0000
1000
0000
0001
0000
0000
MMMM
0000
0000
,
0010
1000
0001
0100
0020
0000
0000
0000
0130
0000
0000
0000
0001
1000
0010
1000
,
0001
1000
0100
0000
0010
0001
0000
1000
0010
0000
0100
0001
0000
1000
0100
0000
,
1000
0000
0000
0010
0000
0000
0000
0000
0000
0100
0000
0000
0001
0000
0000
1000
0000
0000
0001
0000
0000
1000
0000
0000
0001
0000
1000
0000
0001
0000
1000
0000
0000
0000
0000
0000
MMMM
0000
0000
0000
0000
0000
1000
0000
0100
0000
1000
0000
,
0100
0000
0000
MMMM
0000
0000
0001
0100
0001
0100
0000
0000
MMMM
0000
0000
1000
0001
1000
0001
0000
0000
MMMM
0000
0000
,
0001
0000
0100
0000
0001
0000
0100
0000
0001
0000
0100
0000
0002
0000
0000
0000
0000
0000
0000
0000
0000
0000
0000
0000
0003
0000
0000
0000
0000
0000
1000
0000
0000
0100
0000
0000
0010
0000
0000
0001
0000
0000
0010
0000
0000
0100
0000
0000
,
1000
0000
MMMM
0000
0100
0001
0000
1000
0100
0010
0001
0000
1000
0010
0000
1000
,
0100
0000
0000
0000
0000
0000
0010
0000
0000
0000
0000
0000
0001
0000
0000
1000
0000
0000
0010
0000
0000
0000
0000
0000
0100
0000
0001
0000
0100
0000
0001
0000
0000
0000
0000
0000
MMMM
0000
0000
0000
0000
0000
0100
0000
1000
0000
0100
0000
,
1000
0000
0000
MMMM
0000
0000
0010
0001
0010
0001
0000
0000
MMMM
0000
0000
0010
1000
0010
1000
0000
0000
MMMM
0000
0000
,
1000
0000
0100
0000
1000
0000
0100
0000
1000
0000
0100
0000
2000
0000
0000
0000
0000
0000
0000
0000
0000
0000
0000
0000
3000
0000
0000
0000
0000
0000
0001
0000
0000
0010
0000
0000
0100
0000
0000
1000
0000
0000
0100
0000
0000
0010
0000
0000
,
0001
0000
MMMM
0000
0010
1000
0000
0001
0010
0100
1000
0000
0001
0100
0000
0001
,
0010
0000
0100
0000
1000
0001
0100
0000
0002
0000
0000
0010
0000
0000
1000
0000
,
0000
0103
0000
0000
0001
0000
1000
0000
0020
0000
0000
1000
0000
0000
0100
0000
,
0000
0031
0000
0000
0010
0000
1000
0000
0200
0000
0000
1000
0000
0000
0010
0000
,
0000
0301
0000
0000
0100
0000
1000
0000
0001
0000
0000
0100
0000
0000
0010
0000
,
2000
0002
3000
0003
1000
1000
0010
0010
,
0100
0100
0001
0001
0010
0010
0100
0100
,
1000
0000
0000
0000
1000
0000
0000
0000
0001
0000
0000
0000
0001
0000
0000
0000
1000
0000
0010
0000
0000
MMMM
0000
0000
0001
0000
0100
0000
0000
MMMM
0000
0000
,
1000
0000
0100
0000
0000
MMMM
0000
0000
0001
0000
0010
0000
0000
MMMM
0000
0000
MMMM
0000
0000
0000
MMMM
0000
0000
0000
MMMM
0000
0000
0000
MMMM
0000
0000
0000
,
MMMM
0000
MMMM
MMMM
2002
3003
1100
MMMM
,
0101
MMMM
1100
MMMM
0101
MMMM
1100
MMMM
,
0011
MMMM
0100
1000
2002
3003
0101
MMMM
,
1100
MMMM
0101
MMMM
1100
MMMM
0101
MMMM
,
1100
0000
MMMM
0000
0100
0000
0001
0000
2002
0000
3003
0000
0001
0100
0001
0100
,
0010
0100
0001
0010
0001
0100
0010
0100
0001
0000
MMMM
0000
0001
0010
0001
0010
,
0100
0010
0001
0100
0001
0010
0100
1000
0001
0000
0000
0000
1000
0100
1000
0100
,
0010
0100
1000
0010
1000
0100
0010
0100
1000
0000
MMMM
0000
1000
0010
1000
0010
,
0100
0010
1000
0100
1000
0010
0100
0001
1000
0000
0000
0000
0200
0000
0000
0300
,
0011
MMMM
0101
MMMM
0011
MMMM
0101
MMMM
,
0011
MMMM
1000
0001
0200
0300
1010
MMMM
,
1100
MMMM
1010
MMMM
1100
MMMM
1010
MMMM
,
1100
0000
MMMM
0000
0001
0000
1000
0000
MMMM
0000
0000
0001
0010
0000
0001
0000
,
0100
0001
0010
0001
0100
0001
1000
0000
MMMM
0000
0000
1000
0010
0000
1000
0000
,
0100
1000
0010
1000
0100
1000
0001
0000
MMMM
0000
0000
0010
0100
0000
0001
0000
,
1000
0100
0010
0001
0100
0010
1000
0000
MMMM
0000
0000
0010
0100
0000
1000
0000
,
0001
0100
0010
1000
0100
0010
0001
1000
0020
0000
0000
0000
1000
0000
0000
0000
,
0100
1000
0230
0001
,
0010
0001
0320
1000
,
0230
0001
0320
2030
,
3002
0000
0023
0000
0130
MMMM
0001
MMMM
,
0100
MMMM
0001
MMMM
1000
MMMM
0010
MMMM
,
1000
MMMM
0010
MMMM
0001
MMMM
0100
MMMM
,
1000
MMMM
0010
MMMM
0002
0000
0100
0000
,
2000
0000
0000
3003
,
0000
0000
0000
0000
0000
0000
0000
0000
0000
MMMM
0000
0000
0000
0000
0000
0000
;
#NOTEDATA:;
#STEPSTYPE:dance-double;
#DIFFICULTY:Easy;
#METER:7;
#NOTES:
00000000
00000000
00000000
00000000
,
00000000
00000000
00000000
00000000
,
00000000
00000000
00000000
00000000
,
00000000
00000000
00000000
00000000
,
00000000
00000000
00000000
00000000
,
00000000
00000000
00000000
00000000
,
00000000
00000000
00000000
00000000
,
00000000
00000000
00000000
00000000
,
00000000
00000000
00000000
00000000
,
00001000
00010000
00000010
00001000
,
00000001
00000100
00000100
00000000
,
00000001
00000010
00000100
00001000
,
00000010
00010000
00010000
00000000
,
00001000
00001000
01000000
01000000
,
00010000
00010000
00100000
00100000
,
00010000
01000000
00100000
10000000
,
01000000
00100000
01100000
00000000
,
00011000
00000000
00000000
00000000
00000000
00000020
00000000
00000000
,
00000000
00000000
00000000
00000030
,
00001001
00000000
00000001
00000100
,
00000001
00001000
00000010
00010000
,
00011000
00000000
00000000
00000000
00000000
02000000
00000000
00000000
,
00000000
00000000
00000000
03000000
,
10010000
00000000
00010000
01000000
,
00010000
10000000
01000000
00100000
,
00001000
00022000
00000000
00033000
,
00000010
00000010
00000010
00000000
,
00001001
00000000
00000001
00000100
,
00000010
00001000
00000100
00010000
,
00011000
00000000
00011000
00000000
00000000
02000000
00000000
00000000
,
00000000
00000000
00000000
03000000
,
10010000
00000000
10000000
01000000
,
10000000
00010000
00100000
00010000
,
20020000
00000000
00000000
00000000
,
00000000
00000000
00000000
00000000
,
00000000
00000000
00000000
00000000
,
30030000
00000000
00000000
00000000
,
00010000
00000000
00010000
00000000
,
01000000
00000000
01000000
00000000
,
00001000
00000000
00001000
00000000
,
00010000
00000100
00000000
00000000
,
00001000
00000001
00001001
00000000
,
00000100
00000010
00000110
00000002
,
00000000
00001003
00001001
00000000
,
00001000
00000100
00010000
00000000
,
00001000
00100000
00110000
00000000
,
00100000
00001000
00011000
00020000
,
00000000
00031000
01000000
00000000
,
00100000
01000000
01100000
00000000
,
10000000
10000000
00010000
00010000
,
10000000
00010000
10010000
20000000
,
30000000
10000000
01000000
00100000
,
00001000
00010000
00011000
00000000
,
00001000
00001000
00010000
00010000
,
00000100
00001000
00001010
00000020
,
00000030
00000010
00000100
00000100
,
00000010
00000100
00000110
00000000
,
00000002
00000000
00000000
00000000
,
00000023
00000000
00000000
00000000
,
00000230
00000000
00000000
00000000
,
00002300
00000000
00003000
00000000
,
00001000
00001000
00000010
00000010
,
00010000
00010000
00001000
00100000
,
00010000
00010000
10000000
10000000
,
00020000
00000000
00000000
00030000
,
01000000
00100000
00100000
00100000
,
00100000
00100000
00100000
01000000
,
00001000
00010000
00010000
00010000
,
00010000
00010000
00010000
00001000
,
00010000
00000100
00001000
00000010
,
00010000
00001000
00000100
00000001
,
00001000
00000100
00010000
00000010
,
00000100
00001000
00010000
00001000
,
02000000
00100000
00100000
00100000
,
00100000
00100000
00100000
03000000
,
00002000
00010000
00010000
00010000
,
00010000
00010000
00010000
00003000
,
00100000
00010000
01000000
00100000
,
00010000
00001000
00100000
00010000
,
01000000
00001000
00010000
00100000
,
10000000
00010000
10000000
01000000
,
00200000
00300000
00020000
00030000
,
02000000
03000000
00002000
00003000
,
00020000
00000000
00000000
00000000
00000000
00030000
00000000
00000000
00000200
00000000
00000000
00000000
00000000
00000300
00000000
00000000
,
00000020
00000000
00000000
00000000
00000000
00000030
00000000
00000000
00000002
00000000
00000000
00000000
00000000
00000003
00000000
00000000
,
00000200
00000000
00000000
00000300
00002000
00000000
00000000
00003000
,
00020000
00000000
00000000
00030000
00002000
00000000
00000000
00003000
,
00200000
00000000
02300000
00000000
,
23000000
00000000
00020000
00000000
,
00000000
00000000
00000000
00000000
,
00000000
30030000
00000000
00000000
00000000
00000000
00000000
00000000
00000000
00000000
00000000
00000000
00000000
00000000
00000000
00000000
;
#NOTEDATA:;
#STEPSTYPE:dance-double;
#DIFFICULTY:Medium;
#METER:10;
#BPMS:0=185,291=370,291.5=185,291.75=92.5,292=185;
#STOPS:103=0.162,103.5=0.162,104=0.162,104.5=0.164;
#NOTES:
00000000
00000000
00000000
00000000
,
00000000
00000000
00000000
00000000
,
00000000
00000000
00000000
00000000
,
00000000
00000000
00000000
00000000
,
00000000
00000000
00000000
00000000
,
00000000
00000000
00000000
00000000
,
00000000
00000000
00000000
00000000
,
00000000
00000000
00000000
00000000
,
00000000
00000000
00000000
00000000
,
00001000
00010000
01000000
00100000
,
00010000
10000000
01000000
00100000
,
00001000
00000000
00010000
00001000
00010000
00000000
00001000
00010000
,
00001000
00000000
00010000
00001000
00010000
00000000
00000100
00000000
,
00001100
00001000
00000010
00010000
,
00011000
00001000
00100000
00010000
,
10000000
11000000
00010000
01010000
,
10000000
00100000
10000000
00100000
02000000
00000000
03000000
00000000
,
00001000
00000000
00000000
00000000
00000000
00022000
00000000
00000000
,
00000000
00000000
00000000
00033000
,
00010000
00000000
00000000
00000010
00000000
00000000
00001000
00000000
00000100
00000000
00000000
00000000
00001000
00000000
00000000
00000000
,
00000001
00000000
00000000
00000100
00000000
00000000
00000001
00000000
00000010
00000000
00000000
00000000
00000100
00000000
00000000
00000000
,
00010000
00000000
00000000
00000000
00000000
00022000
00000000
00000000
,
00000000
00000000
00000000
00033000
,
00001000
00000000
00000000
01000000
00000000
00000000
00010000
00000000
00100000
00000000
00000000
00000000
00010000
00000000
00000000
00000000
,
10000000
00000000
00000000
00100000
00000000
00000000
10000000
00000000
01000000
00000000
00000000
00000000
10000000
00000000
00000000
00000000
,
10010000
00000000
00000000
00000000
00000000
00000000
00000000
00000000
00000000
00000000
00000000
00000000
00000000
00000000
00000000
00000000
02200000
00000000
00000000
00000000
00000000
00000000
00000000
00000000
00000000
00000000
00000000
00000000
00000000
00000000
00000000
00000000
00000000
00000000
00000000
00000000
00000000
00000000
00000000
00000000
00000000
00000000
00000000
00000000
00000000
00000000
00000000
00000000
03300000
00000000
00000000
00000000
00000000
00000000
00000000
00000000
20020000
30030000
00000000
00000000
00000000
00000000
00000000
00000000
,
02200000
03300000
00000000
00000000
00000000
00000000
00000000
00000000
20020000
30030000
00000000
00000000
00000000
00000000
00000000
00000000
00000000
00000000
00000000
00000000
00000000
00000000
00000000
00000000
00000000
00000000
00000000
00000000
00000000
00000000
00000000
00000000
10000000
00000000
00000000
00000000
00000000
00000000
00000000
00000000
00000000
00000000
00000000
00000000
00000000
00000000
00000000
00000000
01000000
00000000
00000000
00000000
00000000
00000000
00000000
00000000
00100000
00000000
00000000
00000000
00000000
00000000
00000000
00000000
,
00010000
00000000
01000000
00000000
00001000
00000000
00010000
00000010
,
00001000
00000001
00000011
00001100
,
00000000
00000220
00000000
00000000
00000000
00000000
00000000
00000000
,
00000000
00000000
00000330
00000000
00001001
00000000
00000001
00000100
,
00000010
00000000
00010000
00000000
00001000
00000000
00100000
00010000
,
01000000
00010000
20010000
00000000
,
00000000
00000000
00000000
00000000
,
00000000
00000000
32000000
00000000
,
00000000
00000000
03200000
00000000
,
00302000
00000000
00023000
00000000
,
00000010
00000000
00032000
00000000
,
00100000
00000000
00013000
00000000
,
00000100
00000000
00001000
00001100
,
00000000
00000000
00000000
00000000
00001000
00000100
00000000
00001000
,
00000010
00000000
00001000
00000100
00000000
00001000
00000010
00000000
,
00001000
00000100
00000020
00000000
00000000
00000000
00000031
00000000
,
00001000
00000000
00000000
00000000
00000001
00000000
00000000
00000100
00000000
00000000
00001000
00000000
00000000
00010000
00000000
00000000
,
00100000
00000000
00000000
01000000
00000000
00000000
00000000
00000000
00010000
00000000
00100000
00000000
00000000
00000000
00010000
00000000
,
01000000
00000000
00010000
00100000
00000000
00010000
01000000
00000000
,
00010000
00100000
02000000
00000000
00000000
00000000
13000000
00000000
,
00010000
00000000
00000000
00000000
10000000
00000000
00000000
01000000
00000000
00000000
00010000
00000000
00000000
00001000
00000000
00000000
,
00000100
00000000
00000000
00000010
00000000
00000000
00000000
00000000
00001000
00000000
00001000
00000000
00000000
00000000
00000001
00000000
,
00000001
00000000
00000100
00000100
00000000
00000010
00000010
00000000
,
00001000
00000100
00020000
00000000
00030000
00001000
00001000
00010000
,
00010000
00000000
00000000
00000000
00001000
00000000
01000000
00000000
00010000
00000000
10000000
00000000
00000000
01000000
00000000
00000000
,
00100000
00010000
00100000
00000000
00010000
00010000
00000000
10000000
,
10000000
00000000
00100000
00100000
00000000
01000000
01000000
00000000
,
00010000
00100000
00002000
00000000
00003000
00010000
00010000
00001000
,
00001000
00000000
00000000
00000000
00010000
00000000
00000010
00000000
00001000
00000000
00000001
00000000
00000000
00000010
00000000
00000000
,
00000100
00001000
00001000
00000000
00000020
00000000
00000000
00000000
,
00000000
00000000
00020030
00000000
,
00000000
00000000
00032000
00000000
,
00000000
00000000
00020000
00000000
,
00003000
00030000
00000000
00000000
00001000
00100000
00010000
00000000
,
10000000
00100000
01000000
00000000
00001000
00100000
00010000
00000000
,
10000000
00000000
00100000
00000000
01000000
00000000
00000000
00000000
00010000
10000000
00000000
00000000
00010000
10000000
00000000
00000000
,
00010000
10000000
00000000
00000000
00010000
10000000
00000000
00000000
00100000
00000000
00000000
00000000
00000000
00000000
00000000
00000000
,
00000000
00000000
10010000
01000000
,
00110000
01000000
00110000
01000000
,
00110000
00001000
00011000
00000010
,
00001100
00000010
00001100
00000010
,
00001100
00000000
00000010
00000000
00001001
00000000
00000001
00000100
,
00000001
00000100
00000001
00000000
00000010
00000000
00000100
00001000
,
00000100
00001000
00000100
00000000
00010000
00000000
00001000
00010000
,
00001000
00010000
00001000
00000000
00100000
00000000
00010000
01000000
,
00010000
01000000
00010000
00000000
00100000
00000000
02000000
00000000
,
03100000
00010000
00110000
00001000
,
00110000
00001000
00011000
00010000
,
00001010
00010000
00001010
00010000
,
00001010
00000000
00010000
00000000
00001000
00000000
00010000
00001000
,
00010000
00001000
00010000
00000000
00001000
00000000
00000100
00000010
,
00000100
00000010
00000100
00000000
00000001
00000000
00000010
00000100
,
00000010
00000100
00000010
00000000
00000100
00000000
00010000
00001000
,
00010000
00001000
00010000
00000000
00002000
00003000
02000000
03000000
,
00020000
00000000
00000000
00000000
00030000
00000000
00000000
00000000
00200000
00000000
00000000
00000000
00300000
00000000
00000000
00000000
02000000
00000000
00000000
00000000
00000000
03000000
00000000
00000000
20000000
00000000
00000000
00000000
00000000
30000000
00000000
00000000
,
00020000
00000000
00000000
00000000
00000000
00000000
00000000
00000000
00000000
00000000
00030000
00000000
00000000
00000000
00000000
00000000
02000000
00000000
00000000
00000000
00000000
00000000
00000000
00000000
00000000
00000000
03000000
00000000
00000000
00000000
00000000
00000000
00200000
00000000
00000000
00000000
00000000
00000000
00000000
00000000
00000000
00000000
00000000
00300000
00000000
00000000
00000000
00000000
00020000
00000000
00000000
00000000
00000000
00000000
00000000
00000000
00000000
00000000
00000000
00030000
00000000
00000000
00000000
00000000
,
00002000
00000000
00000000
00000000
00000000
00000000
00000000
00000000
00000000
00000000
00000000
00003000
00000000
00000000
00000000
00000000
00020000
00000000
00000000
00000000
00000000
00000000
00000000
00000000
00000000
00000000
00000000
00030000
00000000
00000000
00000000
00000000
00000200
00000000
00000000
00000000
00000000
00000000
00000000
00000000
00000000
00000000
00000000
00000000
00000300
00000000
00000000
00000000
00020000
00000000
00000000
00000000
00000000
00000000
00000000
00000000
00000000
00000000
00000000
00000000
00030000
00000000
00000000
00000000
,
00002000
00000000
00000000
00000000
00000000
00000000
00000000
00000000
00000000
00000000
00000000
00000000
00003000
00000000
00000000
00000000
00000020
00000000
00000000
00000000
00000000
00000000
00000000
00000000
00000000
00000000
00000000
00000000
00000030
00000000
00000000
00000000
00000002
00000000
00000000
00000000
00000000
00000000
00000000
00000000
00000000
00000000
00000000
00000000
00000000
00000003
00000000
00000000
00002000
00000000
00000000
00000000
00000000
00000000
00000000
00000000
00000000
00000000
00000000
00000000
00000000
00003000
00000000
00000000
,
00000002
00000000
00000000
00000000
00000000
00000000
00000000
00000000
00000000
00000000
00000000
00000000
00000000
00000003
00000000
00000000
00000200
00000000
00000000
00000000
00000000
00000000
00000000
00000000
00000000
00000000
00000000
00000000
00000000
00000300
00000000
00000000
00002000
00000000
00000000
00000000
00000000
00000000
00000000
00000000
00000000
00000000
00000000
00000000
00000000
00000000
00003000
00000000
00020000
00000000
00000000
00000000
00000000
00000000
00000000
00000000
00000000
00000000
00000000
00000000
00000000
00000000
00030000
00000000
,
00002000
00000000
00000000
00000000
00000000
00000000
00000000
00000000
00000000
00000000
00000000
00000000
00000000
00000000
00003000
00000000
00200000
00000000
00000000
00000000
00000000
00000000
00000000
00000000
00000000
00000000
00000000
00000000
00000000
00000000
00300000
00000000
02000000
00000000
00000000
00000000
00000000
00000000
00000000
00000000
00000000
00000000
00000000
00000000
00000000
00000000
00000000
03000000
20000000
00000000
00000000
00000000
00000000
00000000
00000000
00000000
00000000
00000000
00000000
00000000
00000000
00000000
00000000
30000000
,
00200000
00000000
00000000
00000000
00000000
00000000
00000000
00000000
00000000
00000000
00000000
00000000
00000000
00000000
00000000
00300000
00020000
00000000
00000000
00000000
00000000
00000000
00000000
00000000
00000000
00000000
00000000
00000000
00000000
00000000
00000000
00030000
00002000
00000000
00000000
00000000
00000000
00000000
00000000
00000000
00000000
00000000
00000000
00000000
00000000
00000000
00000000
00000000
00003200
00000000
00000000
00000000
00000000
00000000
00000000
00000000
00000000
00000000
00000000
00000000
00000000
00000000
00000000
00000000
,
00000020
00000000
00000000
00000000
,
00000000
00000000
00000000
00000000
00000000
00000000
00000000
00000000
00000000
00000330
00000000
00000000
00000000
00000000
00000000
00000000
;
#NOTEDATA:;
#STEPSTYPE:dance-double;
#DIFFICULTY:Hard;
#METER:14;
#BPMS:0=185,291=370,291.5=185,291.75=92.5,292=185;
#STOPS:103=0.162,103.5=0.162,104=0.162,104.5=0.164;
#NOTES:
00000000
00000000
00000000
00000000
,
00000000
00000000
00000000
00000000
,
00000000
00000000
00000000
00000000
,
00000000
00000000
00000000
00000000
,
00000000
00000000
00000000
00000000
,
00000000
00000000
00000000
00000000
,
00000000
00000000
00000000
00000000
,
00000000
00000000
00000000
00000000
,
00000000
00000000
00000000
00000000
,
00001000
00000000
00010000
00000000
00001000
00100000
00010000
00000000
,
01000000
00000000
00100000
00000000
00010000
00001000
00010000
00000000
,
00000100
00000000
00000010
00000000
00000001
00000100
00000010
00000000
,
00010000
00000000
00001000
00000000
00010000
01000000
10000000
00000000
,
10100000
00000000
00100000
01000000
00010000
10000000
01000000
00100000
,
00001000
00010000
00001000
00010000
00000010
00001000
00000010
00001000
,
00000001
00000000
00000000
00000010
00000100
00000000
00001000
00000000
00000010
00000000
00000000
00010000
00001000
00000000
00100000
00000000
,
00010000
01000000
00010000
01000000
10100000
00000000
01010000
00000000
,
00001000
00010000
00000100
00000000
00000000
00000022
00000000
00000000
,
00000000
00000000
00000000
00000000
00000000
00000003
00000031
00000010
,
00000100
00000000
00000000
00010000
00001000
00000000
00010000
00000000
00000010
00001000
00000000
00000000
00000001
00000000
00000100
00000000
,
00000001
00000000
00000010
00000100
00000000
00000000
00001000
00000000
00000000
00000001
00000010
00000000
00001000
00000000
00010000
00000000
,
00002000
00000000
01003000
00000000
00000000
20200000
00000000
00000000
,
00000000
00000000
00000000
00000000
00000000
30000000
10300000
00100000
,
01000000
00000000
00000000
00001000
00010000
00000000
00001000
00000000
00100000
00010000
00000000
00000000
10000000
00000000
01000000
00000000
,
10000000
00000000
00100000
01000000
00000000
00000000
00010000
00000000
00000000
10000000
00100000
00000000
00010000
00000000
00001000
00000000
,
00010000
00000000
00000000
00000000
00000000
00000000
00000000
00000000
00000000
00000000
00000000
00000000
00000000
00000000
00000000
00000000
00002200
00000000
00000000
00000000
00000000
00000000
00000000
00000000
00000000
00000000
00000000
00000000
00000000
00000000
00000000
00000000
00000000
00000000
00000000
00000000
00000000
00000000
00000000
00000000
00000000
00000000
00000000
00000000
00000000
00000000
00000000
00000000
00003300
00000000
00000000
00000000
00000000
00000000
00000000
00000000
00020020
00030030
00000000
00000000
00000000
00000000
00000000
00000000
,
00002200
00003300
00000000
00000000
00000000
00000000
00000000
00000000
00000022
00000033
00000000
00000000
00000000
00000000
00000000
00000000
00000000
00000000
00000000
00000000
00000000
00000000
00000000
00000000
00000000
00000000
00000000
00000000
00000000
00000000
00000000
00000000
00001001
00000000
00000000
00000000
00000000
00000000
00000000
00000000
00000000
00000000
00000000
00000000
00000001
00000000
00000000
00000000
00000100
00000000
00000000
00000000
00000000
00000000
00000000
00000000
00000010
00000000
00000000
00000000
00000000
00000000
00000000
00000000
,
00010000
00001000
00000000
00000000
00010000
00000000
00001000
00000000
01000000
00000000
00010000
10000000
00000000
00000000
00100000
00000000
,
01000000
00100000
00000000
00000000
00010000
00000000
00001000
00000000
00011000
00000000
00000000
00000000
00010100
00000000
00000000
00000000
,
00000000
00000120
00000000
00000000
00001000
00000000
00000001
00000000
,
00001000
00000000
00000000
00000000
00000031
00000000
00000000
00000000
00000010
00000000
00000000
00001000
00000000
00000000
00010000
00000000
,
00001000
01000000
00000000
00000000
00100000
00000000
01000000
00000000
10000000
00000000
01000000
00100000
00000000
00000000
10000000
00000000
,
00010000
01000000
00000000
00000000
00001000
00000000
00010000
00000000
00002000
00000000
00000000
00000000
00000000
00000000
00000000
00000000
,
00000000
00000000
00000200
00000000
,
00000000
00003000
00000002
00000000
,
00000000
00000300
00000020
00000000
,
00000000
00000003
00000200
00000000
,
00000000
00000030
00020000
00000000
,
00000000
00000300
00002000
00030000
,
02000000
00003000
03200000
00300000
,
00000000
00000000
00000000
00000000
00000000
00000000
00000000
00000000
00100000
01000000
00100000
01000000
00000000
00000000
00010000
01000000
,
00010000
01000000
00000000
00000000
00010000
10000000
00010000
10000000
00000000
00000000
00100000
10000000
00100000
10000000
00000000
00000000
,
00010000
10000000
00010000
00000000
02000000
00000000
03002000
00000000
00023000
00000000
00030020
00000000
00001030
00000010
00001000
00000000
,
00000001
00000100
00000000
00000000
00000010
00000100
00000000
00000010
00001000
00000000
00000010
00010000
00000000
00000010
00001000
00000000
,
00000010
00000100
00000000
00000001
00002000
00000000
00003000
00000000
00000001
00001000
00000001
00001000
00000000
00000000
00000001
00000010
,
00000001
00000010
00000000
00000000
00000100
00000010
00000100
00000010
00000000
00000000
00000100
00001000
00000100
00001000
00000000
00000000
,
00000100
00000000
00010000
00001000
00020000
00000000
00000000
00000000
00031000
00000000
00000000
00000000
00010000
00000000
00001000
00010000
,
00001000
00010000
00000000
00000000
00001000
01000000
00000000
00100000
10000000
00000000
00010000
01000000
00000000
00001000
00010000
00000000
,
00001000
00100000
00000000
01000000
10000000
00000000
00010000
00000000
02000000
00000000
03100000
01000000
00000000
00000000
00020000
00000000
,
00130000
00010000
00000000
00000000
02000000
00000000
03100000
01000000
00000000
00000000
00020000
00000000
10030000
00010000
00000000
00000000
,
10000000
00000000
00100000
00000000
00020000
00000000
00000000
00000000
00030000
00000000
00001000
00000000
00010000
00000100
00000000
00001000
,
00000100
00000000
00000000
00000000
00000010
00000001
00000000
00001000
00000010
00000000
00010000
00000000
00000100
00001000
00000000
00000001
,
00000100
00000000
00000010
00000000
00001000
00000000
00000001
00000000
00000200
00000000
00000310
00001000
00000000
00000000
00000200
00000000
,
00010300
00001000
00000000
00000000
00200000
00000000
00310000
01000000
00000000
00000000
00200000
00000000
10300000
01000000
00000000
00000000
,
10000000
00000000
00100000
00000000
00020000
00000000
00000000
00000000
00030000
00000000
00001000
00000000
00010000
00001000
00000000
00100000
,
00010000
00000000
00000000
00000000
01000000
00010000
00000000
10000000
01000000
00000000
00100000
00000000
00001000
00010000
00000000
00100000
,
01000000
00010000
00100000
01000000
20000000
00000000
00000000
00000000
,
00000000
00000000
00000000
00000000
,
00000000
00000000
00020000
00000000
,
00000000
00000000
00000000
00000000
,
00030000
30000000
00000000
00000000
10000000
00100000
00010000
00001000
,
00010000
01000000
00100000
00001000
00010000
00001000
00000100
00000001
,
00000010
00000000
00000100
00000000
00001000
00000000
00000010
00000000
00000100
00000001
00000000
00000000
00001000
00000010
00000000
00000000
,
00010000
00001000
00000000
00000000
01000000
00100000
00000000
00000000
10000000
00000000
00100000
00000000
01000000
00000000
00010000
00000000
,
00100000
01000000
10000000
01000000
00210000
00000000
10000000
00000000
,
00010000
00001000
00010000
10000000
,
00010000
00000000
00301000
00010000
00010200
00000000
00001000
00000000
,
00000001
00001000
00010000
00001000
,
00000001
00000000
00001300
00000010
00010000
00000000
00001000
00000100
,
00000001
00000010
00001000
00010000
01000000
00000000
10000000
00100000
,
00010000
00001000
00000100
00000010
00001000
00000000
00001000
00000100
,
00000010
00001000
00010000
00001000
00000100
00000000
00000100
00001000
,
00010000
01000000
10000000
00000000
12000000
00000000
03010000
00000000
,
00012000
00000100
00010000
00000010
,
00010000
00000000
00003100
00000001
00000021
00000000
00001030
00000000
,
00021000
00100000
00001000
01000000
,
00001000
00000000
00000000
00000000
00130000
00000000
10000000
00000000
10010000
00000000
00000000
00010000
01000000
00000000
00100000
00000000
,
00010000
00000000
00000000
00010000
00001000
00000000
00000010
00000000
00000001
00000000
00000000
00000001
00000100
00000000
00000010
00000000
,
00001000
00000000
00000000
00001000
00000100
00000000
00010000
00000000
00001000
00000000
00000000
00001000
00010000
00000000
01000000
00000000
,
10000000
00000000
00000000
10000000
00100000
00000000
01000000
00000000
00010000
00000000
00000000
00010000
00100000
00000000
01000000
00000000
,
00010000
00000000
00000000
00010000
00001000
00000000
00010000
00000100
00002000
00000000
00003000
00000000
00000200
00000000
00000300
00000000
,
00020000
00000000
00000000
00000000
00030000
00000000
00000000
00000000
00002000
00000000
00000000
00000000
00003000
00000000
00000000
00000000
00000020
00000000
00000000
00000000
00000000
00000030
00000000
00000000
00000002
00000000
00000000
00000000
00000000
00000003
00000000
00000000
,
00000200
00000000
00000000
00000000
00000000
00000300
00000000
00000000
00002000
00000000
00000000
00000000
00000000
00003000
00000000
00000000
00020000
00000000
00000000
00000000
00000000
00000000
00030000
00000000
00200000
00000000
00000000
00000000
00000000
00000000
00300000
00000000
,
00020000
00000000
00000000
00000000
00000000
00000000
00030000
00000000
00002000
00000000
00000000
00000000
00000000
00000000
00003000
00000000
00020000
00000000
00000000
00000000
00000000
00000000
00000000
00030000
02000000
00000000
00000000
00000000
00000000
00000000
00000000
03000000
,
00200000
00000000
00000000
00000000
00000000
00000000
00000000
00300000
00020000
00000000
00000000
00000000
00000000
00000000
00000000
00030000
20000000
00000000
00000000
00000000
00000000
00000000
00000000
00000000
30200000
00000000
00000000
00000000
00000000
00000000
00000000
00000000
,
00320000
00000000
00000000
00000000
00032000
00000000
00000000
00000000
00023000
00000000
00000000
00000000
00000200
00030000
00000000
00000000
,
00000020
00000300
00000000
00000000
00000002
00000030
00000000
00000000
00000200
00000003
00000000
00000000
00002000
00000000
00000300
00000000
,
00020000
00000000
00003000
00000000
00200000
00000000
00030000
00000000
02000000
00000000
00300000
00000000
00020000
00000000
00000000
03000000
,
20000000
00000000
00000000
00000000
,
00000000
00000000
00000000
00000000
00000000
00000000
00000000
00000000
00000000
30030000
00000000
00000000
00000000
00000000
00000000
00000000
;
#NOTEDATA:;
#STEPSTYPE:dance-double;
#DIFFICULTY:Challenge;
#METER:17;
#BPMS:0=185,291=370,291.5=185,291.75=92.5,292=185;
#STOPS:103=0.162,103.5=0.162,104=0.162,104.5=0.164;
#NOTES:
00000000
00000000
00000000
00000000
,
00000000
00000000
00000000
00000000
,
00000000
00000000
00000000
00000000
,
00000000
00000000
00000000
00000000
,
00000000
00000000
00000000
00000000
,
00000000
00000000
00000000
00000000
,
00000000
00000000
00000000
00000000
,
00000000
00000000
00000000
00000000
,
00000000
00000000
00000000
00000000
,
00001000
00000000
00000000
00010000
00000100
00000000
00001000
00000000
00000001
00000000
00000010
00000000
00000100
00001000
00000001
00000000
,
00000100
00000000
00000000
00000001
00000010
00000000
00000001
00000000
00001000
00000000
00000100
00000000
00010000
00000000
MMMM0000
00000000
,
00010000
00000000
00000000
00001000
01000000
00000000
00010000
00000000
10000000
00000000
00100000
00000000
01000000
00010000
10000000
00000000
,
01000000
00000000
00000000
10000000
00100000
00000000
10000000
00000000
00010000
00000000
01000000
00000000
00001000
00000000
0000MMMM
00000000
,
00001000
00010000
00000010
00001000
00000001
00000010
00000100
00010000
,
00001000
00100000
00010000
10000000
00100000
01000000
00001000
00010000
,
00000100
00001000
00000010
00010000
00001000
01000000
00010000
00100000
,
00010000
10000000
01000000
00100000
00010000
10000000
00010000
01000000
00200000
00000000
00000000
00000000
10300000
00000000
00000000
00000000
,
00200000
00000000
00000000
00000000
00310000
00000000
00000000
MMMM0000
00000000
00000000
00012000
00000000
00000000
00000000
00000000
00000000
,
00000010
00010000
00000100
00013000
,
MMMM0000
00000000
00000000
00000000
00000000
00000000
00010000
00000000
00001000
00000000
00000000
00000000
00100000
00000000
00000000
00000000
00001000
00000000
00010000
00000000
00000000
MMMM0000
00000000
00000000
00010000
00000000
00000000
00000000
00001000
00000000
00000000
00000000
,
0000MMMM
00000000
00000000
00000000
00001000
00000000
01000000
00000000
00010000
00000000
00000000
00000000
00100000
00000000
00000000
00000000
00001000
00000000
00010000
00000000
00000000
MMMM0000
00000000
00000000
00010000
00000000
00000000
00000000
00000100
00000000
00000000
00000000
,
00000010
00000000
00000000
00000000
00001000
00000000
00000000
0000MMMM
00000000
00000000
00021000
00000000
00000000
00000000
00000000
00000000
,
00100000
00001000
01000000
00031000
,
0000MMMM
00000000
00000000
00000000
00000000
00000000
00001000
00000000
00010000
00000000
00000000
00000000
00000010
00000000
00000000
00000000
00010000
00000000
00001000
00000000
00000000
0000MMMM
00000000
00000000
00001000
00000000
00000000
00000000
00010000
00000000
00000000
00000000
,
MMMM0000
00000000
00000000
00000000
00010000
00000000
00000100
00000000
00001000
00000000
00000000
00000000
00000010
00000000
00000000
00000000
00010000
00000000
00001000
00000000
00000000
0000MMMM
00000000
00000000
00001000
00000000
00000000
00000000
01000000
00000000
00000000
00000000
,
01100000
00000000
00000000
00000000
00000000
00000000
00000000
00000000
00000000
00000000
00000000
00000000
00000000
00000000
00000000
00000000
20020000
00000000
00000000
00000000
00000000
00000000
00000000
00000000
00000000
00000000
00000000
00000000
00000000
00000000
00000000
00000000
00000000
00000000
00000000
00000000
00000000
00000000
00000000
00000000
00000000
00000000
00000000
00000000
00000000
00000000
00000000
00000000
30030000
00000000
00000000
00000000
00000000
00000000
00000000
00000000
20020000
30030000
00000000
00000000
MMMM0000
00000000
00000000
00000000
,
00022000
00033000
00000000
00000000
0000MMMM
00000000
00000000
00000000
00002002
00003003
00000000
00000000
00000000
00000000
00000000
00000000
00000000
00000000
00000000
00000000
00000000
00000000
00000000
00000000
00000000
00000000
00000000
00000000
00000000
00000000
00000000
00000000
0000MMMM
00000000
00000000
00000000
00000000
00000000
00000000
00000000
00000000
00000000
00000000
00000000
00000001
00000000
00000000
00000000
00000100
00000000
00000000
00000000
00000000
00000000
00000000
00000000
00000010
00000000
00000000
00000000
00000000
00000000
00000000
00000000
,
00010000
00000000
00001000
00000000
00000000
0000MMMM
00000000
00000000
00001000
00000000
00000000
00000000
00010000
00000000
00000000
00000000
MMMM0000
00000000
00000000
00000000
00010000
00000000
00001000
00000000
01000000
00000000
00000000
00000000
00010000
00000000
00000000
00000000
,
01000000
00000000
00001000
00000000
00000000
0000MMMM
00000000
00000000
00001000
00000000
00000000
00000000
00010000
00000000
00000000
00000000
00011000
00000000
00000000
00000000
MMMM0000
00000000
00000000
00000000
00101000
00000000
00000000
00000000
00000000
00000000
MMMM0000
00000000
,
00000000
00021000
00000000
00000000
00100000
00000000
00001000
00000000
,
00000100
00000000
00000000
00000000
00030010
00000000
00000000
00000000
0000MMMM
00000000
00000000
00000001
00000010
00000000
00000100
00000000
,
00010000
00000000
00001000
00000000
00000000
0000MMMM
00000000
00000000
00001000
00000000
00000000
00000000
00010000
00000000
00000000
00000000
MMMM0000
00000000
00000000
00000000
00010000
00000000
00001000
00000000
00100000
00000000
00000000
00000000
01000000
00000000
00000000
00000000
,
10000000
00000000
00010000
00000000
00000000
MMMM0000
00000000
00000000
00010000
00000000
00000000
00000000
01000000
00000000
00000000
00000000
MMMM0000
00000000
00000000
00000000
00000000
00000000
00000000
00000000
MMMM0000
00000000
00000000
00000000
00000000
00000000
00000000
00000000
,
MMMM0000
MMMM0000
0000MMMM
0000MMMM
,
0000MMMM
0000MMMM
MMMM0000
MMMM0000
,
0000MMMM
0000MMMM
MMMM0000
0000MMMM
,
MMMM0000
00000000
0000MMMM
00000000
00001000
00010000
00001000
00010000
,
00001000
00000100
00000001
00000010
00000100
00001000
00000100
00001000
,
00000010
00010000
00001000
00010000
00100000
01000000
00100000
01000000
,
00010000
00100000
00001000
00010000
00000020
00000000
00000130
00000000
,
00000000
00000000
00000000
00000000
MMMMMMMM
00000000
00000000
00000000
00000000
00000000
00000000
00000000
00000000
00000000
00000000
00000000
00000001
00000000
00001000
00000000
00000001
00000000
00001000
00000000
00000000
0000MMMM
00000000
00000000
00010000
00000000
00000010
00000000
,
00010000
00000000
00000010
00000000
00000000
0000MMMM
00000000
00000000
00000001
00000000
00001000
00000000
00000001
00000000
00001000
00000000
00000000
0000MMMM
00000000
00000000
00010000
00000000
00000010
00000000
00010000
00000000
00000010
00000000
00000000
0000MMMM
00000000
00000000
,
00000001
00000000
00001000
00000000
00000001
00000000
00001000
00000000
00000000
MMMMMMMM
00000000
MMMMMMMM
00000000
MMMMMMMM
00000000
MMMMMMMM
00000000
MMMMMMMM
00000000
MMMMMMMM
00000000
MMMMMMMM
00000000
00000000
00001000
00000000
00000100
00000000
00001000
00000000
00000001
00000000
,
00001000
00000010
00000100
00000000
00000001
00000100
00000000
00001000
00010000
00000000
00001000
00100000
00000000
00010000
01000000
00000000
,
00100000
00000000
10000000
00000000
00000000
00000000
00010000
00000000
00200000
00000000
00000000
00000000
00300000
00000000
00000000
00000000
00001000
00000000
01000000
00000000
00001000
00000000
01000000
00000000
00000000
MMMM0000
00000000
00000000
10000000
00000000
00010000
00000000
,
10000000
00000000
00010000
00000000
00000000
MMMM0000
00000000
00000000
00001000
00000000
01000000
00000000
00001000
00000000
01000000
00000000
00000000
MMMM0000
00000000
00000000
10000000
00000000
00010000
00000000
10000000
00000000
00010000
00000000
00000000
MMMM0000
00000000
00000000
,
00001000
01000000
00001000
01000000
00200000
00000000
00000000
00000000
10300000
00000000
00000000
00000000
00010000
10000000
00010000
10000000
,
00100000
01000000
00010000
00000000
10000000
00100000
00000000
00010000
00001000
00000000
00010000
00000100
00000000
00001000
00000010
00000000
,
00000100
00000000
00000000
00000001
00000000
00000000
00000000
00000000
00000000
00001000
00000000
00000000
00000100
00000000
00000000
00001000
00000000
00000000
00000100
00000000
00000000
00001000
00000000
00000000
00000100
00000000
00001000
00000000
00000100
00000000
00001000
00000000
00000000
00000000
00000000
00000000
0000MMMM
00000000
00000000
00000000
00000000
00000000
00010000
00000000
00000010
00000000
00010000
00000000
,
00000010
00000000
00000000
0000MMMM
00000000
00000000
00000100
00001000
00000100
00001000
00000000
00000000
0000MMMM
00000000
00000000
00010000
00000010
00010000
00000010
00000000
00000000
0000MMMM
00000000
00000000
,
00000100
00000000
00001000
00000000
00000100
00000000
00001000
00000000
00000100
00000000
00001000
00000000
00000200
00000000
00000000
00000000
00000000
00000000
00000000
00000000
00000000
00000000
00000000
00000000
00000300
00000000
00000000
00000000
00000000
00000000
00001000
00000000
00000000
00000001
00000000
00000000
00000100
00000000
00000000
00000010
00000000
00000000
00001000
00000000
00000000
00000010
00000000
00000000
,
00010000
00000000
MMMM0000
00000000
00010000
00001000
00000000
00100000
00010000
10000000
01000000
00000000
00100000
00010000
00000000
10000000
,
00100000
00000000
00000000
00000000
00000000
00000000
01000000
00000000
00000000
00000000
00000000
00000000
00010000
00000000
00000000
01000000
00000000
00000000
00010000
00000000
00000000
00000000
00000000
00000000
01000000
00000000
00010000
00000000
01000000
00000000
00010000
00000000
00000000
00000000
00000000
00000000
MMMM0000
00000000
00000000
00000000
00000000
00000000
00001000
00000000
00100000
00000000
00001000
00000000
,
00100000
00000000
00000000
MMMM0000
00000000
00000000
01000000
00010000
01000000
00010000
00000000
00000000
MMMM0000
00000000
00000000
00001000
00100000
00001000
00100000
00000000
00000000
MMMM0000
00000000
00000000
,
01000000
00000000
00010000
00000000
01000000
00000000
00010000
00000000
01000000
00000000
00010000
00000000
02000000
00000000
00000000
00000000
00000000
00000000
00000000
00000000
00000000
00000000
00000000
00000000
03000000
00000000
00000000
00000000
00000000
00000000
00010000
00000000
00000000
10000000
00000000
00000000
01000000
00000000
00000000
00100000
00000000
00000000
00010000
00000000
00000000
00100000
00000000
00000000
,
00001000
00000000
0000MMMM
00000000
00001000
00010000
00000000
00000010
00001000
00000001
00000100
00000000
00000010
00001000
00000000
00000001
,
00000010
00000000
00000100
00000000
00001000
00000001
00000100
00000000
00000001
00000000
00000000
00000010
00000000
00000000
00000100
00000000
,
00000000
00001000
00000000
00000000
00000010
00000000
00010000
00000000
00001000
00000000
00000000
01000000
00000000
00000000
00010000
00000000
,
00000000
00100000
00000000
00000000
00001000
00000000
01000000
00000000
00010000
00000000
00000000
00100000
00000000
00000000
01000000
00000000
,
00000000
10000000
00000000
00000000
00100000
00000000
00100000
00000000
01000000
00000000
00000000
00010000
00000000
00000000
00100000
00000000
,
00002000
00020000
00003000
00030000
00001000
00010000
00100000
01000000
,
00010000
00100000
00001000
00010000
01000000
10000000
01000000
00010000
,
00001000
00000000
00000000
00000000
00001000
00000000
00000000
00000000
00010000
00000000
00000000
00000000
00010000
00000000
00000000
00000000
00001000
00000000
01000000
00000000
00000000
MMMM0000
00000000
00000000
00010000
00000000
00000010
00000000
00000000
0000MMMM
00000000
00000000
,
00001000
00000000
01000000
00000000
00000000
MMMM0000
00000000
00000000
00010000
00000000
00000010
00000000
00000000
0000MMMM
00000000
00000000
MMMM0000
00000000
00000000
00000000
0000MMMM
00000000
00000000
00000000
MMMM0000
00000000
00000000
00000000
0000MMMM
00000000
00000000
00000000
,
MMMM0000
00000000
MMMMMMMM
MMMMMMMM
00022000
00033000
01001000
MMMM0000
,
10010000
MMMM0000
00101000
0000MMMM
00011000
0000MMMM
01001000
MMMM0000
,
10010000
MMMM0000
00101000
0010MMMM
00002000
00003000
00010100
0000MMMM
,
00001001
0000MMMM
00010010
MMMM0000
00011000
MMMM0000
00010100
0000MMMM
,
00001001
00000000
0000MMMM
00000000
00010010
00000000
MMMM0010
00000000
00020000
00000000
00030000
00000000
00001000
00010000
00001000
00000000
,
00000010
00000001
00000000
00000001
00000100
00000000
00001000
00000000
00010000
00000000
MMMM0000
00000000
00010000
00001000
00010000
00000000
,
00100000
10000000
00000000
10000000
01000000
00000000
00010000
00000000
00001000
00000000
0000MMMM
00000000
00001000
00010000
00000100
00000000
,
00000010
00000001
00000000
00001000
00000010
00000000
00010000
00001000
00010000
00000000
MMMM0000
00000000
00010000
00001000
01000000
00000000
,
00100000
10000000
00000000
00010000
00100000
00000000
00001000
00010000
00001000
00000000
MMMM0000
00000000
00000020
00000000
00000000
00000030
,
00000110
0000MMMM
00010100
MMMM0000
00011000
MMMM0000
00010010
0000MMMM
,
00001001
0000MMMM
00010100
MMMM0100
00020000
00030000
00101000
MMMM0000
,
10010000
MMMM0000
01001000
0000MMMM
00011000
0000MMMM
00101000
MMMM0000
,
10010000
00000000
MMMM0000
00000000
01001000
00000000
0100MMMM
00000000
00002000
00000000
00003000
00010000
00000100
00000000
00001000
00000000
,
00000001
00000100
00000010
00000000
00010000
00000000
00001000
00000000
0000MMMM
00000000
00000000
00001000
01000000
00000000
00010000
00000000
,
10000000
01000000
00100000
00000000
00001000
00000000
00010000
00000000
MMMM0000
00000000
00000000
00010000
00000010
00000000
00001000
00000000
,
00000001
00000010
00000100
00000000
00010000
00000000
00001000
00000000
0000MMMM
00000000
00000000
00001000
00100000
00000000
00010000
00000000
,
10000000
00100000
01000000
00000000
00001000
00000000
00010000
00000100
00000020
00000000
00000000
00000000
00000001
00000000
00000000
00000000
,
00000001
00000001
00000230
00001000
,
00001000
00001000
00020300
00001000
,
00001000
00001000
00032000
00010000
,
00010000
00000000
00010000
00000000
00013000
MMMM0000
01000000
MMMM0000
,
10000000
MMMM0000
00100000
MMMM0000
00010000
0000MMMM
00001000
0000MMMM
,
00000010
0000MMMM
00000001
0000MMMM
00000100
0000MMMM
00001000
0000MMMM
,
00010000
MMMM0000
01000000
MMMM0000
20000000
00000000
00100000
00000000
,
00020000
00000000
00000000
30030000
,
00000000
00000000
00000000
00000000
00000000
00000000
00000000
00000000
00000000
MMMMMMMM
00000000
00000000
00000000
00000000
00000000
00000000
;
