
//----- song ID: dape -----//
#TITLE:Damage Per Second;
#ARTIST:Maozon;
#BANNER:Damage Per Second.png;
#BACKGROUND:Damage Per Second-bg.png;
#CDTITLE:./CDTitles/bm IIDX 23 copula.png;
#MUSIC:Damage Per Second.ogg;
#SAMPLESTART:32.542;
#SAMPLELENGTH:15;
#DISPLAYBPM:89:177;
#BPMS:0=177,104=88.5,136=177;
#NOTES:
     dance-single:
     :
     Beginner:
     4:
     :
0000
0000
0000
0000
,
0000
0000
0000
0000
,
0000
0000
0000
0000
,
0000
0000
0000
0000
,
0000
0000
0000
0000
,
0000
0000
0000
0000
,
1000
0000
0000
0000
,
0001
0000
0000
0000
,
2000
0000
3000
0000
,
0002
0000
0003
0000
,
1000
0000
0100
0000
,
1000
0000
0000
0000
,
0001
0000
0100
0000
,
0001
0000
0000
0000
,
0100
0000
0010
0000
,
0100
0000
0000
0000
,
0010
0000
1000
0000
,
0001
0000
0000
0000
,
1000
0000
0010
0000
,
1000
0000
0010
0000
,
0100
0000
0001
0000
,
0100
0000
0001
0000
,
1000
0000
1000
0000
,
0001
0000
0001
0000
,
1001
0000
0000
0000
,
1001
0000
0000
0000
,
1000
0000
0000
0000
,
1000
0000
0001
0000
,
0100
0000
0001
0000
,
2000
3000
0002
0003
,
0100
0000
0010
0000
,
0100
0000
0001
0000
,
1000
0000
0100
0000
,
0020
0030
0200
0300
,
0010
0000
0000
0000
,
0010
0000
0000
0000
,
0001
0000
1000
0000
,
0001
0000
0000
0000
,
1000
0000
0010
0000
,
1000
0000
0000
0000
,
0010
0000
0100
0000
,
0010
0000
0000
0000
,
0100
0000
0001
0000
,
1000
0000
0000
0000
,
0001
0000
1000
0000
,
0010
0000
0000
0000
,
1000
0000
0010
0000
,
0100
0000
0000
0000
,
0010
0000
0100
0000
,
0001
0000
0000
0000
,
0100
0000
0000
0000
,
0010
0000
0000
0000
,
1000
0000
0000
0000
,
0001
0000
0000
0000
,
0010
0000
0000
0000
,
0100
0000
0000
0000
,
0010
0000
0000
0000
,
0110
0000
0000
0000
,
0100
0000
1000
0000
,
0100
0000
1000
0000
,
0001
0000
0100
0000
,
0010
0000
0000
0000
,
1000
0000
0010
0000
,
0100
0000
0001
0000
,
0200
0000
0300
0000
,
0020
0000
0030
0000
,
1000
0000
0001
0000
,
0100
0000
0010
0000
,
1000
0000
0001
0000
,
0100
0000
0000
0000
,
0002
0000
0003
0000
,
2000
0000
3000
0000
,
0200
0000
0300
0000
,
0020
0000
0000
0000
,
0000
0000
0000
0000
,
0030
0000
0000
0000
,
0000
0000
0000
0000
;
#NOTES:
     dance-single:
     :
     Easy:
     8:
     :
0000
0000
0000
0000
,
0000
0000
0000
0000
,
0000
0000
0000
0000
,
0000
0000
0000
0000
,
0000
0000
0000
0000
,
0000
0000
0000
0000
,
0001
0000
1000
0000
,
0001
1000
0001
0000
,
2000
0000
3000
0002
0000
0000
0003
0200
,
0000
0000
0300
0020
0000
0000
0030
0000
,
1000
1000
0001
0001
,
0100
0010
0100
0000
,
0010
0010
0100
0100
,
0001
1000
0001
0000
,
1000
1000
0100
0100
,
0010
0001
0010
0000
,
0001
0001
1000
1000
,
1001
0000
0000
0000
,
0001
0100
0001
0100
,
0010
1000
0001
0010
,
0100
1000
0100
1000
,
0001
0100
0010
1000
,
0100
0010
0100
0010
,
0001
1000
0001
1000
,
0100
0000
0000
0000
,
1000
0000
0000
0001
0000
0000
1001
0000
,
1000
0100
1000
0000
0001
0100
0001
0100
,
0010
1000
0010
0000
1000
0100
0010
0001
,
1000
0010
1000
0000
0001
0010
0001
1000
,
0020
0000
0030
0200
0000
0000
0300
0002
0000
0000
0003
2000
0000
3000
0001
0000
,
0100
0010
0100
0000
0010
1000
0010
0100
,
0001
0100
0001
0000
1000
0100
0010
0001
,
1000
0100
1000
0000
0001
0010
0001
0010
,
0002
0000
0003
0200
0000
0000
0300
0020
0000
0000
0030
2000
0000
0000
3000
0000
,
0001
0010
0100
1000
,
0001
0100
0001
0100
,
0001
0100
0010
1000
,
0001
0010
0001
0000
,
1000
0010
0100
0000
,
0010
0100
0001
0000
,
1000
0001
0010
0000
,
0110
0000
1001
0000
,
1000
0100
0010
0001
,
1000
0010
1000
0010
,
1000
0010
0100
0001
,
1000
0100
1000
0000
,
0001
0100
0010
0000
,
0100
0010
1000
0000
,
0001
1000
0100
0000
,
0110
0000
1001
0000
,
0001
0010
0001
0000
,
0010
0100
1000
0000
,
0100
1000
0100
0000
,
1000
0010
0100
0000
,
0001
0100
0001
0000
,
0100
0010
1000
0000
,
1001
0000
0000
0000
,
0002
0000
0000
1003
,
0001
0010
0001
0100
,
0010
1000
0100
1000
,
0001
0100
0001
0010
,
0001
1000
0100
0000
,
1000
0010
0100
0001
,
1000
0100
0010
0001
,
2000
0000
3000
0002
0000
0000
0003
0020
,
0000
0000
0030
0200
0000
0000
0310
0000
,
0100
1000
0100
0000
,
1000
0010
0100
0001
,
0010
0001
0010
0000
,
0001
0100
0010
1000
,
0002
0000
0000
0000
,
2003
0000
0000
0000
,
3020
0000
0030
0200
0000
0300
0000
0220
,
0000
0000
0000
0000
,
0000
0000
0000
0000
,
0330
0000
0000
0000
,
0000
0000
0000
0000
;
#NOTES:
     dance-single:
     :
     Medium:
     11:
     :
0000
0000
0000
0000
,
0000
0000
0000
0000
,
0000
0000
0000
0000
,
0000
0000
0000
0000
,
0000
0000
0000
0000
,
0000
0000
0000
0000
,
1000
0000
0100
1000
0000
0100
0010
0000
,
0001
1000
0001
0000
0100
0010
0100
0000
,
0020
0000
0030
2000
0000
0000
3000
0002
,
0000
0000
0003
0020
0000
0000
0030
0000
,
0001
0001
1000
1000
,
0001
0100
0001
0000
0100
0010
0100
0010
,
1000
1000
0100
0100
,
0010
0001
0010
0000
0001
0000
1001
0000
,
0001
0001
0100
0100
,
0010
1000
0010
0000
1000
0100
1000
0000
,
0100
0100
0010
0010
,
0100
0000
0000
0000
,
0010
0100
0010
0000
0001
0000
0010
0000
,
0001
0100
0001
0000
0100
0010
0100
0000
,
0010
1000
0010
0000
1000
0000
0100
0000
,
1000
0001
1000
0000
0001
0100
0010
0000
,
1000
0010
1000
0010
1000
0010
1000
0000
,
0001
0100
0001
0100
0001
0100
0001
0000
,
1001
0000
0000
0000
,
1000
0000
0000
1000
0000
0000
0001
0000
0000
0001
0000
0000
0110
0000
0000
0000
,
1001
0000
1000
0000
0100
0010
0100
0000
0010
0001
0010
0000
0001
1000
0100
0000
,
1100
0000
0100
0000
1000
0001
1000
0000
0001
0100
0010
0000
1000
0001
0010
0000
,
0011
0000
0001
0000
0100
0010
0100
0000
0010
1000
0010
0000
1000
0001
0100
0010
,
2000
0000
3000
0200
0000
0000
0300
0020
0000
0000
0030
0002
0000
0003
0011
0000
,
1001
0000
1000
0100
0010
0000
0100
0000
0010
0001
0100
0000
0010
0000
1010
0000
,
1001
0000
0001
0100
0010
0000
0100
0000
0010
1000
0100
0000
0010
0001
0100
0000
,
0110
0000
0010
1000
0001
0000
1000
0000
0001
0100
0010
0000
1000
0000
1100
0000
,
0200
0000
0310
0002
0000
1003
0010
0200
0000
0310
0100
0001
1000
0001
1000
0000
,
0001
0000
0100
0000
0010
1000
0010
0000
,
1000
0001
0100
0000
0001
1000
0010
0000
,
0100
0000
0001
0000
1000
0100
1000
0000
,
0001
1000
0100
0000
1100
0000
1001
0000
,
1000
0010
0100
0001
,
0010
0100
0010
0000
0001
1000
0010
0000
,
0100
0000
0001
0000
1000
0000
0001
0010
,
0000
0100
0000
0010
0100
0010
0100
0000
,
1000
0000
0010
0000
0100
0001
0100
0000
,
0001
1000
0010
0000
1000
0001
0100
0000
,
0010
0000
1000
0000
0001
0010
0001
0000
,
1000
0001
0010
0000
0011
0000
1001
0000
,
0001
0100
0010
1000
,
0100
0010
0100
0000
1000
0001
0100
0000
,
0010
1000
0001
0100
,
0000
0000
0001
0000
0000
0001
0000
0000
1000
0000
0000
1000
0000
0000
0000
0000
,
0001
0100
0001
0000
0100
0001
0000
0010
,
0000
0100
0000
0010
0001
1000
0100
1000
,
0000
0010
1000
0000
0010
1000
0000
0001
,
0000
0010
0000
0100
1000
0010
1000
0000
,
0000
0001
0010
0000
0001
0010
0000
0100
,
0000
1000
0000
0001
0100
0001
1000
0010
,
1000
0001
0100
0010
,
2000
0000
0000
3001
,
0101
0000
0100
0010
0010
0100
0100
0000
,
0001
1000
1000
0001
0001
0000
1000
0000
,
1100
0000
0100
0010
0010
0100
0100
0000
,
1000
0010
0100
0000
0001
0010
0100
0000
,
0110
0000
1000
0001
0001
0100
0100
0010
,
0010
1000
1000
0001
0001
0010
0100
1000
,
0002
0000
0103
0020
0000
0000
1030
0002
,
0000
0000
0013
0200
0000
0000
1300
0000
,
1001
0000
0001
0100
0010
0100
0010
0000
,
1000
0100
0010
0100
0010
0000
0100
0000
,
1001
0000
1000
0001
0010
0001
0010
0000
,
0100
1000
0010
0000
0100
0001
0010
0000
,
0200
0000
0000
0000
,
0320
0000
0000
0000
0000
0031
1000
0100
,
0020
0000
0031
2000
0000
3010
0100
0002
,
0000
0000
0000
0000
,
0000
0000
0000
0000
,
0003
0000
0000
0000
,
0000
0000
0000
0000
;
#NOTES:
     dance-single:
     :
     Hard:
     15:
     :
0000
0000
0000
0000
,
0000
0000
0000
0000
,
0000
0000
0000
0000
,
0000
0000
0000
0000
,
0000
0000
0000
0000
,
0000
0000
0000
0000
,
0001
0000
1000
0100
0000
1000
0010
0000
,
0100
0000
0001
0000
0100
0001
0100
0000
0001
0000
0010
0100
1000
0100
1000
0000
,
2200
0000
3300
0022
0000
0000
0033
0202
,
0000
0000
0303
2020
0000
0000
3030
0000
,
1000
0100
1000
0010
0100
0001
0010
0001
,
1000
0010
1000
0001
0010
0001
0100
0010
,
0100
0001
0010
0001
1000
0100
1000
0001
,
0100
0010
1000
0001
0100
0010
0110
0000
,
0010
1000
0010
0100
0001
0010
0001
1000
,
0100
0000
0010
0000
0100
1000
0100
0000
1000
0000
0001
1000
0001
0100
0010
0000
,
0100
0001
0010
0001
1000
0100
1000
0010
,
0100
0000
0000
0000
,
0001
0100
0101
0000
0100
0001
0100
0010
,
1000
0100
1000
0001
0100
0010
0100
0001
,
1000
0100
1100
0000
0100
1000
0100
0010
,
0001
0100
0001
1000
0010
0100
0010
0000
,
0100
0001
0100
0001
0100
0001
0100
0001
,
1000
0100
1000
0100
0010
0001
1000
0010
,
0100
0000
0000
0000
,
0101
0000
0000
1010
0000
0000
1100
0000
0000
0011
0000
0000
0110
0000
0000
0000
,
1001
0000
0000
0000
0001
0000
0100
0000
0001
0000
1000
0000
0010
0000
0100
0010
0100
0000
0010
0000
1000
0000
0001
0010
0001
0000
1000
0000
1100
0000
0000
0000
,
0110
0000
0000
0000
0100
0000
1000
0000
0100
0000
0010
0000
0001
0000
1000
0001
1000
0000
0010
0000
0100
0000
0001
0000
1000
0100
0010
0001
1000
0000
0010
0000
,
0110
0000
0000
0000
0100
0000
0001
0000
0100
0000
0010
0000
1000
0000
0001
0010
0100
0000
0010
0000
0100
0000
1000
0010
0100
0000
0010
1000
0001
0100
0010
0000
,
2020
0000
3030
0220
0000
0000
0330
0022
0000
0000
0033
2200
0000
3300
1001
0000
,
0101
0000
0000
0000
1000
0000
0001
0010
0100
0000
1000
0000
0010
0000
0100
0000
0010
0000
1000
0000
0100
0000
0010
0001
1000
0000
0010
0000
0100
0000
0000
0000
,
1010
0000
0000
0000
0001
0000
1000
0100
0010
0000
0001
0000
1000
0010
0100
0000
0001
0000
0100
0000
0010
0000
1000
0000
0001
0010
0100
1000
0001
0000
0100
0000
,
0110
0000
0000
0000
0010
0000
1000
0001
0100
0000
0001
0000
0010
0000
0100
0000
0010
0000
0001
0000
0100
0000
0001
1000
0010
0000
0100
0000
0001
0000
0000
0000
,
0022
0000
0033
0000
0001
0000
0202
0000
0303
0000
0100
0010
1000
0000
2020
0000
3030
0000
0010
0100
0001
0000
1000
0000
0001
0100
0001
0000
1000
0100
1000
0001
,
0010
0001
0010
0100
1000
0010
0100
0001
,
1000
0100
0001
0100
0010
0001
1000
0010
,
0100
0001
1000
0001
0010
1000
0010
0001
,
1000
0010
0001
0010
1000
0010
1010
0000
,
1000
0000
0100
0010
0000
0001
1000
0000
,
0010
0000
0100
0000
0010
1000
0010
0000
1000
0000
0001
0010
0100
0010
0100
0000
,
0010
0000
0001
0100
0001
1000
0010
0100
,
0001
1000
0100
1100
1000
0001
0101
0000
,
0100
0001
0100
0010
1000
0100
0010
0001
,
1000
0010
0001
0010
0100
0001
1000
0100
,
0010
0001
1000
0001
0100
1000
0100
0001
,
1000
0100
0001
0100
1000
0100
1100
0000
,
1000
0000
0010
0100
0000
0001
1000
0000
,
0100
0000
0010
0000
0100
1000
0100
0000
1000
0000
0001
0100
0010
0100
0010
0000
,
1000
0000
0001
0101
0000
1000
1100
0000
,
0001
0000
0011
0000
0000
0110
0000
0000
1100
0000
0000
1010
0000
0000
0000
0000
,
0010
0100
0001
0010
0100
1000
0000
0001
,
0010
0100
1000
0010
0100
0001
0100
0001
,
0100
0010
1000
0100
0010
0001
0000
1000
,
0100
0010
0001
0100
0010
1000
0001
0010
,
0001
1000
0010
0100
0001
0010
0000
0001
,
1000
0010
0100
0001
0010
0001
0010
0100
,
1000
0000
0010
1000
0010
0000
0100
0000
0001
0010
0001
0000
1000
0100
0010
0001
,
2000
0000
3000
0110
,
0011
0000
0000
0000
1000
0000
0010
0000
0010
0000
0100
0000
0100
0000
0001
0100
,
0001
0000
1000
0000
1000
0000
0100
0010
0100
0000
0010
0000
0001
0000
0000
0000
,
1100
0000
0000
0000
0001
0000
0100
0000
0100
0000
0010
0000
0010
0000
1000
0010
,
1000
0000
0100
0000
0010
0000
0001
0000
1000
0001
0100
0010
1000
0000
0001
0000
,
0101
0000
0000
0000
1000
0000
0010
1000
0010
0000
0100
0000
0001
0000
0010
0001
,
0010
0000
0001
1000
0001
0000
1000
0100
1000
0000
0100
0010
0001
0010
0001
0000
,
2002
3003
1000
2020
0000
3030
0010
0220
,
0000
0330
0100
0202
0000
0303
1001
0000
,
1010
0000
0000
0000
0001
0000
1000
0100
0010
0000
0100
0000
1000
0000
0010
0000
,
0100
0000
0001
0000
0010
0000
0001
0010
0100
0000
1000
0000
0001
0000
0000
0000
,
0011
0000
0000
0000
1000
0000
0001
0100
0010
0000
1000
0000
0001
0010
0100
0000
,
1000
0000
0010
0000
0100
0000
0001
0000
1000
0100
0010
0001
1000
0000
0010
0000
,
0120
0000
0000
0030
1000
0001
0000
0010
,
0200
1000
0000
1300
0100
1000
0001
0010
,
0220
0330
0100
2200
3300
0001
0100
0220
,
0000
0000
0000
0000
,
0000
0000
0000
0000
,
0330
0000
0000
0000
,
0000
0000
0000
0000
;
#NOTES:
     dance-double:
     :
     Easy:
     8:
     :
00000000
00000000
00000000
00000000
,
00000000
00000000
00000000
00000000
,
00000000
00000000
00000000
00000000
,
00000000
00000000
00000000
00000000
,
00000000
00000000
00000000
00000000
,
00000000
00000000
00000000
00000000
,
10000000
00000000
00010000
00000000
,
01000000
00001000
00010000
00000000
,
00002000
00000000
00003000
00020000
00000000
00000000
00030000
00000020
,
00000000
00000000
00000030
00002000
00000000
00000000
00003000
00000000
,
00000001
00000001
00000100
00000100
,
00001000
00010000
00001000
00000000
,
00100000
00100000
00010000
00010000
,
01000000
00100000
10000000
00000000
,
01000000
01000000
00010000
00010000
,
00001000
00000010
00000001
00000000
,
00001000
00000100
00010000
00001000
,
00011000
00000000
00000000
00000000
,
00001000
01000000
00010000
01000000
,
00010000
10000000
01000000
00100000
,
00010000
00100000
00001000
00010000
,
00001000
00000100
00000010
00000100
,
00000001
00000010
00000100
00001000
,
00000100
00010000
00001000
01000000
,
00010000
00000000
00000000
00000000
,
10000000
00000000
00000000
00100000
00000000
00000000
01100000
00000000
,
01000000
00010000
01000000
00000000
00001000
00010000
00001000
00010000
,
00000010
00001000
00000010
00000000
00000100
00000001
00000010
00000100
,
00001000
00000100
00001000
00000000
00000100
00010000
00001000
00010000
,
00002000
00000000
00003000
00200000
00000000
00000000
00300000
00020000
00000000
00000000
00030000
20000000
00000000
30000000
00010000
00000000
,
00100000
00001000
00010000
00000000
00000100
00001000
00000001
00001000
,
00000010
00010000
00001000
00000000
00100000
00010000
10000000
00100000
,
01000000
00010000
00100000
00000000
00001000
00010000
00000010
00001000
,
00000200
00000000
00000300
00000020
00000000
00000000
00000030
00000002
00000000
00000000
00000003
00002000
00000000
00000000
00003000
00000000
,
00000001
00000100
00000001
00001000
,
00000001
00000100
00001000
00010000
,
00100000
10000000
00010000
10000000
,
01000000
00010000
00001000
00000000
,
00010000
00000010
00001000
00000000
,
00000001
00000010
00000100
00000000
,
00001000
00000100
00010000
00000000
,
00011000
00000000
01100000
00000000
,
10000000
00100000
10000000
00010000
,
10000000
00100000
00010000
00001000
,
00000100
00000001
00001000
00000001
,
00000010
00001000
00010000
00000000
,
00001000
01000000
00010000
00000000
,
10000000
01000000
00100000
00000000
,
00010000
00100000
00001000
00000000
,
00011000
00000000
00000110
00000000
,
00000001
00001000
00000001
00000000
,
00000100
00001000
00010000
00000000
,
00001000
00010000
00001000
00000000
,
00010000
00100000
10000000
00000000
,
01000000
00100000
01000000
00000000
,
00100000
00001000
00010000
00000000
,
00011000
00000000
00000000
00000000
,
00020000
00000000
00000000
00030010
,
00001000
00000100
00001000
00000010
,
00000100
00000001
00001000
00000100
,
00010000
00001000
01000000
00001000
,
00010000
01000000
10000000
00000000
,
00010000
10000000
01000000
00100000
,
00010000
00001000
00000100
00000010
,
00000002
00000000
00000003
00002000
00000000
00000000
00003000
00000200
,
00000000
00000000
00000300
00020000
00000000
00000000
00031000
00000000
,
00010000
00000100
00010000
00000000
,
00001000
01000000
00001000
01000000
,
00010000
10000000
00010000
00000000
,
00100000
00001000
00010000
00000100
,
00002000
00000000
00000000
00000000
,
00003002
00000000
00000000
00000000
,
00000203
00000000
00000300
00002000
00000000
00003000
00000000
00022000
,
00000000
00000000
00000000
00000000
,
00000000
00000000
00000000
00000000
,
00033000
00000000
00000000
00000000
,
00000000
00000000
00000000
00000000
;
#NOTES:
     dance-double:
     :
     Medium:
     11:
     :
00000000
00000000
00000000
00000000
,
00000000
00000000
00000000
00000000
,
00000000
00000000
00000000
00000000
,
00000000
00000000
00000000
00000000
,
00000000
00000000
00000000
00000000
,
00000000
00000000
00000000
00000000
,
00000001
00000000
00001000
00000100
00000000
00010000
00001000
00000000
,
01000000
00010000
01000000
00000000
00100000
10000000
00100000
00000000
,
20000000
00000000
30000000
02000000
00000000
00000000
03000000
00020000
,
00000000
00000000
00030000
00002000
00000000
00000000
00003000
00000000
,
00010000
00010000
00000100
00000100
,
00001000
00000010
00001000
00000000
00000001
00000100
00000001
00000000
,
00001000
00001000
00000100
00000100
,
00010000
00001000
00100000
00000000
00010000
00000000
00110000
00000000
,
00100000
00100000
01000000
01000000
,
10000000
00010000
00100000
00000000
00001000
00010000
00000100
00000000
,
00001000
00001000
00000001
00000001
,
00000100
00000000
00000000
00000000
,
00000010
00001000
00000010
00000000
00001000
00000000
00000100
00000000
,
00010000
00001000
00010000
00000000
00001000
01000000
00010000
00000000
,
10000000
01000000
10000000
00000000
00010000
00000000
00100000
00000000
,
00001000
00010000
00001000
00000000
00010000
00000010
00001000
00000000
,
00000001
00000100
00000001
00000100
00000010
00001000
00000010
00000000
,
00010000
00001000
00010000
00001000
01000000
00010000
01000000
00000000
,
10010000
00000000
00000000
00000000
,
10000000
00000000
00000000
10000000
00000000
00000000
00100000
00000000
00000000
00100000
00000000
00000000
01100000
00000000
00000000
00000000
,
01010000
00000000
00010000
00000000
00100000
00001000
00010000
00000000
00000010
00001000
00000001
00000000
00001000
00000000
00000100
00000000
,
00010000
00000000
00001000
00000000
00100000
00010000
10000000
00000000
00100000
01000000
00010000
00000000
00100000
00001000
00010000
00000000
,
00011000
00000000
00001000
00000000
00010000
00000100
00001000
00000000
00000001
00000010
00000100
00000000
00001000
00000010
00000100
00000000
,
00000002
00000000
00000003
00000200
00000000
00000000
00000300
00002000
00000000
00000000
00003000
00020000
00000000
00030000
00011000
00000000
,
00101000
00000000
00100000
00010000
01000000
00000000
00100000
00000000
10000000
01000000
00100000
00000000
00010000
00000000
01000000
00000000
,
00001000
00000000
00010000
00000010
00001000
00000000
00000100
00000000
00000010
00000001
00000100
00000000
00000010
00001000
00000100
00000000
,
00010100
00000000
00010000
00001000
01000000
00000000
00010000
00000000
10000000
00100000
01000000
00000000
00010000
00000000
00100000
00000000
,
00002000
00000000
00013000
00000200
00000000
00001300
00000001
00000020
00000000
00000130
00001000
00000010
00010000
00001000
00010000
00000000
,
00001000
00000000
01000000
00000000
00010000
10000000
00010000
00000000
,
10000000
01000000
00100000
00000000
00010000
00100000
00001000
00000000
,
00010000
00000000
00000010
00000000
00001000
00000001
00001000
00000000
,
00000001
00000010
00000100
00000000
00000110
00000000
00001001
00000000
,
00000001
00000100
00001000
00010000
,
00100000
01000000
00100000
00000000
10000000
00010000
10000000
00000000
,
01000000
00000000
00010000
00000000
00001000
00000000
00000010
00000001
,
00000000
00000100
00000000
00000010
00001000
00000010
00001000
00000000
,
00000001
00000000
00000010
00000000
00000100
00001000
00000100
00000000
,
00010000
00001000
00100000
00000000
00010000
10000000
00100000
00000000
,
10000000
00000000
01000000
00000000
00100000
00010000
00100000
00000000
,
00001000
00010000
00000100
00000000
00001100
00000000
00001001
00000000
,
00000001
00000010
00001000
00010000
,
01000000
00100000
01000000
00000000
10000000
00100000
10000000
00000000
,
00100000
00010000
00001000
00000100
,
00000000
00000000
00000001
00000000
00000000
00000001
00000000
00000000
00001000
00000000
00000000
00001000
00000000
00000000
00000000
00000000
,
00000100
00010000
00001000
00000000
00010000
00001000
00000000
00100000
,
00000000
00010000
00000000
01000000
00100000
10000000
00100000
10000000
,
00000000
00010000
00100000
00000000
00010000
00100000
00000000
00001000
,
00000000
00010000
00000000
00000100
00001000
00000100
00001000
00000000
,
00000000
00000001
00000100
00000000
00000001
00000100
00000000
00000010
,
00000000
00001000
00000000
00000100
00010000
00001000
00010000
00001000
,
00100000
00010000
10000000
00010000
,
00200000
00000000
00000000
00301000
,
00011000
00000000
00010000
00000100
00000100
00001000
00001000
00000000
,
00000001
00000100
00000100
00000010
00000010
00000000
00001000
00000000
,
00001100
00000000
00000100
00010000
00010000
00001000
00001000
00000000
,
00100000
00010000
01000000
00000000
00100000
10000000
01000000
00000000
,
01100000
00000000
00100000
00010000
00010000
01000000
01000000
00001000
,
00001000
00010000
00010000
00000010
00000010
00001000
00000100
00000010
,
00000002
00000000
00000103
00002000
00000000
00000000
00013000
00200000
,
00000000
00000000
10300000
00020000
00000000
00000000
00130000
00000000
,
01100000
00000000
01000000
00010000
00001000
00010000
00001000
00000000
,
00000100
00000001
00001000
00000001
00001000
00000000
00000010
00000000
,
00000110
00000000
00000100
00001000
00010000
00001000
00010000
00000000
,
00001000
00100000
00010000
00000000
01000000
00100000
10000000
00000000
,
00020000
00000000
00000000
00000000
,
00230000
00000000
00000000
00000000
00000000
00301000
00010000
00000100
,
00002000
00000000
00003001
00000020
00000000
00001030
00010000
02000000
,
00000000
00000000
00000000
00000000
,
00000000
00000000
00000000
00000000
,
03000000
00000000
00000000
00000000
,
00000000
00000000
00000000
00000000
;
#NOTES:
     dance-double:
     :
     Hard:
     15:
     :
00000000
00000000
00000000
00000000
,
00000000
00000000
00000000
00000000
,
00000000
00000000
00000000
00000000
,
00000000
00000000
00000000
00000000
,
00000000
00000000
00000000
00000000
,
00000000
00000000
00000000
00000000
,
10000000
00000000
01000000
00010000
00000000
00001000
00000010
00000000
,
00000001
00000000
00001000
00000000
00000100
00001000
00000100
00000000
00010000
00000000
00001000
00010000
00001000
00000000
00100000
00000000
,
00220000
00000000
00330000
20200000
00000000
00000000
30300000
02020000
,
00000000
00000000
03030000
02002000
00000000
00000000
03003000
00000000
,
00001000
00010000
00000100
00001000
00000001
00000010
00000100
00001000
,
00000001
00000100
00001000
00010000
00100000
10000000
00100000
01000000
,
00010000
10000000
00100000
01000000
00010000
00100000
00001000
00010000
,
00001000
00000100
00000001
00000100
00000010
00001000
00001010
00000000
,
00000010
00010000
00001000
01000000
00010000
10000000
01000000
00100000
,
00010000
00000000
00100000
00000000
00001000
00010000
00001000
00000000
00010000
00000000
00000010
00001000
00000010
00000000
00000100
00000000
,
00000001
00001000
00000100
00010000
00001000
00100000
00010000
10000000
,
00100000
00000000
00000000
00000000
,
01000000
00010000
01010000
00000000
01000000
00001000
00010000
00000010
,
00001000
00000100
00001000
00000001
00000010
00000100
00000010
00000001
,
00001000
00000100
00001100
00000000
00001000
00000100
00001000
00000010
,
00010000
00001000
01000000
00010000
00100000
00010000
10000000
00000000
,
01000000
00100000
01000000
00100000
00010000
00001000
00000100
00000010
,
00000001
00001000
00000001
00001000
00000010
00000100
00001000
00010000
,
00100000
00000000
00000000
00000000
,
10100000
00000000
00000000
11000000
00000000
00000000
00110000
00000000
00000000
00011000
00000000
00000000
00001010
00000000
00000000
00000000
,
00001001
00000000
00000000
00000000
00000001
00000000
00000100
00000000
00000001
00000000
00001000
00000000
00000100
00000000
00010000
00001000
00010000
00000000
00001000
00000000
01000000
00000000
00010000
10000000
00010000
00000000
10000000
00000000
11000000
00000000
00000000
00000000
,
10010000
00000000
00000000
00000000
00010000
00000000
10000000
00000000
00010000
00000000
00100000
00000000
00001000
00000000
00010000
00001000
00010000
00000000
00000010
00000000
00001000
00000000
00000100
00000000
00000010
00000001
00001000
00000000
00000100
00000000
00010000
00000000
,
00011000
00000000
00000000
00000000
00001000
00000000
00010000
00000000
00100000
00000000
01000000
00000000
00100000
00000000
10000000
00010000
01000000
00000000
00001000
00000000
00010000
00000000
00000010
00001000
00000001
00000000
00000100
00000001
00001000
00000000
00000100
00000000
,
00020200
00000000
00030300
00022000
00000000
00000000
00033000
02002000
00000000
00000000
03003000
02020000
00000000
03030000
01100000
00000000
,
10010000
00000000
00000000
00000000
00010000
00000000
10000000
00100000
01000000
00000000
00100000
00000000
00010000
00000000
00001000
00000000
00010000
00000000
00000100
00000000
00001000
00000000
00000001
00000010
00000100
00000000
00000010
00000000
00000001
00000000
00000000
00000000
,
00001001
00000000
00000000
00000000
00001000
00000000
00000001
00000100
00000010
00000000
00000100
00000000
00001000
00000000
00010000
00000000
00001000
00000000
00010000
00000000
01000000
00000000
10000000
00000000
00010000
00100000
01000000
00000000
10000000
00000000
00010000
00000000
,
01010000
00000000
00000000
00000000
01000000
00000000
00001000
00010000
00000100
00000000
00001000
00000000
00000001
00000000
00000100
00000000
00000010
00000000
00001000
00000000
00000100
00000000
00010000
00001000
01000000
00000000
00010000
00000000
10000000
00000000
00000000
00000000
,
20020000
00000000
30030000
00000000
00010000
00000000
00220000
00000000
00330000
00000000
00100000
00001000
00010000
00000000
00022000
00000000
00033000
00000000
00001000
00010000
00000010
00000000
00001000
00000000
00000001
00000100
00000010
00000000
00001000
00000100
00010000
00000000
,
00001000
00100000
00010000
01000000
00100000
10000000
01000000
00100000
,
01000000
00010000
00001000
00000010
00000100
00000001
00000100
00001000
,
00000001
00000010
00000100
00001000
00000100
00000010
00001000
00010000
,
01000000
00100000
10000000
00100000
00010000
01000000
01010000
00000000
,
10000000
00000000
00100000
00010000
00000000
00001000
00000100
00000000
,
00000001
00000000
00001000
00000000
00000010
00001000
00000010
00000000
00010000
00000000
00001000
00010000
00001000
00000000
01000000
00000000
,
00010000
00000000
10000000
00010000
10000000
01000000
00010000
00001000
,
00000010
00000001
00000010
00000100
00000010
00000100
00001000
00000000
,
00000001
00000100
00000001
00001000
00000100
00010000
00001000
00100000
,
00001000
00010000
01000000
10000000
00100000
01000000
00100000
10000000
,
00010000
01000000
00010000
00100000
01000000
00010000
00001000
00000010
,
00000001
00000100
00001000
00010000
00100000
10000000
10100000
00000000
,
00100000
00000000
10000000
01000000
00000000
00010000
00001000
00000000
,
00000100
00000000
00000001
00000000
00000010
00000001
00000010
00000000
00000100
00000000
00001000
00000100
00001000
00000000
00000100
00000000
,
00010000
00000000
00001000
00101000
00000000
00100000
00110000
00000000
,
00010000
00000000
10010000
00000000
00000000
11000000
00000000
00000000
00110000
00000000
00000000
00101000
00000000
00000000
00000000
00000000
,
00001000
00010000
00000100
00001000
00000001
00000010
00000000
00000001
,
00000010
00000100
00001000
00000100
00010000
00001000
00010000
00001000
,
00100000
00010000
10000000
01000000
00100000
00010000
00000000
00100000
,
00001000
00010000
00000010
00001000
00000001
00000100
00000010
00001000
,
00000001
00000010
00001000
00010000
01000000
10000000
00000000
00010000
,
10000000
00100000
00010000
00001000
00000100
00000010
00000100
00000001
,
00001000
00000000
00000100
00010000
00001000
00000000
01000000
00000000
00010000
10000000
01000000
00000000
00100000
00010000
00100000
00000000
,
00002000
00000000
00003000
00011000
,
00010100
00000000
00000000
00000000
00000100
00000000
00001000
00000000
00001000
00000000
00000001
00000000
00000001
00000000
00000100
00000001
,
00000100
00000000
00000010
00000000
00000010
00000000
00001000
00000010
00001000
00000000
00000100
00000000
00010000
00000000
00000000
00000000
,
00011000
00000000
00000000
00000000
00001000
00000000
00100000
00000000
00100000
00000000
00010000
00000000
00010000
00000000
10000000
00010000
,
10000000
00000000
00100000
00000000
00010000
00000000
00001000
00000000
00010000
00000100
00001000
00000000
00000001
00000000
00000010
00000000
,
00000011
00000000
00000000
00000000
00000001
00000000
00001000
00000100
00001000
00000000
00000100
00000000
00010000
00000000
00001000
00010000
,
00001000
00000000
00100000
00010000
00100000
00000000
00010000
01000000
00010000
00000000
01000000
00100000
01000000
00000000
00100000
00000000
,
20200000
30300000
10000000
22000000
00000000
33000000
01000000
02020000
,
00000000
03030000
00010000
00022000
00000000
00033000
00010010
00000000
,
00001010
00000000
00000000
00000000
00000001
00000000
00000010
00000100
00001000
00000000
00000001
00000000
00000100
00000000
00001000
00000000
,
00010000
00000000
00001000
00000000
01000000
00000000
00010000
10000000
01000000
00000000
00100000
00000000
00010000
00000000
00000000
00000000
,
00110000
00000000
00000000
00000000
10000000
00000000
01000000
00100000
00010000
00000000
10000000
00000000
01000000
00000000
00010000
00000000
,
00001000
00000000
00010000
00000000
00000100
00000000
00001000
00000000
00000001
00001000
00000100
00000000
00010000
00000000
00001000
00000000
,
00012000
00000000
00000000
00003000
00001000
00100000
00000000
00010000
,
02000000
10000000
00000000
13000000
01000000
00100000
10000000
00010000
,
00220000
00330000
00100000
00022000
00033000
00010000
00000010
00000220
,
00000000
00000000
00000000
00000000
,
00000000
00000000
00000000
00000000
,
00000330
00000000
00000000
00000000
,
00000000
00000000
00000000
00000000
;
