
//----- song ID: carn -----//
#TITLE:CARNIVOROUS;
#ARTIST:SOUND HOLIC feat. Nana Takahashi;
#BANNER:CARNIVOROUS.png;
#BACKGROUND:CARNIVOROUS-bg.png;
#CDTITLE:./CDTitles/BeatStream AnimTribe.png;
#MUSIC:CARNIVOROUS.ogg;
#SAMPLESTART:48.883;
#SAMPLELENGTH:15;
#BPMS:0=170;
#NOTES:
     dance-single:
     :
     Beginner:
     2:
     :
0000
0000
0000
0000
,
0000
0000
0000
0000
,
0000
0000
0000
0000
,
0000
0000
0000
0000
,
0000
0000
0000
0000
,
0000
0000
0000
0000
,
1000
0000
0000
0000
,
1000
0000
0000
0000
,
0001
0000
0000
0000
,
0001
0000
0000
0000
,
1000
0000
0000
0000
,
1000
0000
1000
0000
,
1000
0000
0000
0000
,
0001
0000
0001
0000
,
0001
0000
0000
0000
,
1000
0000
0000
0000
,
0001
0000
0000
0000
,
1000
0000
0000
0000
,
0001
0000
0000
0000
,
1000
0000
0000
0000
,
1000
0000
0000
0000
,
0001
0000
0000
0000
,
0001
0000
0000
0000
,
1000
0000
0000
0000
,
0001
0000
0000
0000
,
1000
0000
1000
0000
,
1000
0000
0000
0000
,
1000
0000
0000
0000
,
0001
0000
0000
0000
,
1000
0000
1000
0000
,
0001
0000
0001
0000
,
1000
0000
0000
0000
,
0001
0000
0000
0000
,
1000
0000
0000
0000
,
1001
0000
0000
0000
,
1000
0000
1000
0000
,
1000
0000
0000
0000
,
0001
0000
0001
0000
,
0001
0000
0000
0000
,
1000
0000
0000
0000
,
0001
0000
0000
0000
,
1000
0000
0000
0000
,
0001
0000
0000
0000
,
1000
0000
1000
0000
,
1000
0000
0000
0000
,
0001
0000
0001
0000
,
0001
0000
0000
0000
,
1000
0000
0000
0000
,
0001
0000
0000
0000
,
2000
3000
0000
0000
,
0002
0003
0000
0000
,
1000
0000
1000
0000
,
1000
0000
0000
0000
,
0001
0000
0001
0000
,
0001
0000
0000
0000
,
1000
0000
0000
0000
,
0001
0000
0000
0000
,
1000
0000
0000
0000
,
0001
0000
0000
0000
,
1000
0000
1000
0000
,
1000
0000
0000
0000
,
0001
0000
0001
0000
,
0001
0000
0000
0000
,
1000
0000
1000
0000
,
0001
0000
0000
0000
,
0001
0000
0001
0000
,
1000
0000
0000
0000
,
1000
0000
0000
0000
,
1000
0000
0000
0000
,
0001
0000
0000
0000
,
0001
0000
0000
0000
,
1000
0000
1000
0000
,
0001
0000
0001
0000
,
1000
0000
0001
0000
,
1000
0000
0001
0000
,
0000
0000
0000
0000
;
#NOTES:
     dance-single:
     :
     Easy:
     6:
     :
0000
0000
0000
0000
,
0000
0000
0000
0000
,
0000
0000
0000
0000
,
0000
0000
0000
0000
,
0000
0000
0000
0000
,
0000
0000
0000
0000
,
1000
0000
1000
0000
,
0001
0000
0001
0000
,
1000
0100
0010
0001
,
0010
0100
1000
0001
,
2000
0000
0000
3000
,
1000
1000
0100
0000
,
0100
0100
0010
0000
,
0010
0010
0001
0000
,
0001
0001
1000
0000
,
0001
0001
0100
0000
,
0100
0100
0010
0000
,
0010
0010
1000
0000
,
1000
1000
0001
1000
,
0200
0000
0300
0000
,
0020
0000
0030
0000
,
0002
0000
0003
0000
,
2000
0000
3000
0000
,
0001
0001
0010
0001
,
1000
1000
0010
1000
,
0001
0000
1000
0000
,
1001
0000
0000
0000
,
1000
1000
0001
0100
,
0010
0010
0100
0001
,
1000
0001
1001
0000
,
0001
1000
1001
0000
,
0001
0001
1000
0100
,
0010
0010
0100
1000
,
0001
1000
0001
1000
,
1001
0000
0000
0000
,
1000
0100
1000
0000
,
0001
0100
0001
0000
,
1000
1000
0001
0001
,
1000
0001
1001
0000
,
0001
0100
0001
0000
,
1000
0100
1000
0000
,
0020
0030
0200
0300
,
0001
1000
1001
0000
,
0001
0010
0001
0000
,
1000
0010
1000
0000
,
0001
0001
1000
1000
,
0001
1000
1001
0000
,
1000
0010
1000
0000
,
0001
0010
0001
0000
,
0200
0000
0300
0000
,
0020
0000
0030
0000
,
1000
1000
1000
0000
,
0001
0001
0001
0000
,
2000
3000
0200
0300
,
0020
0030
0002
0003
,
0001
0001
0001
0000
,
1000
1000
1000
0000
,
0002
0003
0200
0300
,
0020
0030
0010
1001
,
1000
1000
0100
0000
,
0100
0100
0010
0000
,
0010
0010
0001
0000
,
0001
0001
1000
0000
,
0001
0001
0100
0000
,
0100
0100
0010
0000
,
0010
0000
1000
0000
,
0001
0000
0100
0000
,
0020
0000
0030
0000
,
0200
0000
0300
0000
,
0002
0000
0003
0000
,
2000
0000
3000
0000
,
0001
0001
0010
0010
,
0100
0100
1000
1000
,
0001
0010
0001
1000
,
0010
0100
0001
1000
,
0000
0000
0000
0000
;
#NOTES:
     dance-single:
     :
     Medium:
     11:
     :
0000
0000
0000
0000
,
0000
0000
0000
0000
,
0000
0000
0000
0000
,
0000
0000
0000
0000
,
0000
0000
0000
0000
,
0000
0000
0000
0000
0000
1000
0001
1000
,
0001
0000
0020
0000
0000
0000
0000
0000
0030
0000
0001
0000
0010
0000
0001
1000
,
0000
0001
0010
0002
0000
0000
0003
0000
,
1000
1000
0001
0001
,
0010
0000
0010
0000
0100
0010
0000
0001
,
0000
2000
0000
0000
0000
0000
3010
0000
,
0010
1000
0100
0000
0010
0000
0010
0000
,
0000
0001
0010
0100
0010
0001
0100
0000
,
0100
0001
1000
0000
0100
0000
0100
0000
,
0000
1000
0100
0010
0100
1000
0010
0000
,
1000
0000
0001
0000
0100
0000
0000
0000
0010
0000
0000
1000
0000
0000
0001
0000
,
0000
1000
0100
0010
0001
0010
0100
0000
,
1000
0000
0001
0000
0100
0000
0000
0000
0010
0000
0000
1000
0000
0000
0001
0000
,
0000
1000
0010
0100
0001
0100
0010
2000
,
0000
0000
0001
0000
3010
1000
0000
0010
,
0000
1000
0000
0001
0000
0100
0000
0002
,
0000
0000
1000
0000
0013
0001
0000
0100
,
0000
0001
0000
1000
0000
0100
0010
0000
,
0002
0000
1003
0200
0000
0310
0001
0020
,
0000
0000
0030
0001
0100
0020
0000
2030
,
0000
3010
0100
0002
0000
0013
0100
2000
,
0000
0000
0000
0000
3000
0000
0001
0100
,
2000
0000
3200
0000
0320
0000
1030
0200
,
0000
0310
0001
0010
0200
0000
0300
0000
,
1010
0000
0101
0000
1001
0000
0000
0110
,
0000
0001
1000
0000
1001
0000
0000
0000
,
2000
0000
3100
0010
0200
0000
0300
0020
,
0000
0031
0010
0100
2000
0000
3001
0200
,
0000
0320
0000
2030
0000
3010
0100
0010
,
0100
0000
0001
1001
0000
0000
0000
0000
,
1000
0100
1000
0100
1000
0000
0000
0000
,
0001
0100
0001
0100
0001
0000
0000
0000
,
1000
0100
1000
0000
0100
0010
0100
0000
,
0010
0001
1000
0001
0000
0010
0001
0100
,
2000
0000
3200
0000
,
0302
0000
0000
0000
0023
0000
0000
0030
,
0001
0001
1000
1000
,
0010
0100
0010
0100
0000
0000
0110
0000
,
0001
0010
0001
0010
0001
0000
0000
0000
,
1000
0010
1000
0010
1000
0000
0000
0000
,
0001
0100
0001
0000
0100
0010
0100
0000
,
0010
1000
0001
1000
0000
0010
1000
0100
,
0002
0000
0203
0000
,
2300
0000
0000
0000
3020
0000
0000
0030
,
2000
0000
3001
0000
,
0002
0000
1003
0000
,
1000
0000
0000
0000
0001
0000
0000
0000
0010
0000
0000
0010
0000
0000
0001
0000
,
0000
0000
0000
0000
1000
0000
0000
0000
0010
0000
0000
0010
0000
0000
1000
0000
,
0000
0001
0100
0001
0020
0000
0000
0031
,
0000
1000
0100
1000
0020
0000
0000
0130
,
0000
0000
0000
0000
0010
0000
0000
0000
1000
0000
0000
1000
0000
0000
0010
0000
,
0000
0000
0000
0000
0100
0000
0000
0000
0001
0000
0000
0001
0000
0000
1000
0000
,
0000
0100
1000
0100
0010
0001
0010
0200
,
0000
0000
0000
0300
0000
0000
1001
0000
,
1000
0010
0100
0000
0010
0000
0010
0000
,
0000
1000
0010
0001
0010
1000
0100
0000
,
0100
1000
0001
0000
0100
0000
0100
0000
,
0000
0001
0100
1000
0100
0001
0010
0000
,
0001
0000
0001
0000
0100
0000
0000
0000
0010
0000
0000
1000
0000
0000
0001
0000
,
0000
1000
0010
0100
0001
0100
0010
0000
,
1000
0000
1000
0000
0100
0000
0000
0000
0010
0000
0000
0001
0000
0000
1000
0000
,
0001
0100
0010
1000
0001
0100
0010
0000
,
2000
0001
0100
3001
,
0002
0010
1000
0013
,
0020
0100
0001
0130
,
0200
0010
1000
0310
,
0001
0100
0001
0000
0100
0000
0010
1000
,
0010
1000
0100
0000
0010
0000
0100
1000
,
0100
1000
0001
0000
0100
0000
0010
1000
,
0010
1000
0100
0000
0010
0000
0100
1000
,
0000
0000
0000
0000
;
#NOTES:
     dance-single:
     :
     Hard:
     15:
     :
0000
0000
0000
0000
,
0000
0000
0000
0000
,
0000
0000
0000
0000
,
0000
0000
0000
0000
,
0000
0000
0000
0000
,
0000
0000
0000
0000
0000
1000
0001
0010
,
0001
0000
0100
0000
0001
0000
0100
0000
0010
0000
1000
0000
0010
0000
1000
0100
,
1000
0000
0001
0000
0010
0000
0001
0100
0001
0000
1000
0000
0100
0000
0000
0000
,
1000
0100
1000
0000
0100
0010
0100
0000
0010
0001
0010
0000
0001
0100
0001
0000
,
0100
0010
0100
0010
1000
0100
1000
0100
0010
0001
0010
0000
0000
0000
0010
0000
,
0000
0000
0200
0000
0000
0000
0000
0000
0000
0000
0300
0000
2002
3003
0000
0000
,
1000
0000
0100
0000
1000
0000
0000
0000
0001
0000
0000
0100
0000
0000
0001
0000
,
0000
0000
1000
0000
0100
0000
0001
0000
1000
0000
0010
0001
0000
1000
0001
0000
,
1000
0000
0010
0000
1000
0000
0000
0000
0001
0000
0000
0010
0000
0000
0001
0000
,
0000
0000
0001
0000
0010
0000
1000
0000
0010
0100
0010
0100
0010
0001
0010
0000
,
0001
0000
0100
0000
0001
0000
0000
0000
1000
0000
0000
0100
0000
0000
1000
0000
,
0000
0000
0001
0000
0100
0000
1000
0000
0001
0000
0010
1000
0000
0001
1000
0000
,
0001
0000
0010
0000
0001
0000
0000
0000
1000
0000
0000
0010
0000
0000
1000
0000
,
0000
0000
0001
0000
0100
0000
1000
0000
0100
0000
0010
0000
0100
0010
1000
0000
,
0001
0100
0001
0000
1000
0100
0000
1000
,
0000
0001
0000
0100
0000
0010
0000
1000
,
0000
0000
0100
0010
0001
0000
0000
0000
0010
0000
0100
0000
0000
0000
0010
0000
,
0000
0001
0000
0100
0000
0010
0000
1000
,
0000
0000
0010
0100
0001
0000
0000
0000
0100
0000
0010
0000
0000
0000
1000
0000
,
0000
0010
0000
0100
0000
0001
0000
0000
,
1000
0100
0010
0000
0001
0010
0100
0000
1000
0010
0100
0000
0001
0000
1001
0000
,
0000
0000
0110
0000
0110
0000
1001
0000
0000
0000
0001
0000
1000
0100
1000
0100
,
2000
0100
0010
0001
,
3002
0100
0010
1003
,
2200
3300
0022
0033
2000
3010
0200
0301
,
0000
0110
0110
0000
2002
0000
0000
3003
,
1000
0100
1000
0100
1000
0010
0001
0010
,
1000
0100
0001
0100
1000
0000
0001
0011
,
0000
0000
0110
0000
0000
0000
0001
0000
1000
0001
1000
0001
1000
0001
1000
0000
,
1001
0000
0110
1001
0000
1000
0001
0000
,
1000
0000
0001
0000
1000
0100
1000
0000
0001
0010
0001
0000
1000
0100
0010
0001
,
0000
0000
1000
0000
0001
0000
1000
0001
2000
0000
0000
0000
0001
0000
3001
0000
,
0000
0000
0000
0000
0110
0000
0000
0000
1001
0000
0000
0002
0000
0000
2003
0000
,
0020
3000
0000
0000
0030
0000
1001
0000
0000
0000
1000
0100
1000
0000
0001
0000
,
0010
0000
0100
0020
0000
0000
0000
0000
0031
0000
1000
0000
0100
0000
0001
0100
,
0000
1000
0100
0020
0000
0000
0031
0000
,
0001
0010
0001
0000
0100
0000
0010
0000
1000
0100
1000
0000
0010
0000
0100
0000
,
0001
0010
0001
0000
1000
0100
1000
0000
0001
0010
0100
1000
0100
0010
0001
0000
,
1000
0000
0001
0000
1000
0010
1000
0000
0001
0100
0001
0000
1000
0010
0100
0001
,
0000
0000
1000
0000
0001
0000
1000
0001
2000
0000
0000
0000
0001
0000
3001
0000
,
0000
0000
0000
0000
0110
0000
0000
0000
1001
0000
0000
0002
0000
0000
2003
0000
,
0200
3000
0000
0000
0300
0000
1001
0000
0000
0000
1000
0100
1000
0000
0001
0000
,
0010
0000
0100
0020
0000
0000
0000
0000
0031
0000
1000
0000
0100
0000
0001
0100
,
0000
0000
1000
0000
0100
0000
0020
0000
0000
0000
0000
0000
0130
0000
1000
0002
,
0000
0000
0000
0000
0103
0000
1000
0000
0100
0010
0100
0000
0010
0000
0100
0000
,
0001
0010
0001
0000
1000
0100
1000
0000
0001
0010
0100
1000
0100
0010
0001
0000
,
1000
0000
0010
0000
0001
0000
0010
0000
1000
0000
0000
0100
0000
0000
0001
0000
,
0000
0000
0100
0000
1000
0000
0100
0000
0010
0000
0000
0001
0000
0000
1000
0000
,
0000
0000
0001
0000
0100
0000
0001
0000
0100
0000
0000
0010
0000
0000
0100
0000
,
0001
0000
1000
0000
0010
0100
0010
0000
1000
0000
0000
1000
0000
0000
1000
0000
,
0000
0000
0100
0000
0001
0000
0100
0000
1000
0000
0000
0010
0000
0000
0001
0000
,
0000
0000
0010
0000
0100
0000
0010
0000
1000
0000
0000
0010
0000
0000
0001
0000
,
0000
0010
0100
1000
0100
0010
1000
0002
,
0000
0000
0000
0000
0000
0000
0003
0000
0000
0010
0001
0010
0001
0000
0000
0000
,
1000
0000
0100
0000
1000
0000
0000
0000
0001
0000
0000
0100
0000
0000
0001
0000
,
0000
0000
1000
0000
0100
0000
0001
0000
1000
0000
0010
0001
0000
1000
0001
0000
,
1000
0000
0010
0000
1000
0000
0000
0000
0001
0000
0000
0010
0000
0000
0001
0000
,
0000
0000
0001
0000
0010
0000
1000
0000
0010
0100
0010
0100
0010
0001
0010
0000
,
0001
0000
0100
0000
0001
0000
0000
0000
1000
0000
0000
0100
0000
0000
1000
0000
,
0000
0000
0001
0000
0100
0000
1000
0000
0001
0000
0010
1000
0000
0001
1000
0000
,
0001
0000
0010
0000
0001
0000
0000
0000
1000
0000
0000
0010
0000
0000
1000
0000
,
1000
0100
1000
0100
0010
0001
0010
0001
1000
0100
1000
0100
0010
0000
0000
0000
,
0001
0100
0001
0000
0100
0000
0010
1000
,
0010
1000
0100
0000
0010
0000
0100
0010
,
0100
0010
0001
0000
1000
0000
0100
0010
,
0100
0010
0001
0000
1000
0000
0100
1000
,
0001
0010
0001
1000
0100
1000
0100
0010
0100
0010
0001
0010
,
0001
0100
0001
1000
0010
1000
0010
0100
0010
0100
0001
0100
,
0001
0100
0010
1000
0100
0010
0001
0010
0100
1000
0010
0100
,
0010
0100
0001
0010
0100
1000
0001
0100
0010
1000
0010
0001
,
0000
0000
0000
0000
;
#NOTES:
     dance-double:
     :
     Easy:
     6:
     :
00000000
00000000
00000000
00000000
,
00000000
00000000
00000000
00000000
,
00000000
00000000
00000000
00000000
,
00000000
00000000
00000000
00000000
,
00000000
00000000
00000000
00000000
,
00000000
00000000
00000000
00000000
,
10000000
00000000
01000000
00000000
,
00010000
00000000
00001000
00000000
,
00020000
00000000
00030000
00001000
,
00000020
00000000
00000030
00000001
,
00002000
00000000
00000000
00003000
,
00000001
00000001
00001000
00000000
,
00001000
00001000
00000001
00000000
,
00001000
00000100
00010000
00000000
,
00001000
00100000
00010000
00000000
,
10000000
10000000
00010000
00000000
,
00010000
00010000
10000000
00000000
,
00010000
01000000
00001000
00000000
,
00010000
00000010
00001000
00000000
,
00000002
00000000
00000003
00000000
,
00000200
00000000
00000300
00000000
,
00002000
00000000
00003000
00000000
,
00020000
00000000
00030000
00000000
,
00000010
00000010
00010000
00001000
,
00100000
00100000
00001000
00010000
,
00000100
00000000
00010000
00000000
,
00011000
00000000
00000000
00000000
,
00001000
00001000
00100000
00001000
,
00010000
00010000
00000010
00010000
,
00001000
00010000
00011000
00000000
,
00000010
00000100
00001001
00000000
,
00000001
00000001
00000100
00001000
,
00010000
00010000
00100000
10000000
,
01000000
10000000
00010000
10000000
,
10010000
00000000
00000000
00000000
,
10000000
01000000
10000000
00000000
,
00010000
01000000
00010000
00000000
,
00100000
00001000
00010000
00000100
,
00000010
00000001
00001001
00000000
,
00001000
00000100
00010000
00000000
,
00001000
00100000
00010000
00000000
,
00200000
00300000
00002000
00003000
,
00010000
00000100
00001100
00000000
,
00000001
00000100
00000001
00000000
,
00001000
00000100
00001000
00000000
,
00000010
00010000
00001000
01000000
,
00100000
10000000
10010000
00000000
,
00010000
01000000
00001000
00000000
,
00010000
00000010
00001000
00000000
,
00000020
00000000
00000030
00000000
,
00000200
00000000
00000300
00000000
,
00000001
00000010
00000001
00000000
,
00001000
00000010
00001000
00000000
,
00000020
00000030
00002000
00003000
,
00020000
00030000
02000000
03000000
,
00010000
00100000
00010000
00000000
,
10000000
00100000
10000000
00000000
,
02000000
03000000
00020000
00030000
,
00002000
00003000
00000010
00001001
,
00000001
00000001
00001000
00000000
,
00001000
00001000
00000001
00000000
,
00001000
00000100
00010000
00000000
,
00001000
00100000
00010000
00000000
,
10000000
10000000
00010000
00000000
,
00010000
00010000
10000000
00000000
,
00010000
01000000
00001000
00000000
,
00010000
00000010
00001000
00000000
,
00000002
00000000
00000003
00000000
,
00000200
00000000
00000300
00000000
,
00002000
00000000
00003000
00000000
,
00020000
00000000
00030000
00000000
,
00100000
00100000
10000000
10000000
,
01000000
01000000
00010000
00010000
,
00001000
00001000
00000100
00000100
,
00000010
00000100
00000001
00001000
,
00000000
00000000
00000000
00000000
;
#NOTES:
     dance-double:
     :
     Medium:
     11:
     :
00000000
00000000
00000000
00000000
,
00000000
00000000
00000000
00000000
,
00000000
00000000
00000000
00000000
,
00000000
00000000
00000000
00000000
,
00000000
00000000
00000000
00000000
,
00000000
00000000
00000000
00000000
00000000
00000001
00001000
00000001
,
00001000
00000000
00000020
00000000
00000000
00000000
00000000
00000000
00000030
00000000
00001000
00000000
00000001
00000000
00001000
00000100
,
00000000
00010000
00001000
00020000
00000000
00000000
00030000
00000000
,
00001000
00001000
00010000
00010000
,
00100000
00000000
00100000
00000000
10000000
01000000
00000000
10000000
,
00000000
00020000
00000000
00000000
00000000
00000000
10030000
00000000
,
00010000
10000000
01000000
00000000
00100000
00000000
00100000
00000000
,
00000000
00001000
00010000
01000000
00010000
00001000
00000010
00000000
,
00000001
00001000
00000010
00000000
00000100
00000000
00000100
00000000
,
00000000
00000010
00001000
00010000
00001000
00000010
00001000
00000000
,
00000100
00000000
00010000
00000000
00001000
00000000
00000000
00000000
00100000
00000000
00000000
00010000
00000000
00000000
10000000
00000000
,
00000000
10000000
01000000
00100000
00010000
00001000
00000100
00000000
,
00010000
00000000
00000100
00000000
00001000
00000000
00000000
00000000
00000010
00000000
00000000
00001000
00000000
00000000
00000001
00000000
,
00000000
00000001
00000010
00000100
00001000
00010000
00100000
00020000
,
00000000
00000000
00100000
00000000
01030000
00010000
00000000
00100000
,
00000000
00001000
00000000
00010000
00000000
00000100
00000000
00002000
,
00000000
00000000
00000010
00000000
00003100
00001000
00000000
00000010
,
00000000
00010000
00000000
00001000
00000000
01000000
00100000
00000000
,
20000000
00000000
30010000
00200000
00000000
00301000
00010000
00002000
,
00000000
00000000
00003000
00000010
00000100
00002000
00000000
00003020
,
00000000
00010030
00001000
00200000
00000000
00301000
00010000
00000200
,
00000000
00000000
00000000
00000000
00000300
00000000
00001000
00010000
,
00200000
00000000
02300000
00000000
23000000
00000000
30010000
02000000
,
00000000
03100000
00010000
00001000
00000200
00000000
00000300
00000000
,
00000101
00000000
00001001
00000000
00001010
00000000
00000000
00010010
,
00000000
00010000
00001000
00000000
00011000
00000000
00000000
00000000
,
00002000
00000000
00003020
00000000
00000032
00000000
00001003
00000020
,
00000000
00000130
00001000
00010000
00200000
00000000
10300000
00020000
,
00000000
02030000
00000000
03002000
00000000
00103000
01000000
00100000
,
00001000
00000000
00010000
00011000
00000000
00000000
00000000
00000000
,
00010000
00000100
00010000
00000100
00010000
00000000
00000000
00000000
,
00001000
01000000
00001000
01000000
00001000
00000000
00000000
00000000
,
00100000
00010000
00100000
00000000
01000000
10000000
01000000
00000000
,
00100000
00001000
00010000
00001000
00000000
00000010
00000100
00000010
,
00000002
00000000
00000203
00000000
,
00002300
00000000
00000000
00000000
00023000
00000000
00000000
00030000
,
00001000
00001000
01000000
01000000
,
00010000
00100000
00001000
00100000
00000000
00000000
00101000
00000000
,
00001000
01000000
00001000
01000000
00001000
00000000
00000000
00000000
,
00010000
00000100
00010000
00000100
00010000
00000000
00000000
00000000
,
00000010
00001000
00000010
00000000
00000100
00000001
00000100
00000000
,
00000010
00010000
00001000
00010000
00000000
00100000
01000000
00100000
,
20000000
00000000
32000000
00000000
,
03020000
00000000
00000000
00000000
00032000
00000000
00000000
00003000
,
00000020
00000000
00000031
00000000
,
00000002
00000000
00001003
00000000
,
00000001
00000000
00000000
00000000
00001000
00000000
00000000
00000000
00000010
00000000
00000000
00000010
00000000
00000000
00010000
00000000
,
00000000
00000000
00000000
00000000
00001000
00000000
00000000
00000000
00100000
00000000
00000000
00100000
00000000
00000000
00010000
00000000
,
00000000
10000000
01000000
00010000
02000000
00000000
00000000
13000000
,
00000000
00010000
01000000
10000000
02000000
00000000
00000000
03010000
,
00000000
00000000
00000000
00000000
00010000
00000000
00000000
00000000
00100000
00000000
00000000
00100000
00000000
00000000
00001000
00000000
,
00000000
00000000
00000000
00000000
00010000
00000000
00000000
00000000
00000010
00000000
00000000
00000010
00000000
00000000
00001000
00000000
,
00000000
00000001
00000100
00001000
00000100
00000001
00001000
00000200
,
00000000
00000000
00000000
00000300
00000000
00000000
00001001
00000000
,
00001000
00000001
00000100
00000000
00000010
00000000
00000010
00000000
,
00000000
00010000
00001000
00000100
00001000
00010000
00100000
00000000
,
10000000
00010000
00100000
00000000
01000000
00000000
01000000
00000000
,
00000000
00100000
00010000
00001000
00010000
00100000
00010000
00000000
,
01000000
00000000
00001000
00000000
00010000
00000000
00000000
00000000
00000010
00000000
00000000
00001000
00000000
00000000
00000001
00000000
,
00000000
00000001
00000100
00000010
00001000
00010000
01000000
00000000
,
00001000
00000000
01000000
00000000
00010000
00000000
00000000
00000000
00100000
00000000
00000000
00010000
00000000
00000000
10000000
00000000
,
00000000
10000000
01000000
00100000
00010000
00001000
00000100
00000000
,
00000200
00000010
00001000
00010300
,
00020000
00000100
00000010
00031000
,
00002000
00010000
00100000
01003000
,
02000000
00100000
10000000
03010000
,
00010000
01000000
00010000
00000000
00100000
00000000
00001000
00010000
,
00001000
00000010
00000100
00000000
00001000
00000000
00000010
00000100
,
00000010
00010000
00001000
00000000
00100000
00000000
00010000
01000000
,
00010000
00100000
01000000
00000000
10000000
00000000
00100000
10000000
,
00000000
00000000
00000000
00000000
;
#NOTES:
     dance-double:
     :
     Hard:
     15:
     :
00000000
00000000
00000000
00000000
,
00000000
00000000
00000000
00000000
,
00000000
00000000
00000000
00000000
,
00000000
00000000
00000000
00000000
,
00000000
00000000
00000000
00000000
,
00000000
00000000
00000000
00000000
00000000
10000000
00100000
01000000
,
00001000
00000000
00010000
00000000
00001000
00000000
00010000
00000000
00000100
00000000
00001000
00000000
00000001
00000000
00001000
00000100
,
00001000
00000000
00000100
00000000
00010000
00000000
00001000
00010000
00001000
00000000
01000000
00000000
00010000
00000000
00000000
00000000
,
10000000
01000000
10000000
00000000
01000000
00100000
01000000
00000000
00100000
00010000
00100000
00000000
00001000
00010000
00001000
00000000
,
00010000
00000100
00010000
00000000
00000010
00001000
00000010
00000000
00000100
00000010
00000100
00000010
00000100
00000000
00000001
00000000
,
00000000
00002000
00000000
00000000
00000000
00003000
00001001
00000000
,
00000001
00000000
00000100
00000000
00000001
00000000
00000000
00000000
00001000
00000000
00000000
00000100
00000000
00000000
00001000
00000000
,
00000000
00000000
00000001
00000000
00000100
00000000
00001000
00000000
00010000
00000000
00100000
01000000
00000000
00100000
10000000
00000000
,
00010000
00000000
00100000
00000000
00010000
00000000
00000000
00000000
10000000
00000000
00000000
00100000
00000000
00000000
10000000
00000000
,
00000000
00000000
00010000
00000000
00100000
00000000
00001000
00000000
00100000
00010000
00100000
00000000
00001000
00010000
00001000
00000000
,
00010000
00000000
00001000
00000000
00100000
00000000
00000000
00000000
00010000
00000000
00000000
01000000
00000000
00000000
00010000
00000000
,
00000000
00000000
10000000
00000000
01000000
00000000
00010000
00000000
00001000
00000000
00000010
00000100
00000000
00000010
00000001
00000000
,
00001000
00000000
00000100
00000000
00001000
00000000
00000000
00000000
00000001
00000000
00000000
00000100
00000000
00000000
00000001
00000000
,
00000000
00000000
00001000
00000000
00000010
00000000
00000100
00000000
00001000
00000000
00010000
00000000
00100000
01000000
00100000
00000000
,
10000000
01000000
00010000
00000000
00001000
00000100
00000000
00000001
,
00000000
00001000
00000000
00000010
00000000
00001000
00000000
00010000
,
00000000
00000000
01000000
00100000
01000000
00000000
00000000
00000000
00010000
00000000
00001000
00000000
00000000
00000000
00000010
00000000
,
00000000
00001000
00000000
00010000
00000000
01000000
00000000
00010000
,
00000000
00000000
10000000
00100000
10000000
00000000
00000000
00000000
01000000
00000000
00100000
00000000
00000000
00000000
00001000
00000000
,
00000000
00010000
00000000
00000100
00000000
00000010
00000000
00000000
,
00000001
00000010
00000100
00000000
00001000
00000100
00010000
00000000
00001000
00010000
01000000
00000000
00100000
00000000
00010000
00000000
,
00000000
00000000
00100000
00000000
01000000
00000000
10010000
00000000
00000000
00000000
10000000
00000000
00100000
10000000
00100000
10000000
,
02000000
00100000
10000000
00010000
,
03020000
00001000
00000010
00030100
,
00002200
00003300
00022000
00033000
00020000
00130000
02000000
13000000
,
00000000
01100000
01100000
00000000
20020000
00000000
00000000
30030000
,
10000000
01000000
00010000
00001000
00000010
00000001
00000010
00000001
,
00000100
00001000
00010000
00100000
10000000
01000000
10000000
01000000
,
00000000
00000000
01100000
00000000
00000000
00000000
00110000
00000000
00010000
00100000
00001000
00000000
00010000
00001000
00010000
00000100
,
00001000
00000000
00001100
00000110
00000000
00000100
00000010
00000000
,
00000001
00000000
00000010
00000000
00000100
00000010
00000100
00000000
00001000
00000100
00001000
00000000
00000100
00000010
00000001
00000010
,
00000000
00000000
00000100
00000000
00010000
00000000
00001000
00010000
00002000
00000000
00000000
00000000
00010000
00000000
00013000
00000000
,
00000000
00000000
00000000
00000000
00101000
00000000
00000000
00000000
01100000
00000000
00000000
20000000
00000000
00000000
32000000
00000000
,
00200000
03000000
00000000
00000000
00300000
00000000
00110000
00000000
00000000
00000000
00100000
00001000
00010000
00000000
00001000
00000000
,
00000100
00000000
00000010
00000200
00000000
00000000
00000000
00000000
00000301
00000000
00001000
00000000
00000100
00000000
00010000
00001000
,
00000000
00010000
00100000
20000000
00000000
00000000
30000000
00000000
,
01000000
10000000
01000000
00000000
00100000
00000000
00001000
00000000
00010000
00001000
00010000
00000000
00001000
00000000
00000010
00000000
,
00000001
00000010
00000001
00000000
00001000
00000100
00010000
00000000
00001000
00010000
00001000
00100000
00010000
00100000
00010000
00000000
,
10000000
00000000
00100000
00000000
01000000
00100000
01000000
00000000
00010000
01000000
00010000
00000000
00100000
00001000
00010000
00000100
,
00000000
00000000
00001000
00000000
00000001
00000000
00000010
00000100
00000020
00000000
00000000
00000000
00000001
00000000
00000031
00000000
,
00000000
00000000
00000000
00000000
00000011
00000000
00000000
00000000
00001100
00000000
00000000
00002000
00000000
00000000
00003020
00000000
,
00020000
00000030
00000000
00000000
00030000
00000000
00011000
00000000
00000000
00000000
00001000
00010000
00001000
00000000
00010000
00000000
,
00100000
00000000
01000000
00200000
00000000
00000000
00000000
00000000
10300000
00000000
00010000
00000000
01000000
00000000
10000000
01000000
,
00000000
00000000
00010000
00000000
00100000
00000000
00002000
00000000
00000000
00000000
00000000
00000000
00013000
00000000
00000100
00000020
,
00000000
00000000
00000000
00000000
00000031
00000000
00001000
00000000
00000010
00000100
00000010
00000000
00001000
00000000
00000100
00000000
,
00010000
00001000
00010000
00000000
00100000
01000000
00100000
00000000
00010000
00100000
01000000
00100000
00010000
00001000
00010000
00000000
,
00001000
00000000
00000010
00000000
00000100
00000000
00000010
00000000
00001000
00000000
00000000
00001000
00000000
00000000
00010000
00000000
,
00000000
00000000
00100000
00000000
01000000
00000000
00100000
00000000
00010000
00000000
00000000
00010000
00000000
00000000
00001000
00000000
,
00000000
00000000
00000010
00000000
00000001
00000000
00000100
00000000
00000010
00000000
00000000
00001000
00000000
00000000
00000100
00000000
,
00010000
00000000
00001000
00000000
00100000
00010000
00100000
00000000
01000000
00000000
00000000
01000000
00000000
00000000
01000000
00000000
,
00000000
00000000
10000000
00000000
01000000
00000000
00010000
00000000
00001000
00000000
00000000
00000010
00000000
00000000
00000001
00000000
,
00000000
00000000
00000001
00000000
00000100
00000000
00001000
00000000
00010000
00000000
00000000
00100000
00000000
00000000
10000000
00000000
,
00000000
00100000
00010000
00001000
00100000
00010000
00001000
00000200
,
00000000
00000000
00000000
00000000
00000000
00000000
00000300
00000000
00000000
00000010
00000001
00000010
00000001
00000000
00000000
00000000
,
00000001
00000000
00000100
00000000
00000001
00000000
00000000
00000000
00001000
00000000
00000000
00000100
00000000
00000000
00001000
00000000
,
00000000
00000000
00000001
00000000
00000100
00000000
00001000
00000000
00010000
00000000
00100000
01000000
00000000
00100000
10000000
00000000
,
00010000
00000000
00100000
00000000
00010000
00000000
00000000
00000000
10000000
00000000
00000000
00100000
00000000
00000000
10000000
00000000
,
00000000
00000000
00010000
00000000
00100000
00000000
00001000
00000000
00100000
00010000
00100000
00000000
00001000
00010000
00001000
00000000
,
00010000
00000000
00001000
00000000
00100000
00000000
00000000
00000000
00010000
00000000
00000000
01000000
00000000
00000000
00010000
00000000
,
00000000
00000000
10000000
00000000
01000000
00000000
00010000
00000000
00001000
00000000
00000010
00000100
00000000
00000010
00000001
00000000
,
00001000
00000000
00000100
00000000
00001000
00000000
00000000
00000000
00000001
00000000
00000000
00000100
00000000
00000000
00000001
00000000
,
00001000
00000100
00001000
00000100
00010000
00001000
00010000
00001000
00100000
00010000
00100000
00010000
00100000
00000000
00000000
00000000
,
00010000
01000000
10000000
00000000
01000000
00000000
00100000
10000000
,
01000000
00010000
00001000
00000000
00000010
00000000
00001000
00000010
,
00000001
00000100
00000010
00000000
00001000
00000000
00000010
00001000
,
00010000
01000000
00010000
00000000
10000000
00000000
00100000
10000000
,
00010000
00100000
00010000
10000000
01000000
10000000
00010000
00100000
00010000
01000000
00001000
01000000
,
00001000
00100000
00001000
00010000
00000100
00010000
00000010
00001000
00000010
00000100
00000001
00000100
,
00000001
00000010
00000001
00000100
00001000
00000100
00000001
00001000
00000100
00010000
00001000
00010000
,
00000010
00001000
00000001
00000010
00000100
00001000
00010000
00100000
01000000
10000000
01000000
00010000
,
00000000
00000000
00000000
00000000
;
