
//----- song ID: byos -----//
#TITLE:秒針を噛む;
#TITLETRANSLIT:Byoushin wo kamu;
#BANNER:Byoushin wo kamu.png;
#BACKGROUND:Byoushin wo kamu-bg.png;
#CDTITLE:./CDTitles/DDR GRAND PRIX.png;
#MUSIC:Byoushin wo kamu.ogg;
#SAMPLESTART:76.385;
#SAMPLELENGTH:15;
#BPMS:0=130;
#NOTES:
     dance-single:
     :
     Beginner:
     3:
     :
0000
0000
0000
0000
,
0000
0000
0000
0000
,
0000
0000
0000
0000
,
0000
0000
0000
0000
,
0000
0000
0000
0000
,
0001
0000
0000
0000
,
0010
0000
0001
0000
,
1000
0000
1000
1000
,
0000
0000
0000
0001
,
0001
0000
0001
0000
,
1000
0000
1000
0000
,
0010
0000
0010
0000
,
1000
0000
1000
0000
,
0001
0000
0001
0000
,
1000
0000
1000
0000
,
0010
0000
0010
0000
,
1000
0000
0000
0000
,
0002
0000
0003
0000
,
0001
0000
0010
0000
,
0001
0000
1000
1000
,
0000
0000
0000
0000
,
2000
0000
3000
0000
,
1000
0000
1000
0000
,
0100
0000
0010
0000
,
0001
0000
0000
0000
,
0020
0000
0030
0000
,
0010
0000
0001
0000
,
1000
0000
1000
1000
,
1000
0000
0000
0000
,
0200
0000
0300
0000
,
0100
0000
0100
0000
,
0010
0000
0001
0001
,
0001
0000
0001
0000
,
1000
1000
1000
0000
,
0001
0001
0001
0000
,
0100
0000
0100
0000
,
0010
0010
0010
0000
,
1000
1000
1000
0000
,
0001
0001
0001
0000
,
0100
0000
0010
0000
,
1001
0000
0000
0000
,
1000
0000
0000
0000
,
0002
0003
0002
0003
,
0001
0001
0001
0000
,
0010
0010
0010
0000
,
0100
0000
1000
0000
,
2000
3000
2000
3000
,
1000
1000
1000
0000
,
0001
0000
0010
0000
,
0100
0000
1000
0000
,
2000
0000
0000
0000
,
0000
0000
3000
0000
,
0002
0000
0000
0000
,
0000
0000
0003
0000
,
0020
0000
0000
0000
,
0000
0000
0030
0000
,
0100
0000
1000
0000
,
0001
0000
1000
1001
,
0000
0000
0000
0000
;
#NOTES:
     dance-single:
     :
     Easy:
     5:
     :
0000
0000
0000
0000
,
0000
0000
0000
0000
,
0000
0000
0000
0000
,
0000
0000
0000
0000
,
0000
0000
0000
0001
,
0002
0000
2003
0000
,
3020
0000
0030
0100
,
0001
1000
0001
1000
,
0000
0000
0000
1001
,
1000
0000
0001
0001
,
0010
0000
0001
1000
,
0100
0000
1000
1000
,
0010
0000
1000
0001
,
1000
0100
0010
0000
,
0001
0100
0010
0000
,
1000
0100
0010
0000
,
0001
0001
0001
1000
,
1000
0020
0000
0030
,
0100
0010
1000
0000
,
0001
0010
0100
1000
,
0000
0000
0000
0001
,
0001
0020
0000
0030
,
0100
0010
0001
0000
,
0100
0100
0100
0010
,
0000
0000
0000
1000
,
1000
0002
0000
1003
,
0001
0010
0100
0000
,
1000
0010
0100
0001
,
0000
0000
0000
1000
,
0001
2000
0000
3000
,
0100
0010
0001
0000
,
0100
0100
0100
0010
,
0000
1000
1001
0000
,
1000
0001
0100
0000
,
0010
1000
0001
0000
,
0010
0100
0010
0100
,
1000
1000
1001
0000
,
0001
1000
0100
0000
,
0010
0001
1000
0000
,
0100
1000
0001
0100
,
0010
0000
1000
0001
,
0010
0000
0001
1000
,
0010
1000
0100
1000
,
0010
0010
0020
0030
,
1000
0001
0200
0300
,
0010
1000
0002
0003
,
0010
0001
0100
0001
,
0010
0010
0010
0001
,
1000
0100
0010
0001
,
0100
0000
0100
0010
,
1000
2000
0000
0001
,
0000
0000
3000
0001
,
0002
0000
0000
1000
,
0000
0000
0003
1000
,
0001
1000
0100
0010
,
0001
1000
0100
0000
,
1000
0001
0010
0100
,
1000
0001
1000
2002
,
3003
0000
0000
0000
,
0000
0000
0000
0000
;
#NOTES:
     dance-single:
     :
     Medium:
     10:
     :
0000
0000
0000
0000
,
0000
0000
0000
0000
,
0000
0000
0000
0000
,
0000
0000
0000
0000
,
0000
0000
0000
0001
,
0002
0000
0000
2003
0000
3010
0100
0020
,
0000
0000
0000
0000
0030
1000
0001
0100
,
0010
0100
0010
0100
0001
1000
0001
1000
,
0000
0000
0000
0000
0000
1000
0002
0000
,
1003
0100
0010
0000
0001
0100
0010
0100
,
0001
1000
0010
0000
1000
0100
0010
0100
,
1000
0001
0100
0000
0001
0010
0100
0010
,
0001
1000
0100
0000
1000
0010
0100
0010
,
0100
0000
1001
0000
1000
0001
0010
0000
,
0001
0000
0110
0000
1000
0001
0100
0000
,
0010
0000
1001
0000
0001
1000
0010
0000
,
1000
0100
0010
0000
1001
0000
1000
0100
,
0010
0002
0000
0103
,
0001
0100
1000
0000
0100
0001
1000
0000
,
0010
0100
0001
0000
1000
0100
0010
0001
,
0000
0000
0100
0000
0000
0000
0001
0010
,
0100
2000
0000
3100
,
1000
0100
0001
0000
0100
1000
0001
0000
,
0100
0010
1000
0010
0100
0000
0001
1000
,
0000
0000
0010
0000
0000
0000
1000
0010
,
0100
0002
0000
1003
,
0001
1000
0100
0000
1000
0010
0001
0000
,
0010
1000
0001
0000
0010
0001
1000
0100
,
0000
0000
0010
0000
0000
0000
0001
0100
,
0010
2000
0000
3001
,
1000
0001
0100
0000
1000
0100
0001
0000
,
0010
0100
1000
0100
0010
0000
0001
1000
,
0000
1001
0000
1000
0010
0000
0100
0000
,
0001
0000
1000
0000
0100
0010
0000
0001
,
0000
0100
0000
0010
1000
0001
0000
2000
,
3000
0100
1000
0100
0010
0001
0010
0000
,
0110
0110
1001
0000
,
1000
0000
0100
0000
0010
0100
0000
1000
,
0001
0000
1001
0000
0110
0000
0000
1000
,
0010
0100
0001
1000
0100
0010
0001
1000
,
0002
0003
0100
0010
0000
1000
0001
1000
,
0000
0000
0000
0100
0010
0100
0010
0100
,
2002
3003
0100
0010
0220
0330
1000
0001
,
2002
3003
0220
0330
2002
0000
3003
0001
,
0010
0100
0020
0030
1000
0010
0001
0200
,
0300
1000
0100
0002
0003
0010
0001
1000
,
0220
0330
0001
1000
2002
3003
0010
0100
,
0220
0330
2002
3003
0220
0330
0001
1000
,
0000
0001
0020
0030
0100
1000
0010
0100
,
0001
1000
0010
0100
0020
0030
1000
0200
,
0300
1000
0002
0000
0000
0000
0100
0000
,
0000
0000
1000
0000
0000
0003
0200
0000
,
0320
0000
0000
2030
0000
0000
0100
0000
,
0000
0000
0001
3000
0000
0001
0000
1000
,
0020
1000
0000
0100
,
0000
0001
0000
0130
,
0001
0100
0010
0000
1000
0100
0010
0000
,
0001
0010
0100
1000
0010
0100
0001
0010
,
0000
0000
0000
0000
;
#NOTES:
     dance-single:
     :
     Hard:
     12:
     :
0000
0000
0000
0000
,
0000
0000
0000
0000
,
0000
0000
0000
0000
,
0000
0000
0000
0000
,
0000
0000
0000
0001
,
0002
0000
0000
0023
0000
0130
1000
0200
,
0000
0000
0000
0000
0300
2000
3020
0230
,
0301
0001
0010
0010
1000
1000
0100
0100
,
0000
0000
0000
0000
0000
0001
2001
0000
,
3001
0000
0010
0001
0000
0010
0000
0001
0000
0000
0100
0000
0010
0000
1000
0000
,
0100
0000
1000
0100
0000
1000
0000
0100
0000
0000
0010
0000
0001
0000
0100
0000
,
0010
0000
0100
0010
0000
0100
0000
0010
0000
0000
1000
0000
0100
0000
1000
0000
,
0001
0000
1000
0001
0000
1000
0000
0001
0000
0000
0100
0000
1000
0000
0100
0000
,
0010
0000
0000
0000
1001
0000
0000
1000
0000
0100
1000
0000
0010
0000
0000
0000
,
0100
0000
0000
0000
1001
0000
0000
0001
0000
0010
0001
0000
0100
0000
0000
0000
,
0010
0000
0000
0000
0110
0000
0000
1000
0000
0010
1000
0000
0001
0000
0000
0000
,
0010
0000
0100
0000
0110
0000
0000
0001
0000
1000
0001
0000
0010
0000
0001
0000
,
0100
0000
0000
0102
0000
0000
0000
0000
1000
0000
0000
0000
0100
0000
0003
0000
,
1000
0001
1000
0000
0100
0000
0010
0000
0001
0000
1000
0000
1000
0000
0000
0000
,
0001
0000
0100
0000
0010
0000
1000
0100
1000
0000
0001
0000
0100
0000
0002
0000
,
0000
0000
1000
0013
0000
0001
0100
0010
,
1000
0000
0000
2010
0000
0000
0000
0000
0001
0000
0000
0000
3010
0000
0000
0000
,
1000
0000
0001
0000
0010
0000
0100
0001
0000
0000
0100
0000
1000
0000
0000
0000
,
0001
0010
1000
0001
0100
1000
0010
1000
,
0000
0001
0010
0100
0000
0000
1000
0100
,
0010
0000
0000
0120
0000
0000
0000
0000
0001
0000
0000
0000
0130
0000
0000
0000
,
0001
1000
0001
0000
0100
0000
0010
0000
1000
0000
0001
0000
0001
0000
0000
0000
,
0010
0000
0100
0000
1000
0000
0001
0000
0100
0000
0010
0100
0010
0000
2000
0000
,
0000
0000
0010
3001
0000
0001
1000
0010
,
0100
0020
0000
0000
1000
0000
0130
0000
,
1000
0000
0001
0000
0010
0000
0100
1000
0000
0000
0100
0000
0001
0000
0000
0000
,
1000
0010
0001
1000
0100
0001
0010
0001
,
0000
0110
0000
1000
0010
0100
0010
0000
,
1002
0000
0103
1000
0100
0001
0000
2100
,
0000
3200
0000
0301
0100
1000
0000
1020
,
0000
0230
0302
0023
0230
2300
3020
1030
,
1001
0000
0000
0000
1001
0000
0000
1000
0001
0000
0010
0000
0100
0000
0000
0000
,
1000
1000
0100
0001
0100
1000
0000
0010
,
0110
0000
1100
0000
0101
0000
1001
0001
,
0100
0010
1000
0100
0001
1000
0010
0001
,
2000
0000
3100
0020
0000
0031
1000
0020
,
0000
0000
0030
0100
0001
0100
0001
1000
,
2020
3030
0010
0100
2200
3300
0100
0001
,
0022
0003
2000
3030
2002
3003
0000
1000
,
0010
1000
0200
0300
1000
0010
0001
0200
,
0300
0001
0010
0220
0330
0010
1000
0001
,
0022
0033
0010
0100
0202
0303
0100
1000
,
2020
3000
0002
0033
2001
3001
0010
0100
,
0000
0000
0110
0000
2000
0000
3000
0001
0100
0000
1000
0000
0100
0000
0001
0000
,
0010
0100
0010
1000
0020
0000
0031
0002
,
0000
0000
0103
0000
0200
0000
0000
0001
0000
0000
0001
0000
0010
0000
0000
0000
,
1000
0000
0000
0000
0010
0000
0000
0001
0300
0000
0001
0000
0110
0000
0000
0000
,
2001
0000
3000
0020
0000
1000
0100
0000
,
0001
0000
0000
0000
0100
0000
0030
1000
0000
0000
0010
0000
0100
0000
0001
0000
,
1000
0000
0100
0010
0000
0100
0000
1000
0000
0000
0001
0000
0100
0000
0001
0000
,
0010
0000
0100
1000
0000
0100
0000
0010
0000
0000
0001
0000
1000
0000
0001
0000
,
0100
0000
0010
0001
0000
0010
0000
0100
0000
0000
0001
0000
0100
0000
0001
0000
,
1000
0001
1000
0001
0010
0000
0000
0100
0000
0010
0100
0000
2002
0000
0000
0000
,
3003
0000
0000
0000
,
0000
0000
0000
0000
;
#NOTES:
     dance-double:
     :
     Easy:
     5:
     :
00000000
00000000
00000000
00000000
,
00000000
00000000
00000000
00000000
,
00000000
00000000
00000000
00000000
,
00000000
00000000
00000000
00000000
,
00000000
00000000
00000000
00001000
,
00002000
00000000
00023000
00000000
,
00230000
00000000
00300000
10000000
,
01000000
00010000
00001000
00010000
,
00000000
00000000
00000000
00000110
,
00000001
00000000
00001000
00001000
,
00000010
00000000
00010000
00001000
,
01000000
00000000
00010000
00010000
,
00100000
00000000
00010000
10000000
,
00100000
01000000
00001000
00000000
,
00010000
00000010
00000100
00000000
,
00000001
00000010
00000100
00000000
,
00010000
00010000
00010000
00001000
,
00001000
00200000
00000000
00300000
,
00010000
00100000
01000000
00000000
,
10000000
01000000
00010000
00001000
,
00000000
00000000
00000000
00010000
,
00010000
00000020
00000000
00000030
,
00001000
00000001
00000010
00000000
,
00000100
00000100
00000100
00010000
,
00000000
00000000
00000000
00100000
,
00100000
20000000
00000000
30010000
,
10000000
01000000
00100000
00000000
,
00001000
00100000
01000000
00010000
,
00000000
00000000
00000000
00000010
,
00001000
00000002
00000000
00000003
,
00000100
00001000
00010000
00000000
,
01000000
01000000
01000000
00100000
,
00000000
00100000
10010000
00000000
,
10000000
01000000
00010000
00000000
,
00001000
00000100
00000001
00000000
,
00000010
00000100
00000010
00000100
,
00001000
00001000
00001001
00000000
,
00000001
00000010
00001000
00000000
,
00010000
00100000
10000000
00000000
,
01000000
00010000
00001000
00000010
,
00001000
00000000
00100000
00001000
,
00010000
00000000
00010000
00010000
,
00000010
00010000
00000100
00010000
,
00000010
00000010
00000020
00000030
,
00000100
00000001
00000020
00000030
,
00001000
00010000
00002000
00003000
,
00100000
00001000
01000000
00001000
,
00100000
00100000
00100000
00010000
,
10000000
01000000
00010000
00001000
,
00010000
00000000
00001000
00100000
,
00001000
00002000
00000000
00100000
,
00000000
00000000
00003000
00010000
,
00020000
00000000
00000000
00000010
,
00000000
00000000
00030000
00001000
,
00010000
00100000
10000000
01000000
,
00010000
00001000
00010000
00000000
,
00001000
00000010
00000001
00000100
,
00001000
00010000
00001000
00022000
,
00033000
00000000
00000000
00000000
,
00000000
00000000
00000000
00000000
;
#NOTES:
     dance-double:
     :
     Medium:
     10:
     :
00000000
00000000
00000000
00000000
,
00000000
00000000
00000000
00000000
,
00000000
00000000
00000000
00000000
,
00000000
00000000
00000000
00000000
,
00000000
00000000
00000000
00001000
,
00002000
00000000
00000000
00203000
00300000
00010000
00001000
00020000
,
00000000
00000000
00000000
00000000
00030000
10000000
00100000
01000000
,
00001000
00010000
00001000
00010000
00000100
00000010
00000100
00000010
,
00000000
00000000
00000000
00000000
00000000
00000001
00002000
00000000
,
00003001
00000100
00000010
00000000
00010000
00001000
00100000
00001000
,
01000000
00010000
00100000
00000000
00010000
01000000
00100000
00000000
,
10000000
01000000
00100000
00000000
00001000
00010000
00000010
00010000
,
00000100
00001000
00000010
00000000
00001000
00000100
00000010
00000000
,
00000001
00000000
00001001
00000000
00000001
00000100
00001000
00000000
,
00010000
00000000
00011000
00000000
00001000
00010000
00100000
00000000
,
10000000
00000000
10010000
00000000
10000000
01000000
00010000
00000000
,
00001000
00100000
00001000
00000000
00000110
00000000
00000001
00000100
,
00000010
00002000
00000001
00003010
,
00001000
00000100
00000001
00000000
00000100
00001000
00000010
00000000
,
00010000
00000010
00000100
00000000
00001000
00010000
00001000
00100000
,
00000000
00000000
00010000
00000000
00000000
00000000
10000000
01000000
,
00100000
00020000
10000000
00130000
,
00010000
01000000
10000000
00000000
01000000
00010000
00100000
00000000
,
00001000
01000000
00010000
01000000
00001000
00010000
00000010
00000100
,
00000000
00000000
00000001
00000010
00000000
00000000
00000001
00000100
,
00000010
00002000
00010000
00003010
,
00001000
00000001
00000100
00000000
00001000
00010000
00000100
00000000
,
00000010
00000001
00001000
00000000
00000010
00001000
00010000
01000000
,
00000000
00000000
00100000
00000000
00000000
00000000
10000000
01000000
,
00100000
00020000
00000000
00000000
00001000
00000000
00130000
00000000
,
00010000
10000000
01000000
00000000
00010000
00001000
01000000
00000000
,
00001000
00010000
00000010
00001000
00010000
00001000
00000010
00010000
,
00000000
00011000
00000000
00001000
00100000
00000000
01000000
00000000
,
10000000
00000000
00010000
00000000
00001000
00000000
00000000
00010000
,
00000000
00001000
00000000
00000001
00000010
00000001
00000000
00000200
,
00000300
00001000
00010000
00001000
00100000
00001000
00010000
00000000
,
00011000
00011000
00000110
00000000
,
00000001
00000000
00001000
00000000
00010000
00000000
00000000
00001000
,
00010000
00000000
10010000
00000000
01100000
00000000
00000000
10000000
,
00010000
00100000
00010000
00001000
00000010
00001000
00010000
00001000
,
00000020
00000030
00001000
00000200
00000300
00010000
00000010
00000100
,
00000000
00000000
00000000
00000010
00001000
00000001
00001000
00000001
,
00002002
00003003
00000100
00000010
00000220
00000330
00010000
00001000
,
00022000
00033000
02200000
03300000
20020000
00000000
30030000
00010000
,
00100000
00001000
00020000
00030000
00001000
00000010
00000001
00000200
,
00000300
00001000
00010000
00002000
00003000
00100000
00010000
10000000
,
20020000
30030000
00100000
01000000
02200000
03300000
00001000
00010000
,
00022000
00033000
00000220
00000330
00002002
00003003
00000001
00000100
,
00000000
00000001
00000020
00000030
00000100
00010000
00001000
01000000
,
00010000
10000000
00010000
00100000
00020000
00030000
00001000
00020000
,
00030000
00100000
00020000
00000000
00000000
00000000
00001000
00000000
,
00000000
00100000
00000000
00031000
,
00002000
00000100
00000000
00000001
,
00000000
00000010
00000000
00013000
,
00020000
01000000
00000000
10000000
,
00000000
00100000
00000000
00031000
,
00000100
00000000
00000110
00000000
00000001
00000100
00000010
00000000
,
00000100
00001000
00010000
00100000
10000000
00000000
20020000
00000000
,
30030000
00000000
00000000
00000000
,
00000000
00000000
00000000
00000000
;
#NOTES:
     dance-double:
     :
     Hard:
     12:
     :
00000000
00000000
00000000
00000000
,
00000000
00000000
00000000
00000000
,
00000000
00000000
00000000
00000000
,
00000000
00000000
00000000
00000000
,
00000000
00000000
00000000
00010000
,
00021000
00000000
00000000
00230000
00000000
10300000
01000000
00020000
,
00000000
00000000
00000000
00000000
00030000
00002000
00023000
00030200
,
00001300
00001000
00000010
00000010
00000001
00000001
00000100
00000100
,
00000000
00000000
00000000
00000000
00000000
00010000
00012000
00000000
,
00103000
00000000
00010000
00100000
00000000
00010000
00000000
00100000
00000000
00000000
00001000
00000000
00100000
00000000
01000000
00000000
,
10000000
00000000
01000000
10000000
00000000
01000000
00000000
10000000
00000000
00000000
00100000
00000000
01000000
00000000
00001000
00000000
,
00010000
00000000
00001000
00010000
00000000
00001000
00000000
00010000
00000000
00000000
00000010
00000000
00001000
00000000
00000001
00000000
,
00000010
00000000
00000001
00000010
00000000
00000001
00000000
00000010
00000000
00000000
00000100
00000000
00001000
00000000
00000010
00000000
,
00000100
00000000
00000000
00000000
00001001
00000000
00000000
00001000
00000000
00000100
00001000
00000000
00000010
00000000
00000000
00000000
,
00010000
00000000
00000000
00000000
00011000
00000000
00000000
00001000
00000000
00010000
00001000
00000000
00100000
00000000
00000000
00000000
,
01000000
00000000
00000000
00000000
10010000
00000000
00000000
10000000
00000000
01000000
10000000
00000000
00100000
00000000
00000000
00000000
,
01000000
00000000
00001000
00000000
00011000
00000000
00000000
00001000
00000000
00010000
00001000
00000000
00000010
00000000
00000100
00000000
,
00001000
00002100
00000001
00000010
,
00013000
00000000
01000000
00000000
00010000
00000000
10000000
00100000
00000000
00000000
01000000
00000000
00001000
00000000
00000000
00000000
,
00011000
00000000
00001000
00000000
00000010
00000000
00000001
00000010
00000001
00000000
00000100
00000000
00001000
00000000
00020000
00000000
,
00000000
00000000
00000010
00031000
00000000
00010000
00001000
01000000
,
00010000
01020000
10000000
00100000
,
00031000
00000000
00000100
00000000
00001000
00000000
00000001
00000010
00000000
00000000
00000001
00000000
00001000
00000000
00000000
00000000
,
00000001
00000010
00001000
00000001
00000100
00001000
00000010
00010000
,
00000000
00001000
00100000
01000000
00000000
00100000
01000000
10000000
,
00010000
01020000
10000000
00100000
,
00031000
00000000
00000100
00000000
00001000
00000001
00001000
00000000
00000010
00000000
00010000
00000000
00001000
00000000
00000000
00000000
,
00011000
00000000
00001000
00010000
00001000
00000000
01000000
00000000
00100000
00000000
01000000
00010000
01000000
00000000
00002000
00000000
,
00000000
00000000
00100000
00010000
00003000
00001000
01000000
00010000
,
00002000
00000100
00000001
00000010
,
00013000
00000000
01000000
00000000
00010000
00000000
10000000
00100000
00000000
00000000
10000000
00000000
00010000
00000000
00000000
00000000
,
10000000
00100000
00010000
10000000
01000000
00010000
00100000
00001000
,
00000000
00011000
00000000
00010000
00000010
00000100
00000001
00000000
,
00000102
00000000
00000103
00001000
00010000
00100000
00000000
20100000
,
00000000
32000000
00000000
03010000
00001000
00000010
00000000
00000012
,
00000000
00000203
00002300
00003200
00000320
00020030
00032000
00103000
,
01100000
00000000
00000000
00000000
01100000
00000000
00000000
00010000
10000000
00000000
00100000
00000000
01000000
00000000
00000000
00000000
,
01000000
00010000
10000000
00010000
00100000
00020000
00000000
00031000
,
00002000
00000000
00000100
00000000
00000001
00000000
00003010
00001000
,
00000001
00000100
00001000
00000001
00000010
00001000
00000100
00000001
,
00000200
00000000
00001300
00000020
00000000
00010030
00001000
00200000
,
00000000
00000000
00300000
00001000
00100000
00010000
00100000
01000000
,
22000000
33000000
10000000
00100000
00220000
00330000
00010000
00001000
,
00022000
00030000
00000020
00003030
00020200
00030300
00000000
00000100
,
00002000
00000100
00000100
00000000
00000001
00000000
00000010
00000000
,
00023000
01000000
10000000
00130000
,
00202000
00303000
00001000
00000010
00002020
00003030
00000010
00000001
,
00000202
00000003
00002000
00003300
00020020
00030030
00010000
00001000
,
00000000
00000000
00010000
00000000
00200000
00000000
00300000
01000000
00010000
00000000
10000000
00000000
01000000
00000000
00100000
00000000
,
00001000
00010000
00000010
00010000
00200000
00000000
10300000
00200000
,
00000000
01300000
00020000
00000000
10000000
00000000
00100000
00000000
,
00032000
00000100
00003001
00002010
,
00020000
00030000
00000000
00000001
00000000
00000000
00000100
00000000
,
00023000
00100000
10000000
01030000
,
00010000
00000000
00100000
01000000
00000000
00100000
00000000
00010000
00000000
00000000
10000000
00000000
01000000
00000000
00010000
00000000
,
00001000
00000000
00010000
00100000
00000000
00010000
00000000
00001000
00000000
00000000
01000000
00000000
00001000
00000000
00010000
00000000
,
00000010
00000000
00000100
00001000
00000000
00000100
00000000
00000010
00000000
00000000
00001000
00000000
00000001
00000000
00000100
00000000
,
00001000
00010000
00001000
00010000
00001000
00000000
00000000
00100000
00000000
00010000
10000000
00000000
20020000
00000000
00000000
00000000
,
30030000
00000000
00000000
00000000
,
00000000
00000000
00000000
00000000
;
