
//----- song ID: butw -----//
#TITLE:Butterfly Twist;
#ARTIST:Yooh;
#BANNER:Butterfly Twist.png;
#BACKGROUND:Butterfly Twist-bg.png;
#CDTITLE:./CDTitles/SDVX VIVID WAVE.png;
#MUSIC:Butterfly Twist.ogg;
#SAMPLESTART:25.5;
#SAMPLELENGTH:15;
#BPMS:0=160;
#BGSTAGE:15;
#NOTES:
     dance-single:
     :
     Beginner:
     2:
     :
0000
0000
0000
0000
,
0000
0000
0000
0000
,
0000
0000
0000
0000
,
0000
0000
0000
0000
,
0000
0000
0000
0000
,
0000
0000
0000
0000
,
0000
0000
0000
0000
,
0000
0000
0000
0000
,
0000
0000
0000
0000
,
0001
0000
0000
0000
,
0000
0000
0000
0000
,
1000
0000
0000
0000
,
0000
0000
0000
0000
,
0010
0000
0000
0000
,
0010
0000
0000
0000
,
0010
0000
0000
0000
,
0010
0000
0000
0000
,
1000
0000
1000
0000
,
1000
0000
0000
0000
,
0001
0000
0001
0000
,
0001
0000
0000
0000
,
0100
0000
0100
0000
,
0100
0000
0000
0000
,
0001
0000
0001
0000
,
0001
0000
0000
0000
,
1000
0000
1000
0000
,
1000
0000
0000
0000
,
0010
0000
0010
0000
,
0010
0000
0000
0000
,
1000
0000
1000
0000
,
1000
0000
0000
0000
,
0001
0000
0001
0000
,
0001
0000
0000
0000
,
1000
0000
0000
0000
,
0000
0000
0000
0000
,
0001
0000
0000
0000
,
0000
0000
0000
0000
,
0100
0000
0000
0000
,
0100
0000
0000
0000
,
0100
0000
0000
0000
,
0000
0000
0000
0000
,
0001
0000
0000
0000
,
1000
0000
0000
0000
,
0010
0000
0000
0000
,
0100
0000
0000
0000
,
0001
0000
0000
0000
,
0010
0000
0000
0000
,
0100
0000
0000
0000
,
1000
0000
0000
0000
,
0001
0000
0000
0000
,
0001
0000
0000
0000
,
0001
0000
0000
0000
,
0001
0000
0000
0000
,
0001
0000
0001
0000
,
0001
0000
0001
0000
,
0001
0000
0001
0000
,
0001
0000
0000
0000
,
1001
0000
0000
0000
,
0001
0000
0000
0000
,
0100
0000
0000
0000
,
0010
0000
0000
0000
,
0110
0000
0000
0000
,
0010
0000
0000
0000
,
1000
0000
0000
0000
,
1001
0000
0000
0000
,
0000
0000
0000
0000
,
0001
0000
0001
0000
,
0001
0000
0000
0000
,
1000
0000
1000
0000
,
1000
0000
0000
0000
,
0010
0000
0010
0000
,
0010
0000
0000
0000
,
1000
0000
0000
0000
,
0002
0000
0003
0000
,
2000
0000
3000
0000
,
0020
0000
0030
0000
,
2000
0000
3000
0000
,
0002
0000
0003
0000
,
0200
0000
0300
0000
,
0002
0000
0003
0000
,
2000
0000
0000
0000
0000
0000
0000
0000
0000
0000
0000
0000
0000
0000
0000
3000
,
0000
0000
0000
0000
;
#NOTES:
     dance-single:
     :
     Easy:
     7:
     :
0000
0000
0000
0000
,
0000
0000
0000
0000
,
0000
0000
0000
0000
,
0000
0000
0000
0000
,
0000
0000
0000
0000
,
0000
0000
0000
0000
,
0000
0000
0000
0000
,
0000
0000
0000
0000
,
0000
0000
0000
0000
,
0001
0000
1000
0000
,
0010
0000
1000
0000
,
0001
0000
0100
0000
,
0010
0000
0100
0000
,
0100
0000
0100
0000
,
0100
0000
0100
0000
,
0100
0100
0100
0100
,
0020
0000
0000
0030
,
1010
1000
0001
0010
,
0001
1000
0010
0100
,
0001
0010
0010
0010
,
0001
0100
0010
1000
,
0011
0001
1000
0010
,
1000
0001
0010
0100
,
1000
0010
0010
0010
,
1000
0000
0001
0000
,
1001
1000
0010
1000
,
0100
1000
0010
1000
,
0100
0010
0010
0010
,
0100
1000
0001
0000
,
1001
0001
0100
0001
,
0010
0001
0100
0001
,
0010
0100
0100
0010
,
0001
0000
1000
0000
,
0020
0000
0030
0000
,
0200
0000
0300
0000
,
0002
0000
0003
0000
,
2000
0000
3000
0000
,
0002
0000
0003
0000
,
0020
0000
0030
0000
,
0200
0000
0300
0000
,
2000
0000
3000
0000
,
1000
0001
0001
0001
,
0100
0010
0010
0010
,
0100
0001
0001
0001
,
1000
0010
0010
0100
,
0001
1000
1000
1000
,
0010
0100
0100
0100
,
0001
1000
1000
1000
,
0001
0100
0100
0010
,
1000
0000
1000
0000
,
0001
0000
0001
0000
,
0100
0000
0100
0000
,
0010
0000
0010
0000
,
1000
1000
0100
0100
,
0010
0010
0001
0001
,
0100
0100
0010
1000
,
0001
0000
0000
0000
,
0002
0000
0100
0000
,
1000
0000
0013
0000
,
2000
0000
0100
0000
,
0001
0000
3010
0000
,
0020
0000
1000
0000
,
0001
0000
0130
0000
,
0200
0000
0001
0000
,
1300
0100
0010
1000
,
0000
1001
0001
0100
,
0001
0010
0100
1000
,
1010
0010
0100
0010
,
1000
0100
0010
0001
,
0100
0010
0100
0001
,
0010
0001
1000
0100
,
1000
0010
0100
0001
,
1000
0000
0000
0000
,
0020
0000
0030
0000
,
0200
0000
0300
0000
,
0002
0000
0003
0000
,
2000
0000
3000
0000
,
0002
0000
0000
0000
,
0023
0000
0000
0000
,
0230
0000
0000
0000
,
2300
0000
0000
0000
0000
0000
0000
0000
0000
0000
0000
0000
0000
0000
0000
3000
,
0000
0000
0000
0000
;
#NOTES:
     dance-single:
     :
     Medium:
     9:
     :
0000
0000
0000
0000
,
0000
0000
0000
0000
,
0000
0000
0000
0000
,
0000
0000
0000
0000
,
0000
0000
0000
0000
,
0000
0000
0000
0000
,
0000
0000
0000
0000
,
0000
0000
0000
0000
,
0000
0000
0000
0000
,
0001
1000
0010
0100
,
0002
0000
0010
0000
,
0103
0010
0001
0010
,
2000
0000
0100
0000
,
3010
0110
0001
0011
,
0100
0110
1000
1100
,
0001
1000
0001
1000
0001
1000
0001
1000
,
0020
0000
0000
0030
,
1001
0001
0100
0010
,
1000
0001
0100
0010
,
1000
0000
0001
0010
0100
0010
0001
0000
,
1000
0010
0100
0001
,
1001
1000
0010
0100
,
0001
1000
0010
0100
,
0001
0000
0000
0000
1000
0000
0000
0100
0000
0000
0010
0000
0000
0001
0000
0000
,
0100
0100
0010
0010
,
1000
0000
0001
0000
0100
0010
0100
0000
,
0001
0000
1000
0000
0010
0100
0010
0000
,
1000
0000
0001
0010
0001
0010
0001
0000
,
1000
0010
0100
0001
,
1000
0000
0001
0000
0010
0100
0010
0000
,
0001
0000
1000
0000
0100
0010
0100
0000
,
1000
0000
0001
0100
0001
0100
0001
0000
,
1000
0010
0010
0100
,
0002
0000
0000
0000
,
0023
0000
0000
0000
,
0230
0000
0000
0000
,
2300
0000
0000
0000
,
3002
0100
0000
0100
,
2003
0010
0000
0010
,
3002
0100
0000
0100
,
2003
0010
0000
3010
,
1000
0001
0010
0010
,
0001
1000
0100
0100
,
1000
0001
0010
0010
,
0001
1000
0100
0100
,
1000
0001
0102
1003
,
0001
1000
2100
3001
,
1000
0001
0102
1003
,
0001
0010
0100
1000
,
0001
0000
1000
0000
0010
0010
0010
0000
,
0100
0000
0001
0000
1000
1000
1000
0000
,
0001
0000
0010
0000
0001
0001
0001
0000
,
1000
0000
0010
0000
0100
0100
0100
0000
,
0102
0013
2100
3010
,
0102
0013
2100
3010
,
1000
0001
1000
0001
0100
0010
0100
0010
,
1000
0000
0000
0000
,
1020
0000
0001
0000
,
0130
0000
0001
0000
1000
0100
0010
0000
,
0021
0000
1000
0000
,
0130
0000
1000
0000
0001
0100
0010
0000
,
1020
0000
0001
0000
,
0130
0001
1000
0000
0100
1000
0001
0000
,
0100
0000
0000
0000
0001
0000
0000
0010
0000
0000
0100
0000
0000
1000
0000
0000
,
0001
0001
0100
0010
,
0000
0000
1001
0000
0001
0010
0100
0000
,
0010
0100
1000
0000
0100
1000
0001
0000
,
0101
0000
0100
0010
1000
0000
1000
0100
,
0001
0000
0001
0100
2000
0000
3010
0000
,
1100
0000
0100
0010
0001
0000
0001
0100
,
1000
0000
1000
0100
0002
0000
0013
0000
,
0001
0010
0100
0000
1100
0000
1001
0000
,
0001
0000
0000
0010
0000
0000
0100
0000
0000
1000
0000
0000
0001
0000
0000
0000
,
2000
3000
0020
0030
,
0200
0300
0002
0003
,
2000
3000
0200
0300
,
0020
0030
0002
0003
,
0200
0000
0020
0030
,
2000
3000
0002
0003
,
0020
0030
2000
3000
,
0002
0000
0000
0000
0003
0000
0000
0000
0020
0000
0000
0000
0000
0000
0000
0330
,
0000
0000
0000
0000
;
#NOTES:
     dance-single:
     :
     Hard:
     14:
     :
0000
0000
0000
0000
,
0000
0000
0000
0000
,
0000
0000
0000
0000
,
0000
0000
0000
0000
,
0000
0000
0000
0000
,
0000
0000
0000
0000
,
0000
0000
0000
0000
,
0000
0000
0000
0000
,
0000
0000
0000
0000
,
0001
0000
0000
1000
0000
0000
0010
0000
0000
0100
0000
0000
0001
0000
1000
0000
,
0100
0000
0000
1000
0000
0000
0010
0000
0000
0100
0000
0000
0001
0000
0010
0000
,
0100
0000
0000
0010
0000
0000
0001
0000
0000
1000
0000
0000
0010
0000
0100
0000
,
0010
0000
0000
1000
0000
0000
0001
0000
0000
0010
0000
0000
0001
0000
1000
0000
,
0010
0000
0000
1000
0000
0000
0010
0000
1000
0000
0000
0010
1000
0000
0000
0001
0000
0000
1000
0000
0001
0000
0000
1000
,
0001
0000
0000
0100
0000
0000
0001
0000
0100
0000
0000
0001
0100
0000
0000
0010
0000
0000
0100
0000
0010
0000
0000
0100
,
0010
0000
0010
0000
1000
0000
1000
0000
0001
0000
0001
0000
1000
0001
1000
0001
,
0100
0100
0100
0110
,
1001
0000
0000
0000
0011
0000
0000
0010
0100
0000
1000
0000
0001
0000
0100
0000
,
0010
0000
1000
0000
0001
0000
0000
0010
0001
0000
0100
0000
0010
0000
1000
0000
,
0001
0010
0010
1000
0001
0100
0100
1000
,
0001
0000
0100
0010
0100
0000
0001
0000
1000
0000
0100
0000
1000
0000
0010
0000
,
0101
0000
0000
0000
1010
0000
0000
1000
0100
0000
1000
0000
0001
0000
1000
0000
,
0010
0000
0100
0000
0010
0000
0000
1000
0001
0000
0010
0000
0001
0000
1000
0000
,
0001
0100
0100
1000
0001
0010
0010
1000
,
0100
0000
0000
1000
0000
0000
0010
0000
0000
1000
0000
0000
0100
0000
1000
0000
,
1010
0000
0000
0000
1001
0000
0000
0001
0100
0000
0010
0000
1000
0001
1000
0000
,
0001
0000
0010
0000
0100
0000
0000
1000
0100
0000
1000
0000
0010
0000
0100
0000
,
0001
0010
0010
1000
0001
0100
0100
0010
,
0001
0000
0100
0010
0100
0000
0001
0000
0010
0000
0100
0000
1000
0000
0001
0000
,
0012
0000
0000
0000
0103
0000
0000
0001
0010
0000
0001
0000
1000
0000
0010
0000
,
0100
1000
0100
0010
1000
0001
0010
0100
,
0001
0100
0010
0001
1000
0010
0100
0001
,
0012
0000
0000
0010
0000
0000
0010
0000
0000
0010
0000
0000
0013
0000
0100
0000
,
2000
0000
3002
0000
,
0203
0000
0300
0000
,
0002
0000
0023
0000
,
0230
0000
0300
0000
,
2000
0010
3002
0100
,
0023
0100
0032
1000
,
0203
0010
0302
0010
,
1003
0000
0100
0000
0010
0000
0001
0000
1000
0100
1000
0001
0010
0001
1000
0010
,
0100
0001
0100
0001
0100
0001
0010
0100
,
1000
0010
1000
0010
1000
0010
0100
0001
,
1000
0100
1000
0100
1000
0100
0010
0001
,
0100
0010
0100
0010
0100
0010
1000
0001
,
0010
0100
1000
0100
1000
0100
0010
0001
,
1000
0010
0100
0010
1000
0001
0010
0001
,
1000
0010
0100
1000
0100
1000
0100
0010
,
2000
3200
0320
0032
,
1003
1000
0001
0001
0100
0010
1000
0001
,
0010
0010
0100
0100
1000
0001
0100
0010
,
0100
0100
0001
0001
1000
0100
0010
0001
,
1000
0000
1000
0000
0010
0000
0010
0000
0100
0000
0001
0010
0100
0000
0000
0000
,
1000
0000
0001
1000
0000
0001
0100
0001
0100
0000
0010
0100
0000
0010
1000
0010
,
1000
0000
0001
1000
0000
0001
0010
0001
0010
0000
0100
0010
0000
0100
1000
0100
,
2000
0000
3020
0000
0230
0000
0302
0000
0023
0000
0230
0000
1300
0001
1000
0001
,
1000
0000
0000
0000
,
0021
0000
0130
0100
0001
0100
0100
1000
,
0010
0100
0010
0000
1000
0000
0001
0000
0010
0000
0100
0000
1000
0000
0100
0000
,
0010
0001
0100
0010
1000
0100
0100
0001
,
0100
0100
1000
0100
0100
0010
0100
0100
,
1000
0000
0101
1010
0000
0001
0010
0001
,
1000
0010
0100
0000
0001
0000
1000
0000
0010
0100
0001
0000
1000
0100
1000
0100
,
0010
0000
0000
0000
1001
0000
0000
0011
0000
0000
0110
0000
0000
1100
0000
0000
,
1010
0010
0100
2002
,
3003
0000
0001
0010
0100
0001
1000
0001
,
0100
0010
0001
1000
0001
0100
0010
0001
,
2000
0000
3001
0010
0100
0001
1000
0001
,
0010
0100
0001
1000
0020
0000
0032
0000
,
0203
0000
1300
0100
0010
1000
0001
1000
,
0100
0010
1000
0001
1000
0010
0100
1000
,
0001
1000
0010
0100
1000
0001
0010
0100
,
0001
0000
0000
0010
0000
0000
0100
0000
0000
1000
0000
0000
0010
0000
0100
0000
,
0020
0000
0002
0003
,
2000
3000
0000
0000
,
0230
0000
2000
3000
,
0002
0003
0000
0000
,
0320
0000
0002
0003
,
2000
3000
0000
0000
,
0230
0000
2000
3000
,
0002
0000
0000
0000
0003
0000
0000
0000
0000
0000
0000
0000
0000
0000
0000
0300
,
0000
0000
0000
0000
;
#NOTES:
     dance-double:
     :
     Easy:
     7:
     :
00000000
00000000
00000000
00000000
,
00000000
00000000
00000000
00000000
,
00000000
00000000
00000000
00000000
,
00000000
00000000
00000000
00000000
,
00000000
00000000
00000000
00000000
,
00000000
00000000
00000000
00000000
,
00000000
00000000
00000000
00000000
,
00000000
00000000
00000000
00000000
,
00000000
00000000
00000000
00000000
,
00001000
00000000
00010000
00000000
,
00000010
00000000
00001000
00000000
,
00000001
00000000
00000010
00000000
,
00000100
00000000
00010000
00000000
,
00001000
00000000
00001000
00000000
,
00001000
00000000
00001000
00000000
,
00001000
00001000
00001000
00001000
,
00020000
00000000
00000000
00030000
,
00011000
00001000
01000000
00100000
,
10000000
00010000
00100000
00010000
,
10000000
00100000
00100000
00100000
,
01000000
00010000
00100000
00001000
,
00011000
00010000
00000100
00000010
,
00000001
00001000
00000010
00001000
,
00000001
00000010
00000010
00000010
,
00000001
00000000
00001000
00000000
,
00001001
00000001
00000100
00001000
,
00010000
00001000
00100000
00010000
,
01000000
00100000
00100000
01000000
,
00010000
00000000
10000000
00000000
,
10010000
10000000
01000000
00010000
,
00001000
00010000
00000010
00001000
,
00000100
00000010
00000010
00000100
,
00001000
00000000
00000001
00000000
,
00000020
00000000
00000030
00000000
,
00000200
00000000
00000300
00000000
,
00002000
00000000
00003000
00000000
,
00000020
00000000
00000030
00000000
,
00020000
00000000
00030000
00000000
,
00002000
00000000
00003000
00000000
,
02000000
00000000
03000000
00000000
,
00020000
00000000
00030000
00000000
,
10000000
00100000
00100000
00100000
,
01000000
00010000
00010000
00010000
,
00100000
00001000
00001000
00001000
,
00010000
00000010
00000010
00001000
,
00000001
00000100
00000100
00000100
,
00000010
00001000
00001000
00001000
,
00000100
00010000
00010000
00010000
,
00001000
00100000
00100000
00010000
,
01000000
00000000
01000000
00000000
,
00100000
00000000
00100000
00000000
,
10000000
00000000
10000000
00000000
,
00010000
00000000
00010000
00000000
,
00100000
00100000
00001000
00001000
,
00010000
00010000
00001000
00001000
,
01000000
01000000
00100000
10000000
,
00010000
00000000
00000000
00000000
,
00020000
00000000
01000000
00000000
,
10000000
00000000
00100000
00000000
,
00032000
00000000
00000100
00000000
,
00000001
00000000
00000010
00000000
,
00023000
00000000
01000000
00000000
,
10000000
00000000
00100000
00000000
,
00230000
00000000
01000000
00000000
,
10300000
00100000
00010000
01000000
,
00000000
01100000
00100000
00010000
,
00001000
00010000
01000000
00010000
,
00001000
00010000
00100000
00010000
,
00001000
00010000
01000000
00010000
,
00001000
00000100
00001000
00010000
,
00001000
00000010
00001000
00010000
,
00001000
00000100
00000001
00000010
,
00000100
00000000
00000000
00000000
,
00020000
00000000
00030000
00000000
,
00002000
00000000
00003000
00000000
,
02000000
00000000
03000000
00000000
,
00200000
00000000
00300000
00000000
,
20000000
00000000
00000000
00000000
,
32000000
00000000
00000000
00000000
,
03200000
00000000
00000000
00000000
,
00320000
00000000
00000000
00000000
00000000
00000000
00000000
00000000
00000000
00000000
00000000
00000000
00000000
00000000
00000000
00030000
,
00000000
00000000
00000000
00000000
;
#NOTES:
     dance-double:
     :
     Medium:
     10:
     :
00000000
00000000
00000000
00000000
,
00000000
00000000
00000000
00000000
,
00000000
00000000
00000000
00000000
,
00000000
00000000
00000000
00000000
,
00000000
00000000
00000000
00000000
,
00000000
00000000
00000000
00000000
,
00000000
00000000
00000000
00000000
,
00000000
00000000
00000000
00000000
,
00000000
00000000
00000000
00000000
,
00001000
00100000
00010000
10000000
,
00200000
00000000
01000000
00000000
,
00310000
00100000
01000000
00010000
,
00200000
00000000
01000000
00000000
,
10300000
00100000
00010000
00110000
,
00001000
00011000
00000010
00001010
,
00000001
00001000
00000001
00001000
00000001
00001000
00000001
00001000
,
00000020
00000000
00000000
00000030
,
00001001
00000001
00000100
00001000
,
00010000
01000000
00100000
00001000
,
00010000
00000000
00001000
00010000
00001000
00010000
00001000
00000000
,
01000000
00100000
10000000
00010000
,
10000000
01000000
00010000
00001000
,
00000100
00000010
00010000
00001000
,
00010000
00000000
00000000
00000000
00000100
00000000
00000000
00001000
00000000
00000000
00000010
00000000
00000000
00000100
00000000
00000000
,
00000001
00000001
00001000
00001000
,
00000010
00000000
00010000
00000000
00001000
00010000
00001000
00000000
,
00100000
00000000
00001000
00000000
00010000
00001000
00010000
00000000
,
00000100
00000000
00010000
00000000
00001000
00010000
00001000
00000000
,
01000000
00000000
00001000
00000000
00010000
00001000
00010000
00000000
,
00001000
00000100
00000010
00010000
,
00000100
00000010
00001000
00010000
,
00001000
01000000
00100000
00000000
00100000
00000000
01000000
00000000
,
01200000
00010000
10000000
01300000
,
00200000
00000000
00000000
00000000
,
00320000
00000000
00000000
00000000
,
00032000
00000000
00000000
00000000
,
00003020
00000000
00000000
00000000
,
00000032
00001000
00000000
00001000
,
00000203
00000010
00000000
00000010
,
00002300
00010000
00000000
00010000
,
00203000
01000000
00000000
01000000
,
00310000
10000000
10000000
00100000
,
01000000
00010000
00010000
00100000
,
01000000
00010000
00010000
00001000
,
00100000
00010000
00010000
01000000
,
00100000
00010000
00012000
00103000
,
00001000
00010000
00021000
00030100
,
00000100
00001000
00002010
00003001
,
00001000
00000001
00000100
00000001
,
00000010
00000100
00010000
00000100
,
00000010
00000000
00000100
00000000
00000001
00000000
00000100
00001000
,
00000010
00000100
00000010
00000001
,
00000010
00001000
00000010
00010000
,
00002000
00000100
00023000
01000000
,
00032000
00000100
00023000
01000000
,
00031000
00010000
00001000
00010000
00001000
00010000
00001000
00010000
,
00001000
00000000
00000000
00000000
,
02001000
00000000
00100000
00000000
,
03001000
00000000
00010000
00000000
01000000
00100000
00010000
00000000
,
00210000
00000000
10000000
00000000
,
00310000
00000000
00100000
00000000
00001000
00010000
00001000
00000000
,
00010200
00000000
00000010
00000000
,
00000301
00000100
00000010
00000000
00000001
00001000
00000100
00000000
,
00000010
00000000
00000000
00000000
00001000
00000000
00000000
00010000
00000000
00000000
00001000
00000000
00000000
01000000
00000000
00000000
,
00010000
10000000
00100000
01000000
,
00000000
00000000
00011000
00000000
00010000
00000100
00000010
00000000
,
00000001
00000100
00001000
00000000
00000100
00001000
00010000
00000000
,
00001000
00000000
00100000
00000000
00010000
01000000
10000000
00000000
,
10000000
01000000
00010000
00000000
00200000
00000000
01300000
00000000
,
11000000
00000000
10000000
00100000
01000000
00000000
00001000
00000000
,
00010000
00000100
00000010
00000000
00000001
00000000
00001000
00000000
,
00000010
00010000
00001000
00000000
00010000
00000000
00011000
00000000
,
00001000
00000000
00000000
00010000
00000000
00000000
01000000
00000000
00000000
00100000
00000000
00000000
00010000
00000000
00000000
00000000
,
10020000
00030000
20000000
30000000
,
02000000
03000000
00200000
00300000
,
00020000
00030000
02000000
03000000
,
00002000
00003000
00020000
00030000
,
00000020
00000000
00000200
00000300
,
00000002
00000003
00000200
00000300
,
00002000
00003000
00020000
00030000
,
00002000
00000000
00000000
00000000
00003000
00000000
00000000
00000000
00000200
00000000
00000000
00000000
00000000
00000000
00000000
00000330
,
00000000
00000000
00000000
00000000
;
#NOTES:
     dance-double:
     :
     Hard:
     14:
     :
00000000
00000000
00000000
00000000
,
00000000
00000000
00000000
00000000
,
00000000
00000000
00000000
00000000
,
00000000
00000000
00000000
00000000
,
00000000
00000000
00000000
00000000
,
00000000
00000000
00000000
00000000
,
00000000
00000000
00000000
00000000
,
00000000
00000000
00000000
00000000
,
00000000
00000000
00000000
00000000
,
00001000
00000000
00000000
00010000
00000000
00000000
00001000
00000000
00000000
00000100
00000000
00000000
00000010
00000000
00001000
00000000
,
00000100
00000000
00000000
00000010
00000000
00000000
00000001
00000000
00000000
00000100
00000000
00000000
00000010
00000000
00001000
00000000
,
00000001
00000000
00000000
00000010
00000000
00000000
00000100
00000000
00000000
00001000
00000000
00000000
00000010
00000000
00010000
00000000
,
00001000
00000000
00000000
00001000
00000000
00000000
00100000
00000000
00000000
00010000
00000000
00000000
10000000
00000000
01000000
00000000
,
00100000
00000000
00000000
00010000
00000000
00000000
00100000
00000000
00010000
00000000
00000000
00100000
00010000
00000000
00000000
00100000
00000000
00000000
00001000
00000000
00010000
00000000
00000000
00001000
,
00010000
00000000
00000000
00000100
00000000
00000000
00001000
00000000
00000100
00000000
00000000
00001000
00000100
00000000
00000000
00001000
00000000
00000000
00000001
00000000
00001000
00000000
00000000
00000001
,
00001000
00000000
00001000
00000000
00000010
00000000
00000010
00000000
00010000
00000000
00010000
00000000
00001000
00010000
00001000
00010000
,
00001000
00001000
00001000
01000000
,
01100000
00000000
00000000
00000000
10010000
00000000
00000000
00010000
01000000
00000000
00100000
00000000
00010000
00000000
00001000
00000000
,
00010000
00000000
01000000
00000000
10000000
00000000
00000000
01000000
00100000
00000000
00001000
00000000
00010000
00000000
00100000
00000000
,
10000000
01000000
01000000
00010000
10000000
00100000
00100000
00010000
,
01000000
00001000
00010000
00000100
00001000
00000010
00000100
00000001
,
00000011
00000000
00000000
00000000
00001001
00000000
00000000
00001000
00000100
00000000
00000010
00000000
00001000
00000000
00010000
00000000
,
00001000
00000000
00000100
00000000
00000001
00000000
00000000
00000100
00000010
00000000
00010000
00000000
00001000
00000000
00000010
00000000
,
00000001
00000100
00000100
00001000
00000001
00000010
00000010
00001000
,
00000100
00000000
00000000
00010000
00000000
00000000
00001000
00000000
00000000
00010000
00000000
00000000
00001000
00000000
00100000
00000000
,
00110000
00000000
00000000
00000000
10010000
00000000
00000000
10000000
00100000
00000000
00010000
00000000
00001000
00000000
00010000
00000000
,
00000010
00000000
00001000
00000000
00000100
00000000
00000000
00010000
00001000
00000000
00000010
00000000
00000001
00000000
00001000
00000000
,
00000001
00000100
00000100
00001000
00000001
00000010
00000010
00001000
,
00000100
00000010
00000001
00000010
00001000
00010000
01000000
10000000
,
00100000
00000000
00000000
00000000
01010000
00000000
00000000
00010000
00100000
00000000
00001000
00000000
00010000
00000000
00100000
00000000
,
00010000
00001000
00100000
01000000
00010000
01000000
00100000
00001000
,
00010000
00100000
01000000
00100000
00010000
00001000
00000100
00000010
,
00001000
00000000
00000000
00001000
00000000
00000000
00001000
00000000
00000000
00001000
00000000
00000000
00001000
00000000
00000001
00000000
,
00000200
00000000
00000320
00000000
,
00002030
00000000
00003000
00000000
,
00000002
00000000
00000023
00000000
,
00000230
00000000
00000300
00000000
,
00020000
00001000
00030020
00001000
,
00020030
00001000
00030200
00001000
,
00020300
00001000
00030020
00000100
,
00001030
00000000
00000100
00000000
00000010
00000000
00000001
00000000
00001000
00000001
00001000
00000001
00001000
00000100
00000010
00000001
,
00001000
00000001
00001000
00000001
00000100
00000010
00000100
00000010
,
00010000
00001000
00010000
00001000
00000010
00000100
00000010
00000100
,
00001000
00010000
00100000
01000000
10000000
00010000
01000000
00100000
,
01000000
00100000
01000000
00100000
01000000
00100000
00010000
00001000
,
00000100
00000010
00001000
00000001
00001000
00000100
00000010
00000100
,
00001000
00000010
00010000
00001000
00010000
00100000
01000000
00010000
,
10000000
01000000
00100000
00010000
00001000
00000100
00000010
00000001
,
00000200
00002300
00023000
00230000
,
00310000
00010000
00001000
00001000
00000100
00001000
00010000
00100000
,
01000000
01000000
00010000
00010000
10000000
01000000
00100000
00010000
,
00100000
00100000
00001000
00001000
00010000
00001000
00000100
00000010
,
00000100
00000000
00000100
00000000
00000001
00000000
00000001
00000000
00001000
00000000
00000001
00000010
00000100
00000000
00000000
00000000
,
00001000
00000000
00000100
00001000
00000000
00000100
00001000
00000100
00001000
00000000
00000100
00010000
00000000
00001000
00010000
00001000
,
00010000
00000000
00001000
00100000
00000000
00010000
00100000
00010000
00100000
00000000
00010000
10000000
00000000
00010000
00100000
01000000
,
20000000
30200000
00320000
00032000
00003200
00000302
00000023
00000230
,
00001300
00000000
00000000
00000000
,
00001020
00000000
00000130
00000100
00001000
00000100
00000100
00000001
,
00000010
00000010
00001000
00000010
00000010
00000001
00001000
00000010
,
00020000
00000000
00031000
00001000
00000010
00001000
00001000
00010000
,
00001000
00010000
00010000
00100000
00010000
00010000
00001000
00100000
,
00020000
00000000
01030000
01000000
10000000
01000000
01000000
00010000
,
00100000
00000000
00001000
00000000
00010000
00000000
00001000
00000000
01000000
00000000
00010000
00000000
10000000
00100000
10000000
00100000
,
01000000
00000000
00000000
00000000
01100000
00000000
00000000
00100000
00000000
00000000
00010000
00000000
00000000
00001000
00000000
00000000
,
00011000
00010000
00000100
00000020
,
00000030
00000000
00000001
00000010
00000100
00000001
00001000
00000010
,
00000100
00010000
00001000
01000000
00100000
00010000
10000000
01000000
,
00200000
00000000
10300000
00010000
00100000
01000000
00010000
10000000
,
00100000
00010000
01000000
00001000
00020000
00000000
00030200
00000000
,
00002300
00000000
00003010
00000001
00001000
00000100
00000001
00000010
,
00001000
00000001
00000100
00001000
00000010
00010000
00001000
00100000
,
00010000
01000000
10000000
00010000
00100000
10000000
01000000
00010000
,
00001000
00000000
00000000
00000100
00000000
00000000
00000001
00000000
00000000
00000010
00000000
00000000
00000100
00000000
00010000
00000000
,
00002000
00000000
00200000
00300000
,
00020000
00030000
00000000
00000000
,
02003000
00000000
00020000
00030000
,
20000000
30000000
00000000
00000000
,
03002000
00000000
00020000
00030000
,
00000020
00000030
00000000
00000000
,
00023000
00000000
00200000
00300000
,
00002000
00000000
00000000
00000000
00003000
00000000
00000000
00000000
00000000
00000000
00000000
00000000
00000000
00000000
00000000
00030000
,
00000000
00000000
00000000
00000000
;
