
//----- song ID: blre -----//
#TITLE:Black or Red?;
#ARTIST:コスモドライバー join. shully & Nimo;
#TITLETRANSLIT:Black or Red;
#ARTISTTRANSLIT:CosMo@BousouP Hige Driver join. shully & Nimo;
#BANNER:Black or Red.png;
#BACKGROUND:Black or Red-bg.png;
#CDTITLE:./CDTitles/RB VOLZZA 2.png;
#MUSIC:Black or Red.ogg;
#SAMPLESTART:55.892;
#SAMPLELENGTH:15;
#BPMS:0=157;
#BGSTAGE:2;
#NOTES:
     dance-single:
     :
     Beginner:
     2:
     :
0000
0000
0000
0000
,
0000
0000
0000
0000
,
0000
0000
0000
0000
,
0000
0000
0000
0000
,
0000
0000
0000
0000
,
0000
0000
0000
0000
,
1000
0000
0000
0000
,
1000
0000
0000
0000
,
0001
0000
0000
0000
,
0001
0000
0000
0000
,
1000
0000
0000
0000
,
0000
0000
0000
0000
,
0010
0000
0000
0000
,
0010
0000
0000
0000
,
0010
0000
0000
0000
,
0100
0000
0000
0000
,
0001
0000
0000
0000
,
1000
0000
0000
0000
,
0001
0000
0000
0000
,
1000
0000
0000
0000
,
0010
0000
0000
0000
,
0010
0000
0000
0000
,
0100
0000
0000
0000
,
0100
0000
0000
0000
,
0001
0000
0000
0000
,
0001
0000
0000
0000
,
1000
0000
0000
0000
,
1000
0000
0000
0000
,
0001
0000
0000
0000
,
1000
0000
0000
0000
,
0001
0000
0000
0000
,
0001
0000
0000
0000
,
1000
0000
0000
0000
,
0001
0000
0000
0000
,
1000
0000
0000
0000
,
1000
0000
0000
0000
,
0001
0000
0000
0000
,
1000
0000
0000
0000
,
1000
0000
0000
0000
,
0001
0000
0001
0000
,
0001
0000
0000
0000
,
0010
0000
0000
0000
,
0010
0000
0000
0000
,
0100
0000
0000
0000
,
0100
0000
0000
0000
,
1000
0000
0000
0000
,
1000
0000
0000
0000
,
0001
0000
0001
0000
,
0001
0000
0000
0000
,
1000
0000
0000
0000
,
0001
0000
0000
0000
,
1000
0000
0000
0000
,
0001
0000
0000
0000
,
1001
0000
0000
0000
,
1000
0000
0000
0000
,
1000
0000
0000
0000
,
1000
0000
0000
0000
,
0000
0000
0000
0000
,
0001
0000
0000
0000
,
0001
0000
0000
0000
,
0001
0000
0000
0000
,
0000
0000
0000
0000
,
0001
0000
0000
0000
,
1000
0000
0000
0000
,
0001
0000
0000
0000
,
1000
0000
0000
0000
,
0010
0000
0000
0000
,
0010
0000
0000
0000
,
0100
0000
0000
0000
,
0100
0000
0000
0000
,
0001
0000
0000
0000
,
1000
0000
0000
0000
,
0001
0000
0000
0000
,
1000
0000
0000
0000
,
0000
0000
0000
0000
;
#NOTES:
     dance-single:
     :
     Easy:
     6:
     :
0000
0000
0000
0000
,
0000
0000
0000
0000
,
0000
0000
0000
0000
,
0000
0000
0000
0000
,
0000
0000
0000
0000
,
0000
0000
0000
0000
,
1000
1000
0001
0001
,
0010
0100
0010
0110
,
0001
0001
1000
1000
,
0010
0100
0010
0110
,
2000
0000
3000
0000
,
0001
0000
1000
0000
,
0001
0000
0010
0000
,
0100
0000
1000
0000
,
0010
0100
0010
0000
,
0100
0010
0100
0000
,
0001
0000
0001
0000
,
1000
0000
1000
0000
,
0001
0010
0100
1000
,
0001
1000
0001
1000
,
0001
0000
1000
0000
,
0001
0000
1000
0000
,
0010
0000
0100
0000
,
0010
0000
0100
0000
,
0001
0010
0001
0000
,
1000
0100
1000
0000
,
0002
0000
0003
0000
,
1000
1000
0001
0001
,
0010
0000
0010
0000
,
0100
0000
0100
0000
,
1000
1000
0010
0010
,
0100
0100
0001
0000
,
0100
0000
0100
0000
,
0010
0000
0010
0000
,
1000
1000
0100
0100
,
0020
0000
0000
0030
,
0000
0000
0010
0010
,
0002
0003
1000
1000
,
0001
1000
0100
0000
,
1000
0100
0010
0001
,
2000
3000
0001
0001
,
1000
0100
1000
0100
,
0010
0001
0010
0001
,
1000
0000
0001
0000
,
0010
0000
0100
0100
,
2000
3000
0001
0001
,
1000
0001
0100
0000
,
0001
0100
0010
1000
,
0002
0003
1000
1000
,
0001
0100
0001
0100
,
0010
1000
0010
1000
,
0001
1000
0001
1000
,
0010
0000
0100
0000
,
0020
0000
0030
1001
,
1000
0001
1000
0000
,
0010
0100
0010
0000
,
1000
0001
1000
0000
,
0010
0100
0010
0000
,
1000
1000
0001
0001
,
0010
0100
0010
0110
,
0001
0001
1000
1000
,
0010
0100
0010
0110
,
2000
0000
3000
0000
,
0002
0000
0003
0000
,
1000
0100
0010
0001
,
1000
0000
0001
0000
,
0010
0001
0010
0001
,
0010
0100
1000
0000
,
1000
1000
0100
0100
,
0010
0010
0001
0001
,
0020
0030
0200
0300
,
2000
0000
0000
0000
,
3000
0000
0000
0000
0000
0000
0000
1000
,
0000
1001
0000
0000
,
0000
0000
0000
0000
;
#NOTES:
     dance-single:
     :
     Medium:
     10:
     :
0000
0000
0000
0000
,
0000
0000
0000
0000
,
0000
0000
0000
0000
,
0000
0000
0000
0000
,
0000
0000
0000
0000
,
0000
0000
0000
1000
,
0001
0000
0000
0000
1000
0000
0000
0010
0000
0000
1000
0000
0100
0000
0000
0000
,
0010
0000
0010
0000
0001
1000
0001
0000
,
1000
0000
0000
0000
0001
0000
0000
0010
0000
0000
0001
0000
0100
0000
0000
0000
,
0010
0000
0010
0000
1000
0001
1000
0000
,
1001
0000
0000
0000
,
0000
0000
0000
0000
,
0000
0000
1000
0000
0001
0000
0000
0100
0000
0000
0010
0000
0100
0000
0000
0000
,
0000
0000
0001
0000
1000
0000
0000
0100
0000
0000
0010
0000
0100
0000
0000
0000
,
0000
0000
1000
0000
0001
0000
0000
0010
0000
0000
0001
0000
1000
0000
0000
0000
,
0001
0000
1000
0000
0100
0010
0100
0000
,
0000
0000
0010
0000
0100
0000
0000
0010
0000
0000
0001
0000
1000
0000
0000
0000
,
0000
0000
0010
0000
0100
0000
0000
0010
0000
0000
1000
0000
0001
0000
0000
0000
,
0000
0000
1000
0000
0100
0000
0000
0010
0000
0000
0001
0000
1000
0000
0000
0000
,
0001
1000
0001
1000
,
1100
1100
0011
0011
,
1100
1100
0011
0011
,
1010
1010
0101
0101
,
1010
1010
0101
0101
,
0000
0000
0001
0000
1000
0000
0000
0010
0000
0000
0100
0000
0001
0000
0000
0000
,
1000
0010
1000
0000
0001
0010
0001
0000
,
2000
0100
0010
3001
,
0002
1003
2000
3001
,
1000
0000
0000
0000
0001
0000
0000
1001
0000
0000
0000
0000
0000
0000
0000
0000
,
0010
0000
0000
0000
0100
0000
0000
0110
0000
0000
0000
0000
0000
0000
0000
0000
,
1000
0100
1000
0100
0010
0001
0010
0001
,
2000
3002
2003
3001
,
1000
0000
0000
0000
0001
0000
0000
1001
0000
0000
0000
0000
0000
0000
0000
0000
,
0010
0000
0000
0000
0100
0000
0000
0110
0000
0000
0000
0000
0000
0000
0000
0000
,
0001
0100
0001
0100
0010
1000
0010
1000
,
0001
0000
0000
0010
0000
0000
0200
0000
0000
0000
0000
0000
0000
0000
0000
0000
,
0300
0000
1001
0000
,
2000
0000
0000
0000
3000
0000
0000
0000
0001
0000
0000
0010
0000
0000
0100
0000
,
0000
1000
0000
1000
0200
0000
0300
0000
,
1000
0100
0010
0001
1000
0100
0010
0001
,
0000
1000
0001
1000
,
1010
1100
1010
1100
,
0011
0000
0101
0000
0100
0001
0010
0200
,
0000
0310
0001
0020
0000
0000
0030
0000
,
0001
1000
0001
1000
,
0002
0000
0000
0000
0003
0000
0000
0000
1000
0000
0000
0010
0000
0000
0100
0000
,
0000
0001
0000
0001
0200
0000
0300
0000
,
0001
0010
0100
1000
0001
0010
0100
1000
,
0000
0001
1000
0001
,
1001
0110
1001
0110
,
1001
0110
1001
0110
,
1001
0000
0110
0000
1001
0000
0001
0020
,
0000
0130
1000
0100
0010
0001
0010
0200
,
0000
0000
0300
0110
,
1000
0000
0000
0000
0001
0000
0000
1000
0000
0000
0010
0000
0100
0000
0000
0000
,
0001
0000
0001
0000
1000
0001
1000
0000
,
0001
0000
0000
0000
1000
0000
0000
0001
0000
0000
0010
0000
0100
0000
0000
0000
,
1000
0000
1000
0000
0001
1000
0001
0000
,
0001
0000
0000
0000
1000
0000
0000
0010
0000
0000
1000
0000
0100
0000
0000
0000
,
0010
0000
0010
0000
0001
1000
0001
0000
,
1000
0000
0000
0000
0001
0000
0000
0010
0000
0000
0001
0000
0100
0000
0000
0000
,
0010
0000
0010
0000
1000
0001
1000
0000
,
0001
0100
0010
0000
1000
0100
0010
0000
,
0100
0010
0001
0000
0100
0010
1000
0000
,
1000
0100
0010
0001
1000
0100
0010
0001
,
1000
0001
0010
0100
,
1000
0100
1000
0100
0010
0001
0010
0001
,
0010
0100
1000
0001
,
1000
0010
1000
0000
0001
0100
0001
0000
,
1000
0100
0010
0001
0000
1000
1001
0000
,
2000
0000
0010
0000
0000
0001
3001
0000
,
1000
1000
0002
0000
,
0000
0000
0003
0000
1000
0100
0010
0001
,
0000
0000
1001
1001
0000
0000
0000
0000
,
0000
0000
0000
0000
;
#NOTES:
     dance-single:
     :
     Hard:
     14:
     :
0000
0000
0000
0000
,
0000
0000
0000
0000
,
0000
0000
0000
0000
,
0000
0000
0000
0000
,
0000
0000
0000
0000
,
0000
0000
0000
1000
,
0010
0000
0000
0000
0100
0000
0000
0001
0000
0000
1000
0000
0100
0010
1000
0000
,
0000
0010
0000
0010
0100
0000
0010
0000
0001
0000
1000
0000
0010
0000
0000
0000
,
0100
0000
0000
0000
0010
0000
0000
1000
0000
0000
0001
0000
0100
0010
0001
0000
,
0000
0000
0010
0000
0010
0100
0000
0001
0000
0000
1000
0000
0010
0000
0000
0000
,
1001
0000
0000
0000
,
0000
0000
0000
0000
,
1000
1100
0000
0000
0000
0000
0000
0000
,
0001
0011
0000
0000
0000
0000
0000
0000
,
0010
0110
0000
0000
0000
0000
0000
0000
,
1001
0000
0000
2000
0000
0000
3010
0000
0001
0000
0010
0000
0200
0000
0300
0000
,
0001
0101
0000
0000
0000
0001
1000
0100
,
0010
0011
0000
0000
0000
1000
0010
0100
,
0010
1010
0000
0000
0000
1000
0001
1000
,
0001
0000
0000
0010
0000
0000
0001
0000
1000
0000
0010
0000
1000
0000
0000
0000
,
1000
0100
0000
0001
0100
0000
1000
0100
0000
0001
0100
0000
1000
0100
0000
0001
,
0100
0000
1000
0100
0000
0001
0100
0000
1000
0000
0100
0000
0010
0000
0001
0000
,
0001
0100
0000
1000
0100
0000
0001
0100
0000
1000
0100
0000
0001
0100
0000
1000
,
0100
0000
0001
0100
0000
1000
0100
0000
0001
0000
0010
0000
0100
0000
1000
0000
,
0000
0000
0100
0000
0010
0000
0000
0100
0000
0000
1000
0000
0001
0000
1000
0000
,
1000
0000
0000
0010
0000
0000
1000
0000
0001
0000
0000
0000
0100
0000
0000
0000
,
0020
1000
0001
0130
,
0110
1010
0101
1001
,
1100
0000
0000
0000
0101
0000
0000
1001
0000
0000
0010
0000
0010
0000
0000
0000
,
0101
0000
0000
0000
1100
0000
0000
1001
0000
0000
0010
0000
0010
0000
0000
0000
,
0000
0001
0010
0001
0100
1000
0100
0010
,
0100
0000
0000
0010
0000
0000
1000
0000
0001
0000
0000
0000
1000
0000
0000
0000
,
0001
0100
0010
0000
1000
0010
0000
0001
0000
0000
0010
0000
1010
0000
0000
0000
,
1000
0100
0010
0000
0001
0010
0000
1000
0000
0000
0010
0000
0011
0000
0000
0000
,
0000
0001
0010
0100
0010
0001
0100
1000
,
0200
0000
0000
0002
0300
0000
0020
0000
0003
0000
0000
0000
0100
0000
0000
0000
,
0001
0000
1030
0000
0000
0010
0001
0010
,
0200
0000
0000
0000
0310
0000
0000
0000
0011
0000
0000
0110
0000
0000
1100
0000
,
0000
0002
0000
0013
0200
0000
0300
1000
,
0100
0000
0010
0000
0001
0000
0010
1000
0000
0000
0010
0000
0001
0000
1001
0000
,
0000
0002
2003
3002
,
0013
0100
0000
0010
0001
0000
0010
0100
0000
0010
0001
0000
0010
0100
0000
0010
,
0001
0000
0010
0100
0000
0010
0001
0000
0001
0000
0010
0000
0100
0000
2000
0000
,
0000
3100
0010
0002
0000
0000
0003
2000
,
0000
3100
0010
0001
1100
0000
0011
0000
,
0020
0000
0000
0000
0130
0000
0000
0000
1100
0000
0000
0110
0000
0000
0011
0000
,
0000
2000
0000
3010
0200
0000
0300
0001
,
0100
0000
0010
0000
1000
0000
0010
0001
0000
0000
0010
0000
1000
0000
1001
0000
,
0000
2000
3002
2003
,
3001
0010
0000
0010
1000
0000
1000
0010
0000
0010
0001
0000
0001
0100
0000
0100
,
1000
0000
1000
0100
0000
0100
0001
0000
0001
0010
0000
0010
1000
0000
1000
0010
,
0000
0010
0001
0000
0001
0100
0000
0100
1000
0000
1000
0100
0000
0100
0002
0000
,
0000
0003
0100
0000
0001
0000
1000
0000
0001
0000
0010
0000
0100
0000
2000
0000
,
0000
0000
3000
0110
,
2000
0000
3000
0000
0200
0000
0300
0002
0000
0000
0103
0000
1000
0100
1000
0000
,
0000
0001
0000
0010
0100
0000
0010
0000
0001
0000
1000
0000
1001
0000
0000
0000
,
0002
0000
0003
0000
0200
0000
0300
2000
0000
0000
3100
0000
0001
0100
0001
0000
,
0000
0000
1000
0000
0100
1000
0000
0010
0000
0000
1000
0000
1001
0000
0000
0000
,
0001
0000
0000
0000
0100
0000
0000
0001
0000
0000
1000
0000
0100
0010
1000
0000
,
0000
0010
0000
0010
0100
0000
0010
0000
0001
0000
1000
0000
0010
0000
0000
0000
,
0100
0000
0000
0000
0010
0000
0000
1000
0000
0000
0001
0000
0100
0010
0001
0000
,
0000
0000
0010
0000
0010
0100
0000
0001
0000
0000
1000
0000
0010
0000
0000
0000
,
2002
0000
0000
0000
,
0000
3003
0000
0000
0010
0100
1001
0000
,
1000
0100
0010
0000
0100
0010
0001
0000
0000
0010
0000
0010
0001
0000
0100
0000
,
0010
0000
1000
0010
0100
0001
0000
1000
0000
0000
0001
0000
1000
0000
0010
0000
,
1000
0100
1000
0000
0001
0010
0001
0000
0010
0100
0010
0000
0100
1000
0100
0000
,
1000
0100
0010
0001
0010
0100
1000
0001
,
1000
1000
0100
0100
0010
0010
0001
0001
,
1000
0000
0010
0000
0001
0000
0010
2000
0000
0000
3001
0000
2000
0000
0000
0000
,
3002
0000
0000
0000
0000
0000
0000
0003
,
0001
0000
0000
0010
0000
0001
1000
0000
0000
0001
0000
0010
0000
0100
0000
1000
,
0000
0100
0000
0010
0000
0001
0000
1000
0000
0100
1000
0000
0001
0010
0001
0000
,
0000
0000
1001
1001
0000
0000
0000
0000
,
0000
0000
0000
0000
;
#NOTES:
     dance-double:
     :
     Easy:
     6:
     :
00000000
00000000
00000000
00000000
,
00000000
00000000
00000000
00000000
,
00000000
00000000
00000000
00000000
,
00000000
00000000
00000000
00000000
,
00000000
00000000
00000000
00000000
,
00000000
00000000
00000000
00000000
,
10000000
10000000
00010000
00010000
,
00100000
00001000
00010000
00011000
,
00010000
00010000
00000010
00000010
,
00000100
00001000
00010000
00011000
,
00020000
00000000
00130000
00000000
,
10000000
00000000
01000000
00000000
,
00010000
00000000
00001000
00000000
,
00010000
00000000
00001000
00000000
,
00100000
00001000
00010000
00000000
,
00000100
00010000
00001000
00000000
,
00010000
00000000
00010000
00000000
,
00001000
00000000
00001000
00000000
,
00100000
00001000
00010000
00000000
,
00000010
00010000
00001000
00000000
,
01000000
00000000
00001000
00000000
,
00010000
00000000
00000010
00000000
,
00010000
00000000
00001000
00000000
,
01000000
00000000
00001000
00000000
,
00010000
00000100
00010000
00000000
,
00001000
00100000
00010000
00000000
,
20000000
00000000
30000000
00000000
,
00020000
00030000
00200000
00300000
,
00101000
00000000
00000000
00000000
,
00011000
00000000
00000000
00000000
,
00001000
00001000
00000010
00000010
,
00000001
00000001
00001000
00000000
,
00010010
00000000
00000000
00000000
,
00011000
00000000
00000000
00000000
,
00010000
00010000
00100000
00100000
,
20000000
00000000
00000000
30000000
,
00000000
00000000
01000000
01000000
,
00020000
00030000
00001000
00010000
,
00000100
00000010
00000001
00000000
,
00000001
00000100
00000010
00001000
,
00000200
00000300
00010000
00010000
,
00001000
00010000
00001000
00010000
,
00001000
00010000
00001000
00010000
,
00001000
00000000
00010000
00000000
,
00000010
00000000
00000100
00000100
,
00002000
00003000
00010000
00001000
,
01000000
00100000
10000000
00000000
,
10000000
01000000
00100000
00010000
,
02000000
03000000
00001000
00001000
,
00010000
00001000
00010000
00001000
,
01000000
00001000
01000000
00001000
,
00010000
00000100
00010000
00000100
,
00000010
00000000
00000100
00000000
,
00002000
00000000
00003000
00001001
,
00000001
00000100
00000010
00000000
,
00000010
00001000
00000100
00000000
,
00000100
00010000
00001000
00000000
,
00001000
00100000
00010000
00000000
,
10000000
10000000
00010000
00010000
,
00100000
00001000
00010000
00011000
,
00010000
00010000
00000010
00000010
,
00000100
00001000
00010000
00011000
,
00020000
00000000
00030000
00000000
,
00200000
00000000
00300000
00000000
,
10000000
01000000
00100000
00010000
,
00100000
00001000
00011000
00000000
,
00010000
00000010
00001000
00000010
,
00000100
00000001
00001000
00000000
,
00000100
00000100
00010000
00010000
,
00001000
00001000
01000000
01000000
,
00200000
00300000
02000000
03000000
,
00020000
00000000
00000000
00000000
,
00030000
00000000
00000000
00000000
00000000
00000000
00000000
10000000
,
00000000
10010000
00000000
00000000
,
00000000
00000000
00000000
00000000
;
#NOTES:
     dance-double:
     :
     Medium:
     11:
     :
00000000
00000000
00000000
00000000
,
00000000
00000000
00000000
00000000
,
00000000
00000000
00000000
00000000
,
00000000
00000000
00000000
00000000
,
00000000
00000000
00000000
00000000
,
00000000
00000000
00000000
10000000
,
10000000
00000000
00000000
00000000
01000000
00000000
00000000
00100000
00000000
00000000
00010000
00000000
00100000
00000000
00000000
00000000
,
00001000
00000000
00010000
00000000
00000010
00001000
00000001
00000000
,
00000001
00000000
00000000
00000000
00000100
00000000
00000000
00000010
00000000
00000000
00001000
00000000
00000010
00000000
00000000
00000000
,
00010000
00000000
00001000
00000000
00100000
00010000
10000000
00000000
,
10010000
00000000
00000000
00000000
,
00000000
00000000
00000000
00000000
,
00000000
00000000
00010000
00000000
00100000
00000000
00000000
01000000
00000000
00000000
00100000
00000000
00010000
00000000
00000000
00000000
,
00000000
00000000
00001000
00000000
00000100
00000000
00000000
00000010
00000000
00000000
00000100
00000000
00001000
00000000
00000000
00000000
,
00000000
00000000
00000001
00000000
00001000
00000000
00000000
00000100
00000000
00000000
00000010
00000000
00000100
00000000
00000000
00000000
,
00010000
00000000
00001000
00000000
00100000
00001000
00010000
00000000
,
00000000
00000000
00001000
00000000
00000010
00000000
00000000
00000100
00000000
00000000
00000010
00000000
00001000
00000000
00000000
00000000
,
00000000
00000000
00010000
00000000
01000000
00000000
00000000
00100000
00000000
00000000
01000000
00000000
00010000
00000000
00000000
00000000
,
00000000
00000000
00001000
00000000
00010000
00000000
00000000
01000000
00000000
00000000
10000000
00000000
00010000
00000000
00000000
00000000
,
10000000
00010000
10000000
00010000
,
00110000
11000000
01100000
10010000
,
01010000
01001000
00011000
00011000
,
00010010
00001010
00000101
00001001
,
00001100
00010100
00011000
00011000
,
00000000
00000000
00001000
00000000
00010000
00000000
00000000
00100000
00000000
00000000
00010000
00000000
00001000
00000000
00000000
00000000
,
00100000
00001000
00010000
00000000
00000100
00010000
00001000
00000000
,
00020000
00001000
00000100
00030010
,
00000020
00001030
00002000
00003001
,
00000001
00000000
00000000
00000000
00001000
00000000
00000000
00001001
00000000
00000000
00000000
00000000
00000000
00000000
00000000
00000000
,
00000010
00000000
00000000
00000000
00000100
00000000
00000000
00000110
00000000
00000000
00000000
00000000
00000000
00000000
00000000
00000000
,
00000001
00000100
00000001
00000100
00000010
00000100
00001000
00010000
,
00002000
02003000
03020000
10030000
,
10000000
00000000
00000000
00000000
00010000
00000000
00000000
10010000
00000000
00000000
00000000
00000000
00000000
00000000
00000000
00000000
,
00100000
00000000
00000000
00000000
01000000
00000000
00000000
01100000
00000000
00000000
00000000
00000000
00000000
00000000
00000000
00000000
,
10000000
01000000
10000000
01000000
00100000
01000000
00010000
00001000
,
00010000
00000000
00000000
00000100
00000000
00000000
00002000
00000000
00000000
00000000
00000000
00000000
00000000
00000000
00000000
00000000
,
00003000
00000000
00001001
00000000
,
00000002
00000000
00000000
00000000
00000003
00000000
00000000
00000000
00000001
00000000
00000000
00000010
00000000
00000000
00000100
00000000
,
00000000
00001000
00000000
00001000
00000020
00000000
00000030
00000000
,
00010000
00001000
00000100
00000010
00010000
00001000
00000100
00000010
,
00000000
00010000
00001000
00010000
,
00101000
01001000
00101000
01001000
,
00010010
00000000
00010100
00000000
00010000
00001000
00000100
00002000
,
00000000
00013000
00100000
02000000
00000000
00000000
03000000
00000000
,
00010000
10000000
00010000
10000000
,
20000000
00000000
00000000
00000000
30000000
00000000
00000000
00000000
10000000
00000000
00000000
01000000
00000000
00000000
00100000
00000000
,
00000000
00010000
00000000
00010000
02000000
00000000
03000000
00000000
,
00001000
00010000
00100000
01000000
00001000
00010000
00100000
01000000
,
00000000
00001000
00010000
00001000
,
00010010
00010100
00010010
00010100
,
00101000
01001000
00101000
01001000
,
10010000
00000000
01100000
00000000
10010000
00000000
10000000
02000000
,
00000000
03100000
00010000
00100000
00010000
00001000
00000100
00020000
,
00000000
00000000
00030000
00011000
,
00001000
00000000
00000000
00000000
00000010
00000000
00000000
00000001
00000000
00000000
00001000
00000000
00000001
00000000
00000000
00000000
,
00000100
00000000
00000010
00000000
00010000
00001000
00010000
00000000
,
00010000
00000000
00000000
00000000
00100000
00000000
00000000
10000000
00000000
00000000
00010000
00000000
10000000
00000000
00000000
00000000
,
01000000
00000000
00100000
00000000
00001000
00100000
00010000
00000000
,
10000000
00000000
00000000
00000000
01000000
00000000
00000000
00100000
00000000
00000000
00010000
00000000
00100000
00000000
00000000
00000000
,
00001000
00000000
00010000
00000000
00000010
00001000
00000001
00000000
,
00000001
00000000
00000000
00000000
00000100
00000000
00000000
00000010
00000000
00000000
00001000
00000000
00000010
00000000
00000000
00000000
,
00010000
00000000
00001000
00000000
00100000
00010000
10000000
00000000
,
10000000
01000000
00100000
00000000
01000000
00010000
00001000
00000000
,
00010000
00001000
00000010
00000000
00000001
00001000
00000001
00000000
,
00000001
00000100
00000010
00000000
00000010
00001000
00010000
00000000
,
00010000
01000000
00100000
00000000
10000000
00000000
00010000
00000000
,
10000000
01000000
00100000
00010000
00100000
00010000
00001000
00000100
,
00001000
00000100
00000010
00000001
,
00000001
00000100
00000001
00000100
00000010
00001000
00000010
00001000
,
00010000
00000000
01000000
00000000
00000000
00010000
10010000
00000000
,
20000000
00000000
00100000
00000000
00000000
00010000
30010000
00000000
,
10000000
01000000
00020000
00000000
,
00000000
00000000
00030000
00000000
00001000
00010000
00001000
00010000
,
00000000
00000000
00011000
00011000
00000000
00000000
00000000
00000000
,
00000000
00000000
00000000
00000000
;
#NOTES:
     dance-double:
     :
     Hard:
     14:
     :
00000000
00000000
00000000
00000000
,
00000000
00000000
00000000
00000000
,
00000000
00000000
00000000
00000000
,
00000000
00000000
00000000
00000000
,
00000000
00000000
00000000
00000000
,
00000000
00000000
00000000
10000000
,
01000000
00000000
00000000
00000000
00100000
00000000
00000000
00001000
00000000
00000000
00010000
00000000
00000100
00001000
00000100
00000000
,
00000000
00001000
00000000
00001000
00000100
00000000
00000010
00000000
00000001
00000000
00001000
00000000
00000001
00000000
00000000
00000000
,
00000100
00000000
00000000
00000000
00000010
00000000
00000000
00010000
00000000
00000000
00001000
00000000
01000000
00010000
01000000
00000000
,
00000000
00000000
00010000
00000000
01000000
00100000
00000000
10000000
00000000
00000000
00010000
00000000
10000000
00000000
00000000
00000000
,
10010000
00000000
00000000
00000000
,
00000000
00000000
00000000
00000000
,
10000000
11000000
00000000
00000000
01000000
00000000
00100000
00000000
,
00010000
00110000
00000000
00000000
00010000
00000000
00001000
00000000
,
00000100
00001100
00000000
00000000
00000100
00000000
00000010
00000000
,
00001001
00000000
00000000
00002000
00000000
00000000
00003001
00000000
00000100
00000000
00000001
00000000
00002000
00000000
00003000
00000000
,
00000001
00000101
00000000
00000000
00000000
00000100
00000010
00001000
,
00000010
00001010
00000000
00000000
00000000
00000010
00010000
00001000
,
01000000
01010000
00000000
00000000
00000000
10000000
00010000
10000000
,
01000000
00000000
00000000
00100000
00000000
00000000
00010000
00000000
00100000
00000000
00001000
00000000
00100000
00000000
00000000
00000000
,
00001000
00010000
00000000
00100000
00010000
00000000
00001000
00010000
00000000
00100000
00010000
00000000
00001000
00010000
00000000
00100000
,
00010000
00000000
00001000
00010000
00000000
00100000
00010000
00000000
00001000
00000000
00010000
00000000
00000100
00000000
00010000
00000000
,
00010000
00001000
00000000
00000010
00001000
00000000
00010000
00001000
00000000
00000010
00001000
00000000
00010000
00001000
00000000
00000010
,
00001000
00000000
00010000
00001000
00000000
00000010
00001000
00000000
00010000
00000000
00001000
00000000
00100000
00000000
00001000
00000000
,
00000000
00000000
00100000
00000000
00010000
00000000
00000000
10000000
00000000
00000000
01000000
00000000
00100000
00000000
00010000
00000000
,
00100000
00000000
00000000
00001000
00000000
00000000
00010000
00000000
00000100
00000000
00000000
00000000
00001000
00000000
00000000
00000000
,
00000020
00001000
00000001
00000130
,
00000110
00000101
00001010
00001001
,
00001100
00000000
00000000
00000000
00011000
00000000
00000000
00110000
00000000
00000000
10000000
00000000
10000000
00000000
00000000
00000000
,
00110000
00000000
00000000
00000000
00011000
00000000
00000000
00001010
00000000
00000000
00000001
00000000
00000001
00000000
00000000
00000000
,
00000000
00000001
00000010
00000001
00001000
00000100
00001000
00000100
,
00010000
00000000
00000000
00001000
00000000
00000000
00100000
00000000
00010000
00000000
00000000
00000000
10000000
00000000
00000000
00000000
,
00010000
00000000
00100000
00000000
01000000
00100000
00000000
00010000
00000000
00000000
00001000
00000000
00001100
00000000
00000000
00000000
,
00001000
00000000
00000100
00000000
00000010
00000100
00000000
00001000
00000000
00000000
00010000
00000000
00110000
00000000
00000000
00000000
,
00000000
00010000
00100000
10000000
00100000
00010000
00001000
00000100
,
00000002
00000000
00000000
00000200
00000003
00000000
00002000
00000000
00000300
00000000
00000000
00000000
00000100
00000000
00000000
00000000
,
00000001
00000000
00003010
00000000
00000000
00000010
00000100
00000010
,
00002000
00000000
00000000
00000000
00003001
00000000
00000000
00000000
00001100
00000000
00000000
00011000
00000000
00000000
00110000
00000000
,
00000000
00020000
00000000
00130000
02000000
00000000
03000000
10000000
,
01000000
00000000
00100000
00000000
00010000
00000000
00001000
00000100
00000000
00000000
00000010
00000000
00000001
00000000
00001001
00000000
,
00000000
00000000
00000000
00000000
00002000
00000000
00000000
00000000
00003200
00000000
00000000
00000000
00020300
00000000
00000000
00030000
,
00001000
00100000
00000000
01000000
00100000
00000000
00001000
00100000
00000000
01000000
00100000
00000000
00001000
00100000
00000000
01000000
,
00100000
00000000
00001000
00100000
00000000
01000000
00100000
00000000
00001000
00000000
00010000
00000000
00001000
00000000
00000020
00000000
,
00000000
00000130
00010000
00002000
00000000
00000000
00003000
00200000
,
00000000
00310000
00100000
01000000
01100000
00000000
10010000
00000000
,
00020000
00000000
00000000
00000000
10030000
00000000
00000000
00000000
01010000
00000000
00000000
00011000
00000000
00000000
00001010
00000000
,
00000000
00002000
00000000
00003010
00000200
00000000
00000300
00000001
,
00000100
00000000
00000010
00000000
00001000
00000000
00010000
01000000
00000000
00000000
00100000
00000000
10000000
00000000
10010000
00000000
,
00000000
00020000
02030000
03002000
,
00013000
00100000
00000000
00100000
10000000
00000000
10000000
01000000
00000000
01000000
00010000
00000000
00010000
00001000
00000000
00001000
,
00000010
00000000
00000010
00000001
00000000
00000001
00000100
00000000
00000100
00001000
00000000
00001000
00010000
00000000
00010000
00100000
,
00000000
00100000
10000000
00000000
10000000
01000000
00000000
01000000
00010000
00000000
00010000
00001000
00000000
00001000
00020000
00000000
,
00000000
00030000
00001000
00000000
00000010
00000000
00000001
00000000
00000010
00000000
00001000
00000000
00010000
00000000
00002000
00000000
,
00000000
00000000
00003000
00011000
,
00020000
00000000
00030000
00000000
00200000
00000000
00300000
02000000
00000000
00000000
03100000
00000000
10000000
01000000
10000000
00000000
,
00000000
00010000
00000000
00100000
01000000
00000000
00100000
00000000
00001000
00000000
00010000
00000000
00011000
00000000
00000000
00000000
,
00002000
00000000
00003000
00000000
00000020
00000000
00000030
00000200
00000000
00000000
00001300
00000000
00000100
00010000
00000100
00000000
,
00000000
00000000
00010000
00000000
00001000
00100000
00000000
00010000
00000000
00000000
10000000
00000000
11000000
00000000
00000000
00000000
,
01000000
00000000
00000000
00000000
00100000
00000000
00000000
00001000
00000000
00000000
00010000
00000000
00000100
00001000
00000100
00000000
,
00000000
00001000
00000000
00001000
00000100
00000000
00000010
00000000
00000001
00000000
00001000
00000000
00000001
00000000
00000000
00000000
,
00000100
00000000
00000000
00000000
00000010
00000000
00000000
00010000
00000000
00000000
00001000
00000000
01000000
00010000
01000000
00000000
,
00000000
00000000
00010000
00000000
01000000
00100000
00000000
10000000
00000000
00000000
00010000
00000000
10000000
00000000
00000000
00000000
,
20020000
00000000
00000000
00000000
,
00000000
30030000
00000000
00000000
00100000
01000000
10010000
00000000
,
10000000
01000000
00100000
00000000
01000000
00100000
00010000
00000000
00000000
00100000
00000000
00100000
00001000
00000000
00010000
00000000
,
00000100
00000000
00001000
00000100
00000010
00000001
00000000
00001000
00000000
00000000
00000001
00000000
00001000
00000000
00000100
00000000
,
00010000
00001000
00010000
00000000
00001000
00010000
00001000
00000000
00100000
00010000
00100000
00000000
01000000
10000000
01000000
00000000
,
10000000
01000000
00100000
00010000
00001000
00000100
00000010
00000001
,
00001000
00001000
00000010
00000010
00000100
00001000
00010000
00100000
,
10000000
00000000
00100000
00000000
00010000
00000000
00100000
20000000
00000000
00000000
30010000
00000000
20000000
00000000
00000000
00000000
,
32000000
00000000
00000000
00000000
00000000
00000000
00000000
03000000
,
10000000
00000000
00000000
00010000
00000000
00100000
00001000
00000000
00000000
00010000
00000000
00000010
00000000
00000100
00000000
00001000
,
00000000
00010000
00000000
00000100
00000000
00001000
00000000
00000010
00000000
00001000
00000001
00000000
00001000
00000100
00001000
00000000
,
00000000
00000000
00001001
00001001
00000000
00000000
00000000
00000000
,
00000000
00000000
00000000
00000000
;
