
//----- song ID: akne -----//
#TITLE:アキネイション;
#ARTIST:ビートまりお(COOL&CREATE);
#TITLETRANSLIT:Aki nation;
#ARTISTTRANSLIT:beatMARIO(COOL&CREATE);
#BANNER:Aki nation.png;
#BACKGROUND:Aki nation-bg.png;
#CDTITLE:./CDTitles/BeatStream AnimTribe.png;
#MUSIC:Aki nation.ogg;
#SAMPLESTART:84.324;
#SAMPLELENGTH:15;
#BPMS:0=185;
#NOTES:
     dance-single:
     :
     Beginner:
     3:
     :
0000
0000
0000
0000
,
0000
0000
0000
0000
,
0000
0000
0000
0000
,
0000
0000
0000
0000
,
0000
0000
0000
0000
,
1000
0000
0000
0000
,
1000
0000
0000
0000
,
0001
0000
0000
0000
,
0001
0000
0000
0000
,
1000
0000
0000
0000
,
0001
0000
0000
0000
,
1000
0000
0000
0000
,
0001
0000
0000
0000
,
0010
0000
0000
0000
,
0010
0000
0000
0000
,
0100
0000
0000
0000
,
0100
0000
0000
0000
,
1000
0000
0000
0000
,
0001
0000
0000
0000
,
0001
0000
0000
0000
,
1000
0000
0000
0000
,
0001
0000
0000
0000
,
1000
0000
0000
0000
,
1000
0000
0000
0000
,
0001
0000
0000
0000
,
0010
0000
0000
0000
,
0100
0000
0000
0000
,
0100
0000
0000
0000
,
0010
0000
0000
0000
,
0001
0000
0000
0000
,
0001
0000
0000
0000
,
1000
0000
0000
0000
,
1000
0000
0000
0000
,
0001
0000
1000
0000
,
0001
0000
0000
0000
,
1000
0000
0001
0000
,
1000
0000
0000
0000
,
0010
0000
0100
0000
,
0010
0000
0000
0000
,
0010
0000
0100
0000
,
0010
0000
0000
0000
,
0001
0000
0000
0000
,
0001
0000
0000
0000
,
1000
0000
0000
0000
,
1000
0000
0000
0000
,
0001
0000
0000
0000
,
1000
0000
0000
0000
,
0001
0000
0000
0000
,
1001
0000
0000
0000
,
1000
0000
0000
0000
,
0001
0000
0000
0000
,
1000
0000
0000
0000
,
0001
0000
0000
0000
,
1000
0000
0000
0000
,
0001
0000
0000
0000
,
1000
0000
0000
0000
,
1000
0000
0000
0000
,
0010
0000
0000
0000
,
0100
0000
0000
0000
,
0010
0000
0000
0000
,
0010
0000
0000
0000
,
0010
0000
0000
0000
,
1000
0000
0000
0000
,
0001
0000
1000
0000
,
0001
0000
0000
0000
,
1000
0000
0000
0000
,
0100
0000
0000
0000
,
0010
0000
0000
0000
,
0001
0000
0000
0000
,
0001
0000
0000
0000
,
0010
0000
0000
0000
,
0100
0000
0000
0000
,
1000
0000
0000
0000
,
0001
0000
1000
0000
,
0001
0000
0000
0000
,
1000
0000
0001
0000
,
1000
0000
0000
0000
,
0010
0000
0000
0000
,
0100
0000
0000
0000
,
0010
0000
0000
0000
,
1000
0000
0001
0000
,
1000
0000
0000
0000
,
1000
0000
1001
0000
,
0000
0000
0000
0000
;
#NOTES:
     dance-single:
     :
     Easy:
     7:
     :
0000
0000
0000
0000
,
0000
0000
0000
0000
,
0000
0000
0000
0000
,
0000
0000
0000
0000
,
0000
0000
0000
0000
,
1000
1000
0010
0000
,
0100
0100
0001
0000
,
0001
0010
0100
1000
,
0001
1000
1001
0000
,
1000
1000
0010
0010
,
0100
0100
0001
0000
,
0001
0001
0100
0100
,
0010
0010
1000
0000
,
0010
0100
0001
0000
,
0010
0100
1000
0000
,
0100
0100
0010
0010
,
0001
1000
1001
0000
,
2000
3000
0002
0003
,
1000
0010
0200
0300
,
0001
1000
0010
0100
,
0010
1000
0001
0000
,
2000
0000
3200
0000
,
0320
0000
0032
0003
,
1000
1000
0010
0010
,
0100
0001
0100
0001
,
0020
0030
0200
0300
,
1000
0100
0020
0030
,
0001
0001
1000
1000
,
0001
1000
1001
0000
,
2000
0000
3002
0000
,
0023
0000
0230
0300
,
1000
1000
0001
1000
,
0020
0000
0030
0000
,
2000
3000
0002
0003
,
1000
0001
1001
0000
,
0020
0030
0200
0300
,
0010
0100
0110
0000
,
0002
0003
2000
3000
,
0001
1000
1001
0000
,
0200
0300
0020
0030
,
0100
0010
0110
0000
,
0001
0010
0001
0000
,
1000
0010
1000
0000
,
1000
0001
0100
0001
,
1000
0001
0002
0003
,
1000
1000
0001
1000
,
0001
0001
1000
0001
,
1000
0100
0010
0001
,
2002
0000
3003
0000
,
1000
1000
0100
0000
,
0010
0010
0001
0000
,
1000
0001
0100
0010
,
1000
0001
1001
0000
,
2000
3000
0001
0100
,
0002
0003
1000
0100
,
1000
0100
0010
0001
,
1000
1000
1000
0000
,
0001
0001
0100
0000
,
0010
0010
1000
0000
,
0001
1000
0100
0010
,
0001
1000
1001
0000
,
2000
0000
3002
0000
,
1003
1000
1000
0000
,
0001
1000
0001
0001
,
1000
0001
1001
0000
,
1000
1000
0010
0010
,
0100
0100
0001
0000
,
0001
0001
0100
0100
,
0010
0010
1000
0000
,
0010
0100
0001
0000
,
0010
0100
1000
0000
,
0100
0100
0010
0010
,
0001
1000
1001
0000
,
0001
0010
0001
0010
,
0100
1000
0100
1000
,
0010
0010
0100
0100
,
0001
1000
1001
0000
,
0001
0001
0010
0001
,
1000
1000
0100
1000
,
0010
0100
0001
1000
,
0010
0010
1000
1000
,
0002
0000
0003
0000
,
1000
0001
1001
0000
,
0000
0000
0000
0000
;
#NOTES:
     dance-single:
     :
     Medium:
     13:
     :
0000
0000
0000
0000
,
0000
0000
0000
0000
,
0000
0000
0000
0000
,
0000
0000
0000
0000
,
0000
0000
0000
0000
,
1000
1000
0001
0001
,
0010
0010
0100
0100
,
0010
0001
0010
0000
0100
1000
0100
0000
,
1001
0110
2002
3003
,
1000
0100
1000
0001
1000
0100
1000
0000
,
1000
0000
0100
0000
1000
0000
0001
0000
0010
0000
0000
0100
1000
0000
0000
0000
,
1000
0100
1000
0001
1000
0100
1000
0000
,
1000
0000
0000
0001
1000
0000
0010
0000
0200
0000
0000
0000
0300
0000
0000
0000
,
0001
0010
0001
0100
0001
0010
0001
0000
,
0001
0000
0010
0000
0001
0000
0100
0000
0001
0000
0000
0100
0010
0000
1000
0000
,
0002
0000
0103
0010
2000
0000
3100
0010
,
0110
1001
0220
0330
,
0002
0000
0000
0000
0000
0000
1003
0100
1000
0000
0010
0000
0100
0000
0020
0000
,
0000
0000
0000
0000
2030
0000
0000
0000
3200
0000
0000
0000
0000
0000
0000
0000
0320
0000
0000
0000
0000
0000
0000
0000
0000
0030
0000
0000
0001
0000
0010
0000
,
0001
0000
0000
1000
0000
0000
0001
0000
0010
0000
0100
0000
1000
0000
0100
0000
,
2000
0000
3100
0010
0100
0000
1000
0000
0002
0000
0000
0000
0003
0000
0000
0000
,
2000
0000
0000
0000
0000
0000
3001
0100
0001
0000
0010
0000
0100
0000
0020
0000
,
0000
0032
0203
0000
0320
0000
2030
0000
,
3002
0000
0013
0100
1000
0100
0010
0100
,
2000
0001
0010
3100
,
0200
0000
0000
0000
0000
0000
0310
0001
0010
0000
0100
0000
1000
0000
0002
0000
,
0000
0000
0000
0000
0203
0000
0000
0000
0320
0000
0000
0000
0000
0000
0000
0000
2030
0000
0000
0000
0000
0000
0000
0000
0000
3000
0000
0000
0001
0000
0100
0000
,
0001
0000
0000
1000
0000
0000
0001
0000
0010
0000
0100
0000
1000
0000
0010
0000
,
2000
0000
3010
0100
0010
0000
1000
0000
0002
0000
0000
0000
0003
0000
0000
0000
,
2000
0000
0000
0000
0000
0000
3100
1000
0100
0000
0010
0000
0001
0000
0010
0000
,
0200
0000
2300
0000
3001
0100
0010
0100
,
0001
0010
0100
1000
,
0200
0001
0010
1300
,
2200
3300
0022
0033
,
0011
0110
2200
3300
,
0002
0000
0000
0000
1003
0000
0000
0010
0100
0000
1000
0000
0100
0000
0001
0000
,
0100
0010
0100
0010
0200
0000
0300
0000
,
0202
0303
2020
3030
,
1010
0110
0202
0303
,
2000
0000
0000
0000
3001
0000
0000
1000
0100
0000
0001
0000
0100
0000
1000
0000
,
0001
1000
0001
1000
0002
0000
0003
0000
,
0020
0000
0000
0000
0130
0000
0000
0010
0001
0000
0010
0000
1000
0000
0010
0000
,
0001
0100
0001
0100
0001
0000
1000
0010
,
0200
0000
0000
0000
0310
0000
0000
0100
0001
0000
0100
0000
1000
0000
0100
0000
,
0001
0010
0001
0010
0002
0000
0003
0000
,
1000
0010
0200
0000
0301
0010
0200
0000
,
1300
0100
0020
0000
0031
0100
0020
0000
,
1030
0100
0010
0001
,
2000
0000
0000
0000
0000
3001
0100
0010
,
1000
0000
0001
0000
0010
0001
0010
0000
0100
0000
1000
0000
0001
0000
0000
0000
,
0001
0000
1000
0000
0010
1000
0010
0000
0100
0000
0001
0000
1000
0000
0000
0000
,
1000
0100
0001
0100
0010
0001
0100
1000
,
0100
0000
0000
0001
0000
0000
1000
0000
0002
0000
0000
0000
0003
0000
0000
0000
,
2000
0000
0000
0000
3001
0010
0100
1000
,
0001
0100
0001
1000
0200
0000
0300
0000
,
1000
0100
0010
0001
,
0010
0000
0000
0001
0000
0000
1000
0000
0001
0000
0000
0000
0000
0000
0000
0000
,
0001
0000
1000
0000
0100
1000
0100
0000
0010
0000
0001
0000
1000
0000
0000
0000
,
1000
0000
0001
0000
0100
0001
0100
0000
0010
0000
1000
0000
0001
0000
0000
0000
,
0001
0010
1000
0010
0100
1000
0010
0001
,
0010
0000
0000
1000
0000
0000
0001
0000
1000
0000
0000
0000
0100
0000
0010
0000
,
0002
0000
0000
0000
1003
0100
0010
0001
,
1000
0000
0100
0010
0100
0000
1000
0000
0002
0000
0000
0000
0003
0000
0000
0000
,
0001
0000
0000
1000
0000
0000
0010
0000
1000
0000
0010
0000
0100
0000
0010
0000
,
1000
0000
0000
0001
0000
0000
1000
0000
1001
0000
0000
0000
0000
0000
0000
0000
,
0001
0100
0001
1000
0001
0100
0001
0000
,
0001
0000
0100
0000
0001
0000
1000
0000
0010
0000
0000
0100
0001
0000
0000
0000
,
0001
0100
0001
1000
0001
0100
0001
0000
,
0001
0000
0000
1000
0001
0000
0010
0000
0200
0000
0000
0000
0300
0000
0000
0000
,
1000
0010
1000
0100
1000
0010
1000
0000
,
1000
0000
0010
0000
1000
0000
0100
0000
1000
0000
0000
0100
0010
0000
0000
0000
,
0100
1000
0100
0010
0001
0100
0001
0000
,
0001
1000
0001
0100
0001
0010
0100
1000
,
0010
0100
0001
0100
0010
0100
0001
0000
,
0001
0000
0100
0000
1000
0000
0100
0000
0001
0000
0000
0100
0001
0000
0000
0000
,
0100
0010
1000
0010
0100
0010
1000
0000
,
0010
0000
0000
0100
0001
0000
1000
0000
0002
0000
0000
0000
0003
0000
0000
0000
,
0001
0100
0010
0100
0001
1000
0001
0000
,
1000
0000
0010
0000
0100
0000
0001
0000
1000
0000
0000
0100
0010
0000
0000
0000
,
0002
0000
0000
0000
1003
0000
0100
0000
0010
0000
0001
0010
0001
0000
1000
0000
,
0100
0000
0010
0000
0001
0010
0100
1000
,
0200
0000
0000
0300
,
1000
0000
0000
0001
0000
0000
1000
0000
0002
0000
0000
0000
0000
0000
0000
0000
,
0000
0000
0000
0000
,
0003
0000
0000
0000
,
0000
0000
0000
0000
;
#NOTES:
     dance-single:
     :
     Hard:
     16:
     :
0000
0000
0000
0000
,
0000
0000
0000
0000
,
0000
0000
0000
0000
,
0000
0000
0000
0000
,
0000
0000
0000
0000
,
1000
0100
1000
0001
1000
0100
1000
0001
,
1000
0000
0100
0000
1000
0000
0001
0000
0010
0000
0000
0001
0010
0000
0100
0000
,
1000
0100
1000
0001
0010
0001
0010
0100
,
1001
0000
0000
0000
0110
0000
0000
0000
1001
0000
1000
0100
1000
0000
0001
0000
,
1000
0000
0100
1000
0100
0000
0001
0000
0100
0000
1000
0100
1000
0000
0001
0000
,
1000
0000
0001
0010
0001
0000
1000
0000
0100
0000
0000
0010
0100
0000
0001
0000
,
0100
0000
1000
0100
1000
0000
0010
0000
0001
0000
0010
0100
0010
0000
1000
0100
,
1000
0000
0000
0001
1000
0000
0010
0000
0100
0000
0001
0100
0001
0000
1000
0000
,
0100
0000
0010
0100
0010
0000
0001
0000
0100
0000
1000
0100
1000
0000
0100
0000
,
0010
0000
0100
0001
0100
0000
0010
0000
1000
0000
0000
0100
0010
0000
0001
0000
,
2000
0000
0000
0000
3100
0000
0001
0000
0100
0000
1000
0100
1000
0000
0010
0000
,
0001
0000
0010
0100
0010
0000
1000
0000
0001
0000
1000
0100
1000
0000
0010
0000
,
2000
0000
0000
0000
3001
0000
0001
0010
0100
0000
0010
0000
0100
0000
2000
0000
,
0000
0000
3100
0000
0010
0000
0001
0000
0200
0000
0000
0000
1300
0000
0100
0010
,
0100
0000
0000
0001
0000
0000
1000
0000
0010
0100
0001
0000
0010
0000
0100
0000
,
0002
0000
0103
0010
0001
0000
0010
0000
0200
0000
1000
0000
1300
0000
0000
0000
,
0002
0000
0000
0000
1003
0000
1000
0010
0100
0000
0010
0000
0100
0000
0002
0000
,
0000
0103
0010
1000
0200
0000
0301
0100
,
2000
0000
3001
0100
1000
0001
0010
1000
,
0020
0000
1030
0100
1000
0000
0001
0010
0001
0000
1000
0010
1000
0000
0001
0000
,
2000
0000
0000
0000
3001
0000
0001
0100
0010
0000
0100
0000
0010
0000
2000
0000
,
0000
0000
3010
0000
0100
0000
0001
0000
0020
0000
0000
0000
1030
0000
0010
0100
,
0010
0000
0000
0001
0000
0000
1000
0000
0100
0010
0001
0000
0100
0000
0010
0000
,
0002
0000
0013
0100
0001
0000
0100
0000
0020
0000
1000
0000
1030
0000
0000
0000
,
0002
0000
0000
0000
1003
0000
1000
0100
0010
0000
0100
0000
0010
0000
0001
0000
,
0200
0010
0302
1000
0023
0032
0023
0230
,
1300
0010
1000
0001
1000
0100
0001
0100
,
1000
0100
1000
0100
0010
0001
0010
0001
1000
0010
1000
0010
0100
0001
0100
0001
,
2000
0000
0000
0000
3001
0000
0000
1000
0100
0000
0100
0000
0010
0000
0001
0000
,
1000
0100
1000
0100
0011
0000
0001
0010
,
0002
0000
0000
0000
1003
0000
0000
0001
0100
0000
0100
0000
0010
0000
1000
0000
,
0001
0000
0100
0001
0100
0000
0001
0000
1000
0000
0100
1000
0100
0000
0010
0000
,
0200
0000
0000
0000
0301
0000
0000
0100
1000
0000
0010
0000
0001
0000
0010
0000
,
0100
0010
0100
0010
1001
0000
0001
0100
,
0020
0000
0000
0000
0031
0000
0000
0010
1000
0000
0100
0000
0001
0000
0100
0000
,
1000
0000
0100
0010
0100
0000
0010
0000
0001
0000
1000
0001
1000
0000
0001
0000
,
2000
0000
0000
0000
3001
0000
0000
1000
0100
0000
0100
0000
0010
0000
0001
0000
,
1000
0100
1000
0100
0011
0000
0001
0010
,
0002
0000
0000
0000
1003
0000
0000
0001
0100
0000
0100
0000
0010
0000
1000
0000
,
0001
0000
0100
0001
0100
0000
0001
0000
1000
0000
0100
1000
0100
0000
0010
0000
,
0001
0000
0100
0001
0100
0000
0100
0000
0010
0000
1000
0010
1000
0000
1000
0000
,
0100
0000
0100
0010
0100
0000
0100
0000
0010
0000
0010
0001
0010
0000
0010
0000
,
0001
0100
0001
0010
0001
1000
0001
0100
,
0002
0000
1000
0000
1000
0000
1003
0000
0001
0000
0010
0100
1000
0000
0001
0000
,
1000
0000
0010
0000
1000
0100
1000
0100
1000
0000
0010
0000
0001
0000
0010
0000
,
1000
0000
0100
0000
1000
0010
1000
0010
1000
0000
0100
0000
0001
0000
0100
0000
,
1000
0000
0100
0000
0010
0001
0010
0001
1000
0000
0001
0000
0100
0010
0100
0010
,
1000
0000
0000
0001
0000
0000
0010
0000
0001
0000
0010
0100
0010
0000
0001
0000
,
1000
0000
0100
0000
0010
0000
0001
0100
0010
0000
1000
0010
0100
0000
0001
0000
,
1000
0000
0010
0000
0001
0000
0010
0000
1000
0000
0100
1000
0100
0000
0010
0000
,
0001
0000
0100
0000
0001
0000
1000
0000
0001
0000
0010
0000
0001
0000
1000
0100
,
0010
0000
0000
0001
0000
0000
1000
0000
1001
0000
1000
0000
0010
0000
0100
0000
,
0001
0000
0010
0000
0001
0100
0010
1000
0001
0000
0010
0000
1000
0000
0010
0000
,
0001
0000
0100
0000
0001
0100
0010
1000
0001
0000
0100
0000
1000
0000
0100
0000
,
0001
0000
0100
0000
0010
1000
0010
1000
0001
0000
1000
0000
0100
0010
0100
0010
,
0001
0000
0000
1000
0000
0000
0010
0000
1000
0000
0010
0100
0010
0000
1000
0000
,
0002
0100
0100
0103
0001
0010
0100
1000
,
0001
0000
0100
0010
1000
0000
0100
0000
0010
0000
0100
0010
0001
0000
1000
0000
,
0100
0000
0010
0001
0010
0000
0100
0000
0001
0000
0100
0000
1000
0000
0100
0000
,
1000
0000
0000
0001
0000
0000
0100
0000
1001
0000
0000
0000
1000
0000
0010
0000
,
1000
0000
0100
1000
0100
0000
0001
0000
0100
0000
0010
0001
0010
0000
0001
0000
,
1000
0000
0100
0010
0100
0000
1000
0000
0010
0000
0000
0100
0010
0000
0100
0000
,
0001
0000
1000
0010
1000
0000
0010
0000
0001
0000
0010
1000
0010
0000
0100
0001
,
0100
0000
0000
0001
1000
0000
0010
0000
0100
0000
0001
0100
0001
0000
0100
0000
,
1000
0000
0100
0001
0100
0000
0001
0000
1000
0000
0100
0001
0100
0000
1000
0000
,
0001
0000
0100
0001
0100
0000
0001
0000
1000
0000
0000
0100
1000
0000
0001
0000
,
0011
0000
1000
0100
1000
0000
0000
0000
1100
0000
0001
0010
0001
0000
0000
0000
,
2010
0000
3000
0000
0102
0000
0003
0000
2001
0000
3000
0001
0100
0000
0010
0000
,
1000
0000
0001
0100
0001
0000
0010
0000
0100
0000
1000
0010
1000
0000
0001
0000
,
1000
0000
0010
0100
0010
0000
0001
0000
0010
0000
0000
0100
0001
0000
0100
0000
,
1000
0000
0100
1000
0100
0000
0010
0000
0001
0000
0010
0100
0010
0000
1000
0010
,
1000
0000
0000
0001
1000
0000
0100
0000
0001
0000
0100
0010
0100
0000
1000
0000
,
0001
0000
1000
0100
0001
0000
0100
0000
1000
0000
0001
0100
1000
0000
0100
0000
,
0001
0000
1000
0100
0001
0000
0100
0000
1000
0000
0000
0010
1000
0000
0010
0000
,
2000
0000
0000
0000
3001
0000
0010
0000
1000
0000
0010
0001
0010
0000
0100
0000
,
1100
0000
0101
0000
0001
0010
0100
1000
,
2002
0000
0000
3003
,
0011
0000
0000
1010
0000
0000
0110
0000
2002
0000
0000
0000
0000
0000
0000
0000
,
0000
0000
0000
0000
,
3003
0000
0000
0000
,
0000
0000
0000
0000
;
#NOTES:
     dance-double:
     :
     Easy:
     8:
     :
00000000
00000000
00000000
00000000
,
00000000
00000000
00000000
00000000
,
00000000
00000000
00000000
00000000
,
00000000
00000000
00000000
00000000
,
00000000
00000000
00000000
00000000
,
10000000
01000000
00100000
00000000
,
01000000
00010000
00001000
00000000
,
00010000
00001000
00010000
00001000
,
00000010
00000100
00001001
00000000
,
00000001
00000001
00001000
00001000
,
00000100
00010000
00001000
00100000
,
00010000
00010000
10000000
10000000
,
00100000
00100000
01000000
00000000
,
01000000
00001000
00010000
00000000
,
00000100
00010000
00001000
00000000
,
00010000
00001000
00000010
00000001
,
00001000
00000001
00001001
00000000
,
00000002
00000003
00000100
00000001
,
00000010
00000100
00002000
00003000
,
00000100
00010000
00001000
00010000
,
00100000
10000000
00020000
00030000
,
20000000
00000000
32000000
00000000
,
03200000
00000000
00302000
00000000
,
00023000
00000000
00032000
00000000
,
00023000
00030200
00002300
00003002
,
00000203
00000300
00000010
00000100
,
00001000
00010000
00002000
00003000
,
00100000
00010000
01000000
00010000
,
10000000
00010000
10010000
00000000
,
20000000
00000000
32000000
00000000
,
03020000
00000000
00032000
00003000
,
00010000
00001000
00000010
00000100
,
00000020
00000000
00000030
00000000
,
00000002
00000003
00002000
00003000
,
00000001
00001000
00000001
00000000
,
00000020
00000030
00000200
00000300
,
00010000
00001000
00100000
00000000
,
00020000
00030000
20000000
30000000
,
00010000
10000000
00010000
00000000
,
02000000
03000000
00200000
00300000
,
01000000
00001000
00011000
00000000
,
00010000
00100000
00010000
00000000
,
00001000
00000010
00001000
00000000
,
00010000
01000000
00010000
00000000
,
00001000
00000100
00001000
00000000
,
00010000
00010000
00100000
00010000
,
00001000
00001000
00000010
00001000
,
00010000
00001000
00000010
00000100
,
00000220
00000000
00000330
00000000
,
00000010
00000100
00001000
00000000
,
00000001
00000010
00000100
00000000
,
00001000
00000100
00010000
00001000
,
00100000
00010000
00110000
00000000
,
20000000
30000000
01000000
00100000
,
00020000
00030000
00100000
00001000
,
00010000
00001000
00010000
00000100
,
00001000
00000001
00001001
00000000
,
00000001
00000010
00000001
00000000
,
00001000
00000100
00010000
00000000
,
00001000
00010000
00100000
10000000
,
01000000
00100000
00001000
00010000
,
00002000
00000000
00003200
00000000
,
00000310
00001000
00000100
00000000
,
00001000
00000100
00010000
00001000
,
00100000
01000000
10010000
00000000
,
10000000
10000000
00010000
00010000
,
01000000
00001000
00010000
00000010
,
00001000
00001000
00000001
00000001
,
00000010
00000010
00000100
00000000
,
00000100
00010000
00001000
00000000
,
01000000
00001000
00010000
00000000
,
00001000
00010000
00100000
10000000
,
00010000
10000000
10010000
00000000
,
10000000
01000000
10000000
01000000
,
00100000
00010000
00100000
00001000
,
00010000
00001000
00010000
00000100
,
00001000
00000001
00001001
00000000
,
00000001
00000100
00000001
00000100
,
00000010
00001000
00000010
00010000
,
00001000
00100000
00010000
10000000
,
00100000
00100000
00010000
00001000
,
00020000
00000000
00030000
00000000
,
00000100
00001000
00001001
00000000
,
00000000
00000000
00000000
00000000
;
#NOTES:
     dance-double:
     :
     Medium:
     13:
     :
00000000
00000000
00000000
00000000
,
00000000
00000000
00000000
00000000
,
00000000
00000000
00000000
00000000
,
00000000
00000000
00000000
00000000
,
00000000
00000000
00000000
00000000
,
00000001
00000001
00000010
00000010
,
00000100
00000100
00010000
00010000
,
00001000
00010000
00001000
00100000
00010000
00100000
00010000
01000000
,
01010000
00101000
00022000
00033000
,
00010000
00001000
00000010
00000000
00000100
00000010
00000001
00000000
,
00000100
00000010
00010000
00001000
01000000
00010000
00100000
00000000
,
00001000
00010000
00100000
00000000
01000000
00100000
10000000
00000000
,
11000000
00000000
10000000
01000000
00200000
00000000
00300000
00000000
,
00010000
00100000
00001000
00000000
00010000
00000100
00001000
00000000
,
00000010
00000100
00000001
00000010
00000100
00000000
00010000
00001000
,
00200000
00000000
00301000
00010000
00000200
00000000
00010300
00001000
,
00011000
00110000
02200000
03300000
,
20000000
00000000
00000000
30000000
01000000
00100000
01000000
00200000
,
00000000
00302000
00023000
00000000
00030200
00000000
00000000
00001300
,
00000010
00000000
00000000
00000100
00000000
00000000
00000010
00000000
00000100
00000000
00001000
00000000
00010000
00000000
00001000
00000000
,
00000100
00000010
00001000
00000010
00000200
00000000
00000300
00000000
,
00000002
00000000
00000000
00000003
00000100
00000010
00000100
00000020
,
00000000
00020030
00032000
00000000
02003000
00000000
03020000
00000000
,
00230000
00000000
01300000
00100000
00010000
00100000
00001000
00010000
,
00000200
00010000
00001000
00000310
,
00000020
00000000
00000000
00000031
00000010
00001000
00000010
00000002
,
00000000
00000203
00000320
00000000
00020030
00000000
00000000
00031000
,
00010000
00000000
00000000
00000100
00000000
00000000
00010000
00000000
00001000
00000000
00010000
00000000
01000000
00000000
10000000
00000000
,
02000000
00000000
13000000
01000000
00200000
00000000
00300000
00000000
,
00020000
00000000
00000000
00130000
00001000
00010000
00000100
00001000
,
00000020
00000000
00000230
00000000
00000310
00000100
00001000
00010000
,
00100000
00010000
00001000
00000100
,
00000020
00010000
00001000
00000130
,
00002020
00003030
00000202
00000303
,
00000100
00000001
00000100
00000001
00000200
00000000
00000300
00000000
,
00000020
00000000
00000000
00000000
00001030
00000000
00000000
00000100
00001000
00000000
00000100
00000000
00010000
00000000
00001000
00000000
,
00100000
00010000
10000000
00100000
02000000
00000000
03000000
00000000
,
00220000
00330000
22000000
33000000
,
01000000
10000000
01000000
10000000
02000000
00000000
03000000
00000000
,
00200000
00000000
00000000
00000000
00310000
00000000
00000000
01000000
00010000
00000000
01000000
00000000
00001000
00000000
00010000
00000000
,
00000010
00001000
00000001
00000010
00000200
00000000
00000300
00000000
,
00020000
00000000
00032000
00000000
00013000
00100000
00010000
00001000
,
00010000
00000100
00010000
00000100
00010000
00000000
00000000
00000000
,
00002000
00000000
00023000
00000000
00031000
00000010
00001000
00010000
,
00001000
01000000
00001000
01000000
00002000
00000000
00003000
00000000
,
00010000
00001000
02000000
00000000
03001000
00010000
00000200
00000000
,
00001300
00000100
00020000
00000000
00031000
00010000
00200000
00000000
,
10300000
01000000
00010000
00001000
,
00000020
00000000
00000000
00000030
,
00000001
00000010
00000100
00000010
00000001
00000000
00001001
00000000
,
00000001
00000100
00000010
00001000
00000010
00000000
00010010
00000000
,
00000010
00001000
00010000
01000000
00100000
00010000
00001000
00010000
,
00011000
00000000
00110000
00000000
01100000
00000000
10000000
00010000
,
20000000
00000000
00000000
00000000
31000000
00100000
00001000
00010000
,
00002000
00000000
00013000
00000100
00000020
00000000
00000030
00000000
,
00000001
00000100
00001000
00010000
,
00001000
00000000
00000000
00100000
00000000
00000000
00010000
00000000
10010000
00000000
00000000
00000000
00000000
00000000
00000000
00000000
,
10000000
01000000
00100000
01000000
10000000
00000000
10010000
00000000
,
10000000
01000000
00100000
00010000
00100000
00000000
00101000
00000000
,
00100000
00001000
00010000
00000100
00000010
00001000
00010000
00001000
,
00011000
00000000
00001010
00000000
00000110
00000000
00000001
00001000
,
00000002
00000000
00000000
00000000
00000103
00000010
00001000
00000100
,
00010000
00001000
01000000
00010000
20000000
00000000
30000000
00000000
,
00100000
00000000
00000000
10000000
00000000
00000000
00010000
00000000
00100000
00000000
00001000
00000000
00010000
00000000
00000100
00000000
,
00010000
00000000
00000000
00001000
00000000
00000000
00010000
00000000
00011000
00000000
00000000
00000000
00000000
00000000
00000000
00000000
,
00010000
00001000
00000100
00000000
00000010
00000100
00000001
00000000
,
00000010
00000100
00010000
00001000
01000000
00010000
00100000
00000000
,
00001000
00010000
01000000
00000000
00100000
01000000
10000000
00000000
,
11000000
00000000
10000000
01000000
00200000
00000000
00300000
00000000
,
00010000
00100000
00001000
00000000
00010000
00000100
00001000
00000000
,
00000010
00000100
00000001
00000010
00000100
00000000
00010000
00001000
,
00200000
00000000
00301000
00010000
00000200
00000000
00010300
00001000
,
00101000
00010100
00022000
00033000
,
00001000
00010000
00100000
00000000
01000000
00100000
10000000
00000000
,
01000000
00100000
00001000
00010000
00000100
00001000
00000010
00000000
,
00010000
00001000
00000100
00000000
00000010
00000100
00000001
00000000
,
00000101
00000000
00000001
00000100
00000020
00000000
00000030
00000000
,
00001000
00000010
00010000
00000000
00001000
01000000
00010000
00000000
,
01000000
00100000
10000000
01000000
00100000
00000000
00001000
00010000
,
00000020
00000000
00010030
00001000
02000000
00000000
03001000
00010000
,
00010100
00000000
00001010
00000000
00000001
00000010
00000100
00010000
,
00002000
00000000
00000000
00003000
,
00010000
00000000
00000000
00001000
00000000
00000000
00100000
00000000
20020000
00000000
00000000
00000000
00000000
00000000
00000000
00000000
,
00000000
00000000
00000000
00000000
,
30030000
00000000
00000000
00000000
,
00000000
00000000
00000000
00000000
;
#NOTES:
     dance-double:
     :
     Hard:
     16:
     :
00000000
00000000
00000000
00000000
,
00000000
00000000
00000000
00000000
,
00000000
00000000
00000000
00000000
,
00000000
00000000
00000000
00000000
,
00000000
00000000
00000000
00000000
,
10000000
01000000
10000000
00010000
10000000
01000000
10000000
00010000
,
10000000
00000000
01000000
00000000
00100000
00000000
00001000
00000000
00010000
00000000
00000000
00000100
00001000
00000000
00000010
00000000
,
00001000
00000100
00001000
00000001
00000010
00000001
00000010
00000100
,
00001001
00000000
00010100
00000000
00101000
00000000
00100000
00010000
,
10000000
00000000
00010000
00100000
00010000
00000000
10000000
00000000
00010000
00000000
10000000
01000000
10000000
00000000
00010000
00000000
,
00100000
00000000
00001000
00010000
00001000
00000000
00010000
00000000
00000100
00000000
00000000
00000010
00000100
00000000
00001000
00000000
,
00000100
00000000
00001000
00000100
00001000
00000000
00000001
00000000
00000100
00000000
00000010
00001000
00000010
00000000
00001000
00000100
,
00001000
00000000
00000000
00000100
00010000
00000000
00001000
00000000
00200000
00000000
00000000
00000000
00310000
00000000
00000000
00000000
,
10000000
00000000
00010000
01000000
00010000
00000000
00100000
00000000
01000000
00000000
10000000
01000000
10000000
00000000
00100000
00000000
,
01000000
00000000
00010000
00100000
00001000
00000000
00010000
00000000
00000100
00000000
00000000
00001000
00000100
00000000
00000010
00000000
,
00000002
00000000
00000000
00000000
00001003
00000000
00000100
00000000
00000010
00000000
00000001
00000010
00000001
00000000
00000100
00000000
,
00001001
00001100
00011000
00110000
,
00020000
00000000
00000000
00000000
00030000
00000000
00010000
00100000
01000000
00000000
00100000
00000000
01000000
00000000
20000000
00000000
,
00000000
00000000
31000000
00000000
00100000
00000000
00010000
00000000
00002000
00000000
00000000
00000000
00003000
00000000
00001000
00000100
,
00001000
00000000
00000000
00000010
00000000
00000000
00001000
00000000
00000010
00000100
00000001
00000000
00000100
00000000
00000010
00000000
,
00002000
00000000
00003100
00000010
00000001
00000000
00000010
00000000
00000200
00000000
00000000
00000000
00000300
00000000
00000000
00000000
,
00002000
00000000
00000000
00000000
00003100
00000000
00010000
00001000
00010000
00000000
00100000
00000000
01000000
00000000
00020000
00000000
,
00000000
01030000
00100000
10000000
02000000
00000000
03020000
00000000
,
00032000
00000000
00003010
00000001
00000100
00001000
00010000
00001000
,
00020000
00000000
00031000
00010000
00000100
00000000
00000010
00000100
00000010
00000000
00000001
00000010
00000001
00000000
00000000
00000000
,
00002000
00000000
00000000
00000000
00003001
00000000
00001000
00000010
00000100
00000000
00000010
00000000
00000100
00000000
00000002
00000000
,
00000000
00000000
00000103
00000000
00000010
00000000
00001000
00000000
00020000
00000000
00000000
00000000
00030000
00000000
00010000
01000000
,
00010000
00000000
00000000
00100000
00000000
00000000
00010000
00000000
00100000
01000000
10000000
00000000
01000000
00000000
00100000
00000000
,
00020000
00000000
01030000
00100000
10000000
00000000
00100000
00000000
02000000
00000000
00000000
00000000
03000000
00000000
00000000
00000000
,
00020000
00000000
00000000
00000000
01030000
00000000
00001000
00010000
00001000
00000000
00000010
00000000
00000100
00000000
00001000
00000000
,
00000002
00000100
00002003
00000010
00003020
00002030
00023000
02030000
,
03010000
01000000
00010000
10000000
00010000
00100000
00001000
00010000
,
00001000
00010000
00001000
00010000
00000100
00001000
00000100
00001000
00000001
00000010
00000001
00000010
00000001
00000100
00000001
00000100
,
00000002
00000000
00000000
00000000
00001003
00000000
00000000
00000010
00000100
00000000
00000100
00000000
00001000
00000000
00010000
00000000
,
00011000
00000000
00110000
00000000
10100000
00000000
00100000
01000000
,
00020000
00000000
00000000
00000000
10030000
00000000
00000000
01000000
00100000
00000000
00010000
00000000
00100000
00000000
00001000
00000000
,
00010000
00000000
00000100
00001000
00000010
00000000
00001000
00000000
00000100
00000000
00010000
00001000
00010000
00000000
00100000
00000000
,
02000000
00000000
00000000
00000000
03010000
00000000
00000000
00100000
01000000
00000000
01000000
00000000
00010000
00000000
00001000
00000000
,
00011000
00000000
00001100
00000000
00000101
00000000
00000100
00000010
,
00002000
00000000
00000000
00000000
00003001
00000000
00000000
00000100
00000010
00000000
00001000
00000000
00000010
00000000
00010000
00000000
,
00001000
00000000
01000000
00010000
00100000
00000000
00010000
00000000
00100000
00000000
00001000
00010000
00001000
00000000
00010000
00000000
,
00002000
00000000
00000000
00000000
00003010
00000000
00000000
00000001
00000100
00000000
00000100
00000000
00000010
00000000
00001000
00000000
,
00000100
00010000
00000100
00010000
00010100
00000000
00010000
00001000
,
00200000
00000000
00000000
00000000
00310000
00000000
00000000
10000000
01000000
00000000
01000000
00000000
00100000
00000000
00010000
00000000
,
00100000
00000000
00001000
00010000
00001000
00000000
00010000
00000000
00000100
00000000
00000010
00000100
00000010
00000000
00000001
00000000
,
00001000
00000000
00000100
00001000
00000100
00000000
00000100
00000000
00010000
00000000
00001000
00010000
00001000
00000000
00001000
00000000
,
00100000
00000000
00010000
00100000
00010000
00000000
00010000
00000000
10000000
00000000
01000000
10000000
01000000
00000000
01000000
00000000
,
00100000
00010000
10000000
00100000
10000000
00010000
10000000
01000000
,
00020000
00000000
00001000
00000000
00001000
00000000
00031000
00000000
00010000
00000000
01000000
00100000
01000000
00000000
10000000
00000000
,
00100000
00000000
01000000
00000000
00001000
00010000
00001000
00010000
00001000
00000000
00100000
00000000
00010000
00000000
00001000
00000000
,
00000100
00000000
00000010
00000000
00000001
00000010
00000001
00000010
00000001
00000000
00000100
00000000
00000010
00000000
00001000
00000000
,
00010000
00000000
01000000
00000000
00010000
00100000
00010000
00100000
00010000
00000000
10000000
00000000
01000000
00100000
01000000
00100000
,
00010000
00000000
00000000
00001000
00000000
00000000
00000100
00000000
00001000
00000000
00000001
00000010
00000001
00000000
00001000
00000000
,
00000010
00000000
00001000
00000000
00010000
00000000
01000000
00010000
00100000
00000000
00010000
00100000
01000000
00000000
10000000
00000000
,
00010000
00000000
01000000
00000000
10000000
00000000
01000000
00000000
00010000
00000000
01000000
00100000
01000000
00000000
00010000
00000000
,
00100000
00000000
00001000
00000000
00010000
00000000
00000100
00000000
00001000
00000000
00000010
00000000
00001000
00000000
00000001
00000010
,
00000100
00000000
00000000
00010000
00000000
00000000
00001000
00000000
00011000
00000000
00010000
00000000
00100000
00000000
01000000
00000000
,
00010000
00000000
01000000
00000000
00010000
01000000
00100000
10000000
00010000
00000000
00100000
00000000
00010000
00000000
00001000
00000000
,
00000100
00000000
00001000
00000000
00000001
00000100
00000010
00001000
00000001
00000000
00000100
00000000
00000001
00000000
00000100
00000000
,
00001000
00000000
00010000
00000000
00100000
01000000
00100000
00000000
00010000
00000000
00001000
00000000
00000100
00000010
00000100
00000000
,
00000001
00000000
00000000
00001000
00000000
00000000
00000010
00000000
00000100
00000000
00001000
00010000
00001000
00000000
00100000
00000000
,
00020000
00000000
00000000
10030000
00010000
00100000
01000000
10000000
,
01000000
00000000
00100000
00001000
00010000
00000000
00000100
00000000
00010000
00000000
00001000
00100000
00010000
00000000
00001000
00000000
,
00000100
00000000
00001000
00000010
00001000
00000000
00000100
00000000
00000001
00000000
00000100
00000000
00001000
00000000
00010000
00000000
,
00100000
00000000
00000000
00010000
00000000
00000000
01000000
00000000
10010000
00000000
00000000
00000000
10000000
00000000
00100000
00000000
,
10000000
00000000
00010000
01000000
00010000
00000000
10000000
00000000
00010000
00000000
10000000
00100000
10000000
00000000
00010000
00000000
,
01000000
00000000
00001000
00010000
00001000
00000000
00010000
00000000
00000010
00000000
00000000
00000100
00000010
00000000
00001000
00000000
,
00000010
00000000
00001000
00000010
00001000
00000000
00000001
00000000
00000010
00000000
00000100
00001000
00000100
00000000
00001000
00000010
,
00001000
00000000
00000000
00000010
00010000
00000000
00001000
00000000
02000000
00000000
00000000
00000000
03010000
00000000
00000000
00000000
,
10000000
00000000
00010000
00100000
00010000
00000000
01000000
00000000
00100000
00000000
10000000
00100000
10000000
00000000
01000000
00000000
,
00100000
00000000
00010000
01000000
00001000
00000000
00010000
00000000
00000010
00000000
00000000
00001000
00000010
00000000
00000100
00000000
,
00000001
00000000
00001000
00000100
00001000
00000000
00000010
00000000
00000100
00000000
00000001
00000100
00000001
00000000
00000010
00000000
,
00001001
00001010
00011000
01010000
,
00010000
00000000
00100000
01000000
00100000
00000000
00010000
00000000
00100000
00000000
00001000
00010000
00001000
00000000
00010000
00000000
,
00000100
00000000
00000010
00000100
00000010
00000000
00000001
00000000
00000100
00000000
00000000
00001000
00010000
00000000
00001000
00000000
,
00100000
00000000
00010000
01000000
00001000
00000000
00010000
00000000
00000010
00000000
00001000
00000100
00010000
00000000
00001000
00010000
,
00001000
00000000
00000000
01000000
00010000
00000000
00100000
00000000
00010000
00000000
01000000
00010000
01000000
00000000
00001000
00000000
,
00010000
00000000
00000100
00010000
00000010
00000000
00001000
00000000
00000100
00000000
00010000
00001000
00100000
00000000
00001000
00000000
,
00010000
00000000
00000010
00001000
00000010
00000000
00000100
00000000
00000001
00000000
00000000
00000100
00000010
00000000
00001000
00000000
,
00000200
00000000
00000000
00000000
00010300
00000000
00001000
00000000
00100000
00000000
00010000
01000000
00010000
00000000
00100000
00000000
,
00101000
00000000
00010100
00000000
00010000
00000100
00000010
00000001
,
00002002
00000000
00000000
00003003
,
00000011
00000000
00000000
00000110
00000000
00000000
00001100
00000000
00022000
00000000
00000000
00000000
00000000
00000000
00000000
00000000
,
00000000
00000000
00000000
00000000
,
00033000
00000000
00000000
00000000
,
00000000
00000000
00000000
00000000
;
