
//----- song ID: aino -----//
#TITLE:愛のために。;
#TITLETRANSLIT:Ai no tame ni;
#BANNER:Ai no tame ni.png;
#BACKGROUND:Ai no tame ni.-bg.png;
#CDTITLE:./CDTitles/DDR GRAND PRIX.png;
#MUSIC:Ai no tame ni.ogg;
#SAMPLESTART:57.073;
#SAMPLELENGTH:15;
#BPMS:0=187;
#NOTES:
     dance-single:
     :
     Beginner:
     3:
     :
0000
0000
0000
0000
,
0000
0000
0000
0000
,
0000
0000
0000
0000
,
0000
0000
0000
0000
,
0000
0000
0000
0000
,
0010
0000
0000
0000
,
1000
0000
0000
0000
,
0010
0000
0000
0000
,
0100
0000
0000
0000
,
0001
0000
0000
0000
,
0001
0000
0000
0000
,
1000
0000
0000
0000
,
1000
0000
0000
0000
,
0010
0000
0000
0000
,
0010
0000
0000
0000
,
0100
0000
0010
0000
,
0100
0000
0000
0000
,
0001
0000
0000
0000
,
0001
0000
0000
0000
,
0010
0000
0000
0000
,
0010
0000
0000
0000
,
0100
0000
0000
0000
,
1000
0000
0000
0000
,
0001
0000
0000
0000
,
1001
0000
0000
0000
,
2000
0000
0000
0000
,
3000
0000
0000
0000
,
0020
0000
0000
0000
,
0030
0000
0010
0000
,
0200
0000
0000
0000
,
0300
0000
0000
0000
,
0001
0000
0000
0000
,
1000
0000
1000
0000
,
1000
0000
0000
0000
,
0010
0000
0010
0000
,
0010
0000
0000
0000
,
1000
0000
0000
0000
,
0001
0000
0100
0000
,
0001
0000
0000
0000
,
1000
0000
0010
0000
,
1000
0000
0000
0000
,
0200
0000
0000
0000
,
0000
0300
0000
0000
,
0020
0000
0000
0000
,
0030
0000
0000
0000
,
0001
0000
0000
0000
,
1000
0000
0000
0000
,
0010
0000
1000
0000
,
0010
0000
0000
0000
,
0100
0000
0000
0000
,
0001
0000
0000
0000
,
0010
0000
0001
0000
,
0010
0000
0000
0000
,
0001
0000
0000
0000
,
0100
0000
0000
0000
,
0010
0000
1000
0000
,
0010
0000
0000
0000
,
1000
0000
0000
0000
,
0100
0000
0000
0000
,
0010
0000
0000
0000
,
0100
0000
0000
0000
,
1000
0000
1000
0000
,
0001
0000
0001
0000
,
0100
0000
0000
0000
,
0010
0000
0000
0000
,
1000
0000
0000
0000
,
0001
0000
0000
0000
,
0100
0000
0001
0000
,
0100
0000
0000
0000
,
0010
0000
0000
0000
,
1000
0000
0000
0000
,
0001
0000
0010
0000
,
0001
0000
0000
0000
,
1001
0000
0000
0000
,
0000
0000
0000
0000
;
#NOTES:
     dance-single:
     :
     Easy:
     6:
     :
0000
0000
0000
0000
,
0000
0000
0000
0000
,
0000
0000
0000
0000
,
0000
0000
0000
0000
,
0000
0000
0000
0000
,
0200
0000
0000
0000
,
0300
0000
0001
0100
,
0010
0000
0000
0000
,
1000
0000
0100
0010
,
0001
0000
1000
1000
,
0010
0000
1000
0010
,
0100
0000
0001
0001
,
0010
0000
0001
1000
,
0100
0000
0010
0000
,
0001
0000
1000
0000
,
0100
0010
0100
0000
,
0010
0100
0010
0000
,
0001
0000
1000
1000
,
0010
0000
1000
0010
,
0100
0000
0001
0001
,
0010
0000
0001
1000
,
0100
0000
0010
0000
,
0001
0000
1000
0000
,
0001
0000
0100
0000
,
0010
0100
0110
0000
,
0002
0000
0003
0000
,
2000
0000
3000
0000
,
0020
0000
0030
0000
,
0200
0000
0310
0010
,
0020
0000
0030
0000
,
2000
0000
3000
0000
,
0002
0000
0003
0000
,
0200
0000
0320
0000
,
1030
0010
1000
0000
,
0002
0000
0203
0000
,
0301
0100
0001
0000
,
1000
0100
1000
0000
,
0001
0001
0001
0000
,
0100
0100
0100
0000
,
0010
0010
0010
0000
,
1000
0000
0001
0000
,
2002
0000
0000
0000
,
0000
3003
0000
0100
,
0220
0000
0000
0000
,
0330
0000
0010
0000
,
1000
0001
0100
0000
,
0001
1000
0010
0000
,
0100
0100
0010
0010
,
1000
0000
0001
0100
,
0001
0010
0100
0000
,
1000
0010
0100
0000
,
0001
0001
1000
1000
,
0010
0000
0100
0001
,
1000
0001
0100
0000
,
0001
1000
0010
0000
,
0100
0100
0010
0010
,
0100
0000
0001
1000
,
1001
0000
0110
0000
,
1001
0000
0110
0000
,
0001
0000
0100
0000
,
1000
0100
0001
1000
,
0001
0000
0001
0000
,
0100
0000
0100
0000
,
0010
0000
1000
0010
,
0100
0001
1000
0100
,
1000
0000
0001
0000
,
0100
1000
0100
0001
,
1000
0000
0100
0000
,
0110
0000
1001
0000
,
1000
0000
0100
0000
,
0010
0000
0001
0100
,
0001
0010
1000
0010
,
0110
0000
1001
0000
,
0110
0000
0000
0000
,
0000
0000
0000
0000
;
#NOTES:
     dance-single:
     :
     Medium:
     9:
     :
0000
0000
0000
0000
,
0000
0000
0000
0000
,
0000
0000
0000
0000
,
0000
0000
0000
0000
,
0000
0000
0000
0000
,
0220
0000
0000
0000
,
0330
0000
1000
0001
,
0100
0010
1000
0100
,
1000
0000
0010
0100
,
0001
0000
1000
0100
0000
0010
0000
0001
,
0000
0000
0100
0010
,
1000
0000
0001
0010
0000
0100
0000
0010
,
0000
0000
0001
0010
,
0100
0000
1000
0001
0000
1000
0000
0020
,
0000
1030
0001
0010
,
0100
0000
1000
0200
0000
0000
0300
0000
,
1000
0000
0010
0100
0010
0000
1000
0000
,
0100
0000
0010
0100
0000
1000
0000
0001
,
0000
0000
0100
0010
,
1000
0000
0100
1000
0000
0020
0000
0000
,
0130
0000
0001
1000
,
0100
0000
0010
0001
0010
0000
0001
0000
,
1000
0000
0100
1000
0100
0000
1000
0000
,
0001
0010
0100
0110
,
1000
0001
1000
1001
,
0002
0000
0103
0010
,
0020
0000
2030
0000
,
3200
0000
0310
0001
,
0200
0000
0310
1000
,
0020
0000
1030
0001
,
0020
0000
0230
0000
,
2300
0000
3010
1000
,
0002
0000
1003
0200
0000
0310
0000
0001
,
0100
0010
1000
0001
,
2000
0000
3001
0200
0000
0310
0000
1000
,
0100
0010
0001
1000
,
0010
0100
0001
0000
,
1000
0010
1000
0000
0010
0100
0010
0000
,
0100
0010
0000
2000
0000
0000
3000
0000
,
0001
0010
0001
0000
0010
0100
0000
1000
,
0010
1000
0000
1000
0000
0000
0001
0000
,
2002
0000
0000
0000
,
0000
0000
3003
0000
0000
0001
1000
0000
,
0220
0000
0000
0000
,
0330
0000
1000
0001
,
1000
0000
0010
0000
0100
0010
0100
0000
,
0001
0000
1000
0000
0010
0100
0010
0000
,
1000
0100
0001
0100
,
1000
0001
0010
0000
0001
0000
0100
0000
,
0010
1000
0010
0000
0100
0000
0001
0000
,
0010
0001
0010
0000
0001
0000
1000
0000
,
0001
0010
1000
0010
,
0001
0010
0100
1000
,
0001
0000
1000
0000
0010
0100
0001
0000
,
1000
0000
0001
0000
0100
0010
1000
0000
,
0001
0010
0001
0100
,
0010
1000
0010
0000
0100
0000
0001
0000
,
1001
0010
0110
1000
,
1001
0100
0110
0001
,
1000
0010
0100
0001
,
0010
0100
0010
0001
,
1000
0010
1000
0100
,
0010
0001
0100
0010
,
0100
0000
0001
0000
1000
0010
0000
0010
,
0100
0001
1000
0010
,
1000
0100
0001
0100
,
0010
1000
0010
0001
,
1000
0010
0001
0010
,
1000
0100
0010
0000
0001
0000
1001
0000
,
0010
1000
0100
0010
,
0001
1000
0010
0100
,
0001
1000
0001
0100
,
0010
0100
0010
0000
1000
0001
1000
0000
,
1001
0000
0000
0000
,
0000
0000
0000
0000
;
#NOTES:
     dance-single:
     :
     Hard:
     12:
     :
0000
0000
0000
0000
,
0000
0000
0000
0000
,
0000
0000
0000
0000
,
0000
0000
0000
0000
,
0000
0000
0000
0000
,
2002
0000
0000
0000
,
3003
0000
0001
0100
,
0010
0000
0100
0000
0001
1000
0001
1000
,
0100
0000
1000
0010
,
0100
0000
0001
0010
0000
0010
0000
0010
,
0001
0000
0100
0010
0100
0000
0001
0000
,
0010
0000
0100
1000
0000
1000
0000
1000
,
0100
0000
0010
0100
0010
0000
0001
0000
,
0100
0000
0010
1000
0000
1000
0000
1000
,
0100
1000
0010
0100
,
0001
0010
0001
0010
0100
0000
1000
0010
,
0100
0000
0001
0010
0001
0000
0100
0000
,
0010
0000
1000
0100
0000
0100
0000
0100
,
1000
0000
0010
0100
0010
0000
1000
0000
,
0100
0000
0010
0001
0000
0001
0000
0001
,
0010
0000
0100
0010
0100
0000
1000
0000
,
0010
0100
0010
0100
0001
0000
1000
0100
,
0010
0000
0001
0100
0010
0000
1000
0000
,
0001
0100
1000
0100
0001
0000
1001
0000
,
1000
0100
0001
0100
1000
0000
0001
0000
,
0020
0100
0031
1000
,
0200
0001
0310
1000
,
0002
0010
0103
0001
,
2000
0100
3010
1000
,
0200
0010
0301
1000
,
0020
0001
0130
1000
,
0002
0100
0013
0001
,
2000
0000
3010
0200
0000
0301
0000
0010
,
0001
0010
0100
0000
1000
0000
1000
0000
,
0002
0000
0013
0200
0000
1300
0000
0010
,
1000
0010
0100
0000
0001
0000
0001
0000
,
0010
0100
0010
0000
0001
0000
1000
0000
,
0001
0100
1000
0000
0100
0001
0010
1000
,
0010
0001
0000
2002
0000
0000
3003
0000
,
1000
0100
0001
0100
1000
0010
0000
0100
,
0001
1000
0100
0010
0000
0000
0001
0000
,
2002
0000
0000
0000
,
0000
0000
3003
0000
0000
0100
0010
0000
,
0220
0000
0000
0000
,
0330
0000
0001
0001
,
0001
1000
0100
1000
0001
0000
0010
0000
,
0100
1000
0100
0010
0100
0000
1000
0000
,
0010
1000
0100
0000
0010
0001
0100
0000
,
0010
1000
0100
0010
0001
0000
0100
0000
,
0001
1000
0010
1000
0001
0000
0100
0000
,
0010
1000
0010
0100
0010
0000
1000
0000
,
0001
0010
0100
0000
1000
0010
0100
0000
,
0001
0010
0100
1000
0100
0000
0010
0000
,
0100
1000
0100
0001
0100
0000
0010
0000
,
0001
0100
1000
0100
0001
0000
0100
0000
,
0010
1000
0100
0000
0010
0001
0100
0000
,
0010
1000
0100
1000
0010
0000
0100
0000
,
0011
1010
1100
0101
,
1001
0100
1001
0010
,
0001
0100
0001
0000
1000
0100
1000
0000
,
0010
0000
0100
0000
0001
0010
0100
0010
,
0001
0000
1000
0000
0100
0010
0100
0000
,
0010
0000
0001
0000
0100
0010
0100
0000
,
0010
0000
1000
0000
0001
0010
0001
0000
,
1000
0010
1000
0000
0100
0010
0100
0000
,
0010
0000
0001
0000
1000
0100
0001
0000
,
0100
0000
1000
0000
0001
0010
1000
0000
,
0010
0100
0010
0000
0100
1000
0100
0000
,
1000
0010
0100
0001
0010
0000
0110
0000
,
1000
0001
0100
0000
0001
0010
0100
0000
,
1000
0001
0100
0010
1000
0100
0010
0000
,
0001
0100
0001
0000
0010
0100
0010
0000
,
0100
1000
0010
0001
0010
1000
0100
0000
,
0110
0000
0000
0000
,
0000
0000
0000
0000
;
#NOTES:
     dance-double:
     :
     Easy:
     6:
     :
00000000
00000000
00000000
00000000
,
00000000
00000000
00000000
00000000
,
00000000
00000000
00000000
00000000
,
00000000
00000000
00000000
00000000
,
00000000
00000000
00000000
00000000
,
00020000
00000000
00000000
00000000
,
00030000
00000000
00001000
00100000
,
00010000
00000000
00000000
00000000
,
10000000
00000000
00100000
01000000
,
00010000
00000000
00100000
00001000
,
00010000
00000000
00000100
00001000
,
00000010
00000000
00000100
00000001
,
00001000
00000000
00000100
00010000
,
00001000
00000000
00010000
00000000
,
01000000
00000000
10000000
00000000
,
00010000
00100000
00010000
00000000
,
00100000
00001000
00100000
00000000
,
00001000
00000000
00010000
00000010
,
00010000
00000000
00000010
00001000
,
00000001
00000000
00000100
00000010
,
00001000
00000000
00000100
00010000
,
00001000
00000000
00010000
00000000
,
00100000
00000000
10000000
00000000
,
00010000
00000000
00100000
00000000
,
00001000
00010000
00011000
00000000
,
00002000
00000000
00003000
00000000
,
00000020
00000000
00000030
00000000
,
00000002
00000000
00000003
00000000
,
00002000
00000000
00003100
00000100
,
00020000
00000000
00030000
00000000
,
00002000
00000000
00003000
00000000
,
02000000
00000000
03000000
00000000
,
00020000
00000000
00230000
00000000
,
01300000
10000000
00100000
00000000
,
20000000
00000000
30020000
00000000
,
00130000
00001000
00010000
00000000
,
00000100
00001000
00000001
00000000
,
00000100
00000100
00000100
00000000
,
00001000
00001000
00001000
00000000
,
00010000
00010000
00010000
00000000
,
00100000
00000000
10000000
00000000
,
02200000
00000000
00000000
00000000
,
00000000
03300000
00000000
00001000
,
00022000
00000000
00000000
00000000
,
00033000
00000000
00010000
00000000
,
00000010
00001000
00000010
00000000
,
00001000
00000001
00000010
00000000
,
00000100
00000100
00001000
00001000
,
00000100
00000000
00010000
00001000
,
00100000
00010000
01000000
00000000
,
00100000
10000000
01000000
00000000
,
00100000
00100000
00010000
00010000
,
00100000
00000000
00001000
00010000
,
00000100
00001000
00000100
00000000
,
00001000
00000010
00000100
00000000
,
00000001
00000001
00000010
00000010
,
00001000
00000000
00010000
00001000
,
00011000
00000000
01100000
00000000
,
10010000
00000000
00011000
00000000
,
00001000
00000000
00010000
00000000
,
00000100
00001000
00000001
00000100
,
00000010
00000000
00010000
00000000
,
00001000
00000000
00100000
00000000
,
00010000
00000000
00100000
00001000
,
00010000
00000100
00001000
00000001
,
00000010
00000000
00000001
00000000
,
00000100
00001000
00010000
00001000
,
00010000
00000000
00100000
00000000
,
10000000
00000000
10010000
00000000
,
00010000
00000000
01000000
00000000
,
00001000
00000000
00010000
00001000
,
00000010
00000001
00000100
00000010
,
00001000
00000000
00011000
00000000
,
01100000
00000000
00000000
00000000
,
00000000
00000000
00000000
00000000
;
#NOTES:
     dance-double:
     :
     Medium:
     9:
     :
00000000
00000000
00000000
00000000
,
00000000
00000000
00000000
00000000
,
00000000
00000000
00000000
00000000
,
00000000
00000000
00000000
00000000
,
00000000
00000000
00000000
00000000
,
00022000
00000000
00000000
00000000
,
00033000
00000000
00001000
00010000
,
00000100
00001000
00000001
00000100
,
00000010
00000000
00001000
00000100
,
00010000
00000000
00001000
00010000
00000000
00001000
00000000
00100000
,
00000000
00000000
00010000
10000000
,
00100000
00000000
01000000
00010000
00000000
01000000
00000000
00001000
,
00000000
00000000
00010000
00001000
,
00000100
00000000
00000001
00000100
00000000
00000010
00000000
00002000
,
00000000
00003001
00000100
00001000
,
00010000
00000000
00001000
02000000
00000000
00000000
03000000
00000000
,
00010000
00000000
00100000
01000000
00100000
00000000
00010000
00000000
,
10000000
00000000
00100000
01000000
00000000
00010000
00000000
00100000
,
00000000
00000000
00001000
00010000
,
00000010
00000000
00001000
00000100
00000000
00000020
00000000
00000000
,
00000031
00000000
00000100
00000010
,
00001000
00000000
00000100
00010000
00000100
00000000
00010000
00000000
,
00001000
00000000
00100000
00001000
00100000
00000000
00010000
00000000
,
10000000
00100000
01000000
01010000
,
00001000
00010000
00000100
00001100
,
00000002
00000000
00000103
00000001
,
00000020
00000000
00002030
00000000
,
00023000
00000000
00130000
10000000
,
00020000
00000000
01030000
00100000
,
20000000
00000000
31000000
00010000
,
00002000
00000000
00003200
00000000
,
00000302
00000000
00001003
00000010
,
00020000
00000000
00031000
02000000
00000000
03010000
00000000
10000000
,
01000000
10000000
00010000
01000000
,
00002000
00000000
00013000
00000200
00000000
00001300
00000000
00000001
,
00000100
00000010
00001000
00000100
,
00000010
00000001
00001000
00000000
,
00000100
00010000
00000100
00000000
00010000
00000000
00001000
00000000
,
01000000
00010000
00000000
00200000
00000000
00000000
00300000
00000000
,
00010000
10000000
00010000
00000000
10000000
00100000
00000000
01000000
,
00100000
10000000
00000000
00010000
00000000
00000000
00100000
00000000
,
00022000
00000000
00000000
00000000
,
00000000
00000000
00033000
00000000
00000000
00000100
00000010
00000000
,
00000220
00000000
00000000
00000000
,
00000330
00000000
00000001
00000100
,
00000001
00000000
00001000
00000000
00000010
00000100
00000010
00000000
,
00001000
00000000
00000100
00000000
00010000
00001000
00010000
00000000
,
00001000
00010000
00100000
10000000
,
00100000
00010000
00001000
00010000
,
00000010
00001000
00000010
00000000
00000100
00000000
00000001
00000000
,
00000010
00000001
00000010
00000000
00000100
00000000
00001000
00000000
,
00000001
00000100
00001000
00010000
,
01000000
10000000
00010000
01000000
,
00001000
00000000
00010000
00000000
00001000
00000010
00000100
00000000
,
00001000
00000000
00000001
00000000
00000100
00000010
00001000
00000000
,
00000100
00010000
00001000
00010000
,
00001000
00100000
00010000
10000000
,
10010000
00100000
00011000
00000010
,
00001001
00000100
00011000
01000000
,
00010000
10000000
01000000
00100000
,
00010000
00100000
00001000
00010000
,
00000010
00001000
00000010
00000100
,
00000001
00000010
00000001
00001000
,
00000100
00000000
00010000
00000000
00001000
01000000
00000000
01000000
,
00010000
10000000
01000000
00010000
,
00001000
00010000
00001000
00000010
,
00000001
00001000
00000010
00001000
,
00000001
00000100
00001000
00010000
,
01000000
10000000
00100000
01000000
,
00010000
01000000
00001000
00010000
,
00000010
00001000
00000001
00000010
,
00000100
00001000
00000010
00010000
,
00001000
01000000
00010000
10000000
,
10010000
00000000
00000000
00000000
,
00000000
00000000
00000000
00000000
;
#NOTES:
     dance-double:
     :
     Hard:
     12:
     :
00000000
00000000
00000000
00000000
,
00000000
00000000
00000000
00000000
,
00000000
00000000
00000000
00000000
,
00000000
00000000
00000000
00000000
,
00000000
00000000
00000000
00000000
,
00022000
00000000
00000000
00000000
,
00033000
00000000
00001000
00010000
,
01000000
00000000
10000000
00000000
00100000
01000000
00100000
01000000
,
00010000
00000000
00100000
00001000
,
00010000
00000000
00001000
00000100
00000000
00001000
00000000
00000100
,
00000001
00000000
00000010
00000100
00000010
00000000
00000001
00000000
,
00000100
00000000
00001000
00010000
00000000
01000000
00000000
00010000
,
01000000
00000000
10000000
00100000
10000000
00000000
00010000
00000000
,
01000000
00000000
00001000
00010000
00000000
00001000
00000000
00010000
,
00000010
00001000
00000001
00000100
,
00000010
00001000
00000010
00001000
00000100
00000000
00010000
00001000
,
00100000
00000000
00010000
01000000
00010000
00000000
00100000
00000000
,
01000000
00000000
10000000
00100000
00000000
00010000
00000000
00001000
,
00000010
00000000
00000001
00000100
00000001
00000000
00001000
00000000
,
00000001
00000000
00000010
00001000
00000000
00010000
00000000
00100000
,
10000000
00000000
00010000
01000000
00010000
00000000
00100000
00000000
,
00001000
00000000
00010000
00001000
00010000
00000000
00000010
00001000
,
00000100
00000000
00000010
00000001
00001000
00000000
00000100
00000000
,
00010000
00001000
00010000
00000000
00001000
00000000
01010000
00000000
,
10000000
00100000
10000000
00000000
00010000
00000000
10000000
00000000
,
02000000
00010000
03010000
00001000
,
00000200
00000001
00000301
00001000
,
00000002
00000010
00000013
00000001
,
00000200
00001000
00001300
00010000
,
00002000
00010000
00013000
01000000
,
20000000
01000000
31000000
00100000
,
00002000
00010000
00013000
00000100
,
00002000
00000000
00003100
00000020
00000000
00000031
00000000
00000100
,
00001000
00010000
01000000
10000000
,
00020000
00000000
00130000
02000000
00000000
13000000
00000000
00100000
,
00010000
00001000
00000100
00000001
,
00000010
00000100
00000010
00000000
00001001
00000000
00000000
00000000
,
00001000
00000010
00001000
00000000
00000001
00000100
00001000
00000000
,
00010000
00001000
00000000
00022000
00000000
00000000
00033000
00000000
,
00010000
00100000
10000000
00000000
01000000
00100000
00000000
00010000
,
00100000
00010000
01000000
00001000
,
00022000
00000000
00000000
00000000
,
00000000
00000000
00033000
00000000
00000000
00000010
00000100
00000000
,
00000220
00000000
00000000
00000000
,
00000330
00000000
00000001
00001000
,
00000010
00001000
00000010
00000000
00010000
00000000
00000100
00000000
,
00010000
00001000
00010000
00000000
00001000
00000000
00010000
00000000
,
00001000
00010000
01000000
00000000
10000000
00100000
10000000
00000000
,
00010000
01000000
00010000
00000000
00100000
00000000
00001000
00000000
,
00010000
00000100
00010000
00000000
00000100
00000000
00001000
00000000
,
00000010
00001000
00000010
00000000
00001000
00000000
00000100
00000000
,
00000010
00000001
00000100
00000000
00001000
00010000
01000000
00000000
,
10000000
00100000
01000000
00010000
00100000
00000000
00001000
00000000
,
00010000
00000010
00010000
00000000
00000100
00000000
00001000
00000000
,
00000001
00000100
00000001
00000000
00001000
00000000
00000010
00000000
,
00010000
00001000
00010000
00000000
00001000
00100000
00010000
00000000
,
10000000
00100000
01000000
00000000
00010000
00000000
00100000
00000000
,
00011000
00001001
00000101
00001100
,
00011000
00100000
00011000
00000100
,
00010000
00001000
00010000
00000000
00001000
01000000
00001000
00000000
,
01000000
00000000
00010000
00000000
00100000
01000000
00100000
00000000
,
00010000
00000000
10000000
00000000
00100000
01000000
00100000
00000000
,
01000000
00000000
00010000
00000000
00100000
00001000
00100000
00000000
,
00001000
00000000
00010000
00000000
00000100
00001000
00000100
00000000
,
00001000
00000010
00001000
00000000
00000001
00000100
00000001
00000000
,
00000010
00000000
00000001
00000000
00000100
00001000
00010000
00000000
,
00001000
00000000
00010000
00000000
01000000
10000000
00100000
00000000
,
01000000
00100000
01000000
00000000
00010000
00100000
00010000
00000000
,
00100000
00001000
00010000
00000000
00001000
00000000
00010100
00000000
,
00001000
00000010
00000100
00000000
00000001
00000010
00000100
00000000
,
00001000
00000010
00010000
00001000
00010000
00000000
00001000
00000000
,
00100000
00010000
00100000
00000000
01000000
10000000
01000000
00000000
,
10000000
00100000
01000000
00010000
00100000
00001000
00010000
00000000
,
00011000
00000000
00000000
00000000
,
00000000
00000000
00000000
00000000
;
