
//----- song ID: sevn -----//
#TITLE:7 Colors;
#ARTIST:kors k feat.吉河順央;
#ARTISTTRANSLIT:kors k feat. Sunao Yoshikawa;
#BANNER:7 Colors.png;
#BACKGROUND:7 Colors-bg.png;
#CDTITLE:./CDTitles/REFLEC BEAT colette -Summer-.png;
#MUSIC:7 Colors.ogg;
#SAMPLESTART:53.463;
#SAMPLELENGTH:15;
#BPMS:0=156;
#BGSTAGE:16;
#NOTES:
     dance-single:
     :
     Beginner:
     2:
     :
0000
0000
0000
0000
,
0000
0000
0000
0000
,
0000
0000
0000
0000
,
0000
0000
0000
0000
,
0000
0000
0000
0000
,
0000
0000
0000
0000
,
1000
0000
0000
0000
,
1000
0000
0000
0000
,
0001
0000
0000
0000
,
0001
0000
0000
0000
,
1000
0000
1000
0000
,
1000
0000
0000
0000
,
0001
0000
0001
0000
,
0001
0000
0000
0000
,
1000
0000
0000
0000
,
0001
0000
0000
0000
,
1000
0000
1000
0000
,
1000
0000
0000
0000
,
1000
0000
0000
0000
,
1000
0000
0000
0000
,
0001
0000
0000
0000
,
0001
0000
0000
0000
,
1000
0000
0000
0000
,
1000
0000
0000
0000
,
0001
0000
0000
0000
,
0001
0000
0000
0000
,
1000
0000
0000
0000
,
0001
0000
0000
0000
,
1000
0000
0000
0000
,
1000
1000
0000
0000
,
0010
0000
0000
0000
,
0100
0000
0000
0000
,
0001
0000
0000
0000
,
1000
1000
1000
0000
,
1001
0000
0000
0000
,
1000
0000
1000
0000
,
0001
0000
0000
0000
,
0001
0000
0001
0000
,
1000
0000
0000
0000
,
1000
0000
1000
0000
,
0001
0000
0001
0000
,
2000
0000
3000
0000
,
0001
0000
0001
0000
,
1000
1000
0000
0000
,
0001
0001
0000
0000
,
1000
0000
1000
0000
,
0001
0000
0001
0000
,
1000
1000
0000
0000
,
0001
0001
0000
0000
,
2000
0000
3000
0000
,
0001
0000
0001
0000
,
1000
0000
0000
0000
,
1000
0000
0000
1001
,
0000
0000
1000
0000
,
1000
0000
0000
0000
,
0001
0000
0001
0000
,
0001
0000
0000
0000
,
1000
0000
0000
0000
,
0001
0000
0000
0000
,
1000
0000
0000
0000
,
0001
0000
0000
0000
,
2000
0000
3000
0000
,
0002
0000
0000
0003
,
0000
0000
0000
0000
;
#NOTES:
     dance-single:
     :
     Easy:
     5:
     :
0000
0000
0000
0000
,
0000
0000
0000
0000
,
0000
0000
0000
0000
,
0000
0000
0000
0000
,
0000
0000
0000
0000
,
0000
0000
0000
0000
,
0110
0000
0000
0000
,
1001
0000
0000
0000
,
0110
0000
0000
0000
,
1001
0000
0000
0000
,
1000
1000
0001
0000
,
0001
0001
1000
0000
,
1000
0000
0010
0000
,
0100
0000
1001
0000
,
0001
0001
1000
0000
,
1000
1000
0001
0000
,
0001
0000
0100
0000
,
0010
0000
1000
0000
,
1000
1000
0100
0000
,
0100
0100
0010
0000
,
0010
0010
0001
0001
,
1000
1000
1001
0000
,
0001
0001
0100
0000
,
0100
0100
0010
0000
,
0010
1000
0001
1000
,
1001
0000
1000
1000
,
0002
0003
1000
0001
,
2000
3000
0001
1000
,
0002
0000
0000
0003
,
1000
1000
1000
0000
,
1000
1000
0100
0000
,
0010
0010
0001
0000
,
1000
1000
0001
1000
,
0001
0001
1000
0001
,
1001
0000
0000
0000
,
1000
0100
1000
0000
,
0001
0010
0001
0000
,
0100
0000
0100
0000
,
0010
0010
0010
0000
,
1000
0010
1000
0000
,
0001
0100
0001
1000
,
0200
0000
0000
0300
,
0010
0010
0110
0000
,
1000
0100
0010
0100
,
1000
0001
0100
0000
,
0001
0100
0010
0100
,
0001
1000
0100
0000
,
1000
0100
1000
0000
,
0001
0010
0001
1000
,
0002
0000
0000
0003
,
1000
0001
1001
0000
,
2000
0000
3200
0000
,
0320
0000
0031
1001
,
1000
0010
0100
0000
,
0001
0010
0100
0000
,
1000
1000
0010
0010
,
0100
0100
1001
0000
,
0001
0100
0010
0000
,
1000
0100
0010
0000
,
0001
0001
0010
0010
,
0100
0100
1000
0001
,
2000
0000
0001
0000
,
3001
0000
0110
1001
,
0000
0000
0000
0000
;
#NOTES:
     dance-single:
     :
     Medium:
     11:
     :
0000
0000
0000
0000
,
0000
0000
0000
0000
,
0000
0000
0000
0000
,
0000
0000
0000
0000
,
0000
0000
0000
0000
,
1000
0100
0010
0001
1000
0100
1000
0000
,
1100
0000
1000
0100
1000
0001
1000
0000
,
0101
0000
0001
0100
0001
1000
0001
0000
,
1001
0000
0001
1000
0001
0010
0100
0000
,
1001
0000
0000
1001
0000
0000
1001
0000
0000
0000
0000
0000
0000
0000
0000
0000
,
1000
0000
0000
0001
0000
0000
1000
0000
0000
0010
0000
0000
0100
0000
0000
0000
,
0001
0010
0100
0000
1000
0010
0100
0000
,
0001
0000
0000
1000
0000
0000
0001
0000
0000
0010
0000
0000
0100
0000
0000
0000
,
1000
0010
0100
0001
2000
0000
0000
3000
,
0010
0000
0000
0100
0000
0000
0010
0000
0000
1000
0000
0000
0001
0000
0000
0000
,
0010
0001
1000
0000
0010
1000
0001
0000
,
0010
0000
0000
0100
0000
0000
0010
0000
0000
0001
0000
0000
1000
0000
0000
0000
,
0001
0001
0000
1000
1000
0000
0110
0000
,
1000
0100
1000
0000
0001
0100
0001
0000
,
1000
0010
1000
0001
0100
0000
0000
0000
,
0001
0100
0010
1000
0001
1000
0100
0020
,
0000
0031
0010
0100
2000
0000
0000
3000
,
0001
0100
0001
0000
1000
0100
1000
0000
,
0001
0010
0001
1000
0100
0000
0000
0000
,
1000
0100
0010
0001
2000
0000
3002
0023
,
0000
0000
0030
0000
0010
0001
1000
0100
,
2000
0000
3100
0020
0030
0002
0000
2003
,
0000
0000
3000
0000
1000
0100
1000
0000
,
0002
0000
0103
0020
0000
2030
0000
3002
,
0000
1003
0100
0020
0000
0000
0030
0000
,
0001
0000
0010
0000
0001
0000
1000
0001
0000
0000
0000
0000
0000
0000
0000
0000
,
1000
0000
0100
0000
1000
0000
0001
1000
0000
0000
0000
0000
0001
0000
1000
0000
,
0200
0300
0010
0002
0003
2000
3000
0010
,
0200
0000
0000
0300
,
1001
0000
0000
0000
0000
0000
1000
0100
,
0010
0000
0001
0100
0010
1000
0001
0000
,
1000
0010
1000
0010
0100
0000
0001
0010
,
0100
0000
1000
0010
0100
0001
1000
0000
,
0001
0100
0001
0100
0010
0000
0100
0010
,
1000
0000
0100
0010
0001
0000
0100
1000
,
0100
0010
0100
0001
0200
0000
0320
0000
,
2030
0000
0000
0000
3000
0000
0010
0100
,
0001
0000
0000
1000
0000
0000
0001
0000
0000
0000
0000
0000
1000
0000
0001
0000
,
0010
0000
0001
1000
0010
1000
0100
0000
,
0100
0010
0001
1000
0001
0000
0001
1000
,
0100
0000
1000
0001
0100
0001
0010
0000
,
0010
0100
1000
0001
1000
0000
1000
0100
,
1000
0000
0001
0100
0001
0100
0010
0000
,
1000
0010
0100
0001
2000
3000
0002
0003
,
2000
0000
0000
0000
3000
0000
0001
1000
,
0010
0000
0000
0100
0000
0000
0010
0000
0000
0000
1000
0000
0000
0000
0002
0000
,
0000
0000
1000
0010
,
0100
0000
1003
0000
1000
0001
1001
0000
,
1000
0000
0000
0001
0000
0000
1000
0000
0000
0100
0000
0000
0010
0000
0000
0000
,
0001
0100
0010
0000
1000
0100
0010
0000
,
0001
0000
0000
1000
0000
0000
0001
0000
0000
0100
0000
0000
0010
0000
0000
0000
,
1000
0100
0010
0001
2000
0000
0000
3000
,
0100
0000
0000
0010
0000
0000
0100
0000
0000
1000
0000
0000
0001
0000
0000
0000
,
0100
0001
1000
0000
0100
1000
0001
0000
,
0100
0000
0000
0010
0000
0000
0100
0000
0000
0001
0000
0000
1000
0000
0000
0000
,
0001
0001
0000
1000
1000
0000
0110
0000
,
2002
0000
0000
3003
,
2000
3200
0320
0032
,
0003
0000
0000
0000
,
0000
0000
0000
0000
;
#NOTES:
     dance-single:
     :
     Hard:
     14:
     :
0000
0000
0000
0000
,
0000
0000
0000
0000
,
0000
0000
0000
0000
,
0000
0000
0000
0000
,
0000
0000
0000
0000
,
1000
0100
0010
0001
0010
0100
1000
0000
,
1100
0000
0100
0001
0100
1000
0001
0000
,
0101
0000
0000
0000
0100
0000
1000
0000
0100
0000
0001
0000
1000
0010
1000
0010
,
1000
0000
1000
0001
0010
0001
1000
0010
,
1000
0000
0000
1100
0000
0000
0101
0000
0000
0000
0000
0000
1000
0000
0100
0000
,
1000
0000
0100
0010
0000
0100
1000
0000
0000
0001
0010
0000
0001
0000
0100
0000
,
0001
0010
0001
0010
0001
0000
1000
0000
0001
0000
0000
0010
0000
0000
0100
0000
,
0010
0000
0001
0010
0000
0100
0010
0000
0000
0100
1000
0000
0010
0000
0100
0000
,
0010
1000
0010
1000
0010
0000
0100
0000
0001
0000
0000
0000
1000
0100
0010
0100
,
1000
0000
0001
0010
0000
0001
0100
0000
0000
0010
0100
0000
0010
0000
1000
0000
,
0001
0010
0100
0010
0001
0000
0100
0000
0010
0000
0000
1000
0000
0000
0001
0000
,
1000
0000
0100
0010
0000
0100
0010
0000
0000
0001
0010
0000
0001
0000
1000
0000
,
0001
0100
0010
1000
0010
0000
1000
0100
0010
0001
0010
0000
0001
0000
0000
0000
,
1000
0000
0100
0000
1000
0000
0010
1000
0000
0010
1000
0000
0010
0000
0100
0000
,
0001
0000
0010
0000
0001
0000
0100
0000
0001
0000
1000
0100
0000
0100
0010
0000
,
0001
0000
0100
0000
0001
0000
0010
0001
0000
0010
0001
0000
0010
0000
2000
0000
,
0000
3010
0001
1000
0002
0000
0003
0000
,
1000
0000
0100
0000
0010
0000
0100
0010
0000
0001
0010
0000
0100
0000
0010
0000
,
0001
0010
0001
0010
0100
0000
1000
0000
0001
0000
0100
0000
1000
0000
0100
0000
,
0001
0000
0100
0000
0010
0000
1000
0000
0100
0010
0001
0000
0100
0010
1000
0000
,
0002
0000
0003
0000
1000
0100
0010
0001
,
0020
0000
0130
1000
0100
0001
0100
0020
,
0000
0000
0030
0000
0001
1000
0001
1000
0001
0000
0100
0000
0010
0000
0100
0000
,
0002
0000
1003
0100
1000
0001
1000
0020
,
0000
0000
0130
0000
0010
0000
0200
0000
0000
0000
0300
0000
0010
0100
0001
0100
,
0010
0000
0100
0000
1000
0000
0100
0001
0000
0000
0010
0000
0100
0000
0010
0000
,
0001
0000
0010
0000
1000
0000
0010
0001
0000
0000
1000
0000
0100
0000
0010
0000
,
0002
0000
0013
0100
0010
0001
1000
0100
,
1000
0100
1000
0000
0001
0010
0001
0000
0010
0100
0010
0000
0001
0010
0100
1000
,
0001
0000
0000
0000
0000
0000
0001
0100
,
0001
0000
0000
0000
1000
0000
0100
0010
0000
0001
0010
0000
0100
0000
0010
0000
,
1000
0000
0010
0000
0100
0000
1000
0100
1000
0000
0000
0000
1000
0000
0100
0000
,
1000
0000
0000
0000
0001
0000
0100
0010
0000
1000
0010
0000
0100
0000
0010
0000
,
0001
0000
0010
0000
0100
0000
0001
0100
0001
0000
0000
0000
1000
0010
1000
0010
,
1000
0000
0000
0000
0010
0000
1000
0001
0000
1000
0001
0000
0010
0000
0100
0000
,
0001
0000
0100
0000
0010
0001
0010
0001
0010
0000
0000
0000
0110
0000
0000
0000
,
1001
0000
1000
0100
1000
0001
0100
0010
,
1010
0000
0000
0101
0000
0000
1001
0000
0000
0000
0000
0000
1000
0010
0100
0001
,
0100
0000
0000
0000
0010
1000
0000
0010
1000
0000
0100
0000
0001
0000
0100
0000
,
0010
0000
0001
0000
0100
0000
0010
0100
0000
0000
0000
0000
0001
0000
0010
0000
,
0100
0000
0010
0000
0001
0010
0001
1000
0001
0000
0010
0000
0100
1000
0100
0010
,
0100
0000
1000
0000
0100
0000
0010
0100
0000
0000
0000
0000
1000
0100
1000
0100
,
1000
0000
0000
0000
0010
0000
1000
0100
0000
0010
0001
0000
0010
0000
0100
0000
,
1000
0000
0010
0000
0100
0010
0100
0010
0100
0000
0000
0000
0020
0000
0000
0000
,
2030
0000
0010
0000
0001
0000
3100
1000
,
0100
0000
0000
0010
0000
0000
0110
0000
0000
0000
1001
0000
0000
0000
0001
0000
,
1000
0000
0000
1000
0100
0000
0000
0100
0001
0000
0000
0001
0100
0000
0000
0100
,
0010
0000
0001
0000
0010
0000
0001
0000
1000
0001
1000
0001
1000
0000
0000
0000
,
1000
0000
0100
0010
0000
0100
1000
0000
0000
0001
0010
0000
0001
0000
0100
0000
,
0001
0010
0001
0010
0001
0000
1000
0000
0001
0000
0000
0010
0000
0000
0100
0000
,
0010
0000
0001
0010
0000
0100
0010
0000
0000
0100
1000
0000
0010
0000
0100
0000
,
0010
1000
0010
1000
0010
0000
0100
0000
0001
0000
0000
0000
1000
0100
0010
0100
,
1000
0000
0001
0010
0000
0001
0100
0000
0000
0010
0100
0000
0010
0000
1000
0000
,
0001
0010
0100
0010
0001
0000
0100
0000
0010
0000
0000
1000
0000
0000
0001
0000
,
1000
0000
0100
0010
0000
0100
0010
0000
0000
0001
0010
0000
0001
0000
1000
0000
,
0001
0100
0010
1000
0010
0000
1000
0100
0010
0001
0010
0000
0001
0000
1000
0000
,
0200
0000
0010
0000
0001
0000
1300
0001
,
1000
0000
1000
0000
0001
0000
0001
0000
1000
0000
0001
1000
0001
0000
0000
0000
,
0000
0000
0000
0000
;
#NOTES:
     dance-double:
     :
     Easy:
     5:
     :
00000000
00000000
00000000
00000000
,
00000000
00000000
00000000
00000000
,
00000000
00000000
00000000
00000000
,
00000000
00000000
00000000
00000000
,
00000000
00000000
00000000
00000000
,
00000000
00000000
00000000
00000000
,
00011000
00000000
00000000
00000000
,
00101000
00000000
00000000
00000000
,
00010010
00000000
00000000
00000000
,
00001001
00000000
00000000
00000000
,
00000001
00000100
00000001
00000000
,
00001000
00000010
00010000
00000000
,
00001000
00010000
00100000
00000000
,
01000000
00000000
10010000
00000000
,
10000000
01000000
10000000
00000000
,
00010000
00100000
00001000
00000000
,
00010000
00001000
00000010
00000000
,
00000100
00000000
00000010
00000000
,
00000001
00000010
00000100
00000000
,
00000100
00010000
00001000
00000000
,
00010000
00000000
00100000
00000000
,
10000000
00000000
01000000
00000000
,
10000000
00100000
01000000
00000000
,
01000000
00001000
00010000
00000000
,
00001000
00000000
00010000
00000000
,
00011000
00000000
00001000
00001000
,
00000200
00000300
00000010
00001000
,
00000002
00000003
00001000
00000100
,
00020000
00000000
00000000
00030000
,
00001000
00001000
00001000
00000000
,
00100000
00000000
00010000
00000000
,
10000000
00000000
01000000
00000000
,
00100000
00100000
00001000
00010000
,
00000010
00000010
00010000
00001000
,
00011000
00000000
00000000
00000000
,
00010000
00000000
00000100
00000000
,
00000010
00000010
00000010
00000000
,
00000001
00000000
00000100
00000000
,
00000010
00000010
00000010
00000000
,
00001000
00000100
00010000
00000000
,
00001000
01000000
00100000
10000000
,
00020000
00000000
00000000
00030000
,
00100000
00100000
10010000
00000000
,
00010000
00000000
01000000
00000000
,
00001000
00001000
00010000
00000000
,
00000100
00000100
00000010
00000001
,
00000100
00000010
00000110
00000000
,
00000100
00001000
00010000
00000000
,
00001000
00010000
00100000
01000000
,
00020000
00000000
00000000
00030000
,
10000000
00010000
01000000
00001000
,
00020000
00000000
00030200
00000000
,
00002300
00000000
00003001
00001001
,
00000001
00000100
00000001
00000000
,
00001000
00000010
00010000
00000000
,
00001000
00010000
00100000
00000000
,
01000000
00000000
10010000
00000000
,
10000000
01000000
10000000
00000000
,
00010000
00100000
00001000
00000000
,
00010000
00001000
00000010
00000000
,
00000100
00000000
00000010
00000001
,
00002000
00000000
00000010
00000000
,
00003100
00000000
00000100
00001001
,
00000000
00000000
00000000
00000000
;
#NOTES:
     dance-double:
     :
     Medium:
     11:
     :
00000000
00000000
00000000
00000000
,
00000000
00000000
00000000
00000000
,
00000000
00000000
00000000
00000000
,
00000000
00000000
00000000
00000000
,
00000000
00000000
00000000
00000000
,
00010000
00001000
00000100
00000010
00000100
00001000
00010000
00000000
,
00011000
00000000
00001000
00010000
00000100
00001000
00000010
00000000
,
00001010
00000000
00000010
00000100
00000001
00001000
00000100
00000000
,
00001100
00000000
00000100
00010000
00001000
00100000
00010000
00000000
,
00110000
00000000
00000000
01100000
00000000
00000000
10010000
00000000
00000000
00000000
00000000
00000000
00000000
00000000
00000000
00000000
,
10000000
00000000
00000000
01000000
00000000
00000000
00100000
00000000
00000000
01000000
00000000
00000000
10000000
00000000
00000000
00000000
,
01000000
00100000
00010000
00000000
00100000
00001000
00010000
00000000
,
00000100
00000000
00000000
00001000
00000000
00000000
00000100
00000000
00000000
00000010
00000000
00000000
00000001
00000000
00000000
00000000
,
00001000
00000010
00000100
00000001
00002000
00000000
00000000
00003000
,
00000001
00000000
00000000
00000100
00000000
00000000
00000010
00000000
00000000
00000100
00000000
00000000
00000001
00000000
00000000
00000000
,
00000100
00000010
00001000
00000000
00000010
00010000
00001000
00000000
,
01000000
00000000
00000000
00010000
00000000
00000000
01000000
00000000
00000000
00100000
00000000
00000000
10000000
00000000
00000000
00000000
,
01000000
01000000
00000000
00100000
00100000
00000000
10010000
00000000
,
10000000
01000000
10000000
00000000
01000000
00100000
00001000
00000000
,
00010000
00000000
00001000
00000000
00010000
00000000
00000000
00000000
00000100
00000000
00000000
00000010
00000000
00000000
00000001
00000000
,
00001000
00000100
00001000
00000000
00000001
00000010
00000100
00002000
,
00000000
00003010
00010000
00001000
02000000
00000000
00000000
03000000
,
00010000
01000000
00010000
00000000
10000000
00100000
01000000
00000000
,
00001000
00100000
00010000
01000000
00010000
00000000
00000000
00000000
,
00100000
00010000
00100000
00001000
00020000
00000000
00030200
00002300
,
00000000
00000000
00003000
00000000
00001000
00000100
00000010
00000001
,
00002000
00000000
00003100
00020000
00030000
00002000
00000000
00203000
,
00000000
00000000
00300000
00000000
00010000
01000000
00010000
00000000
,
20000000
00000000
31000000
00200000
00000000
00320000
00000000
00032000
,
00000000
00003100
00000010
00000002
00000000
00000000
00000003
00000000
,
00002000
00000000
00000000
00003001
00000010
00000001
00000010
00000001
,
00002000
00000000
00000000
00003001
00000100
00000001
00000100
00000001
,
00002000
00003000
00000010
00000200
00000300
00002000
00003000
00010000
,
00002000
00000000
00000000
00003000
,
00011000
00000000
00000000
00000000
00000000
00000000
00001000
00010000
,
00100000
00000000
01000000
00100000
10000000
01000000
00010000
00000000
,
00001000
00010000
00000100
00010000
00001000
00000000
00010000
00001000
,
00000010
00000000
00000001
00000010
00000001
00000100
00001000
00000000
,
00010000
00001000
00100000
00001000
00010000
00000000
00001000
00100000
,
00010000
00000000
01000000
00100000
10000000
00000000
01000000
00100000
,
00001000
00000000
00100000
00001000
00020000
00000000
00030200
00000000
,
00000320
00000000
00000000
00000000
00000030
00000000
00000001
00001000
,
00000010
00000000
00000000
00000100
00000000
00000000
00000010
00000000
00000000
00000000
00000000
00000000
00000010
00000000
00001000
00000000
,
00000001
00000000
00000100
00000001
00001000
00000010
00010000
00000000
,
00001000
01000000
00010000
00100000
01000000
00000000
01000000
10000000
,
00010000
00000000
00100000
00010000
00100000
00001000
00010000
00000000
,
00000100
00001000
00000010
00001000
00000100
00000000
00000100
00001000
,
00000001
00000000
00000010
00000001
00000010
00000100
00010000
00000000
,
00001000
00010000
00100000
01000000
00020000
00030000
20000000
30000000
,
00200000
00000000
00000000
00000000
00300000
00000000
01000000
00010000
,
00100000
00000000
00000000
00001000
00000000
00000000
00010000
00000000
00000000
00000000
00000100
00000000
00000000
00000000
00000020
00000000
,
00000000
00000000
00000001
00000100
,
00001000
00000000
00000130
00000000
00000100
00001000
00001001
00000000
,
00000001
00000000
00000000
00000100
00000000
00000000
00000010
00000000
00000000
00000100
00000000
00000000
00000001
00000000
00000000
00000000
,
00000100
00000010
00001000
00000000
00000010
00010000
00001000
00000000
,
01000000
00000000
00000000
00010000
00000000
00000000
01000000
00000000
00000000
00100000
00000000
00000000
10000000
00000000
00000000
00000000
,
00010000
00100000
01000000
10000000
00020000
00000000
00000000
00030000
,
10000000
00000000
00000000
01000000
00000000
00000000
00100000
00000000
00000000
01000000
00000000
00000000
10000000
00000000
00000000
00000000
,
01000000
00100000
00010000
00000000
00100000
00001000
00010000
00000000
,
00000100
00000000
00000000
00001000
00000000
00000000
00000100
00000000
00000000
00000010
00000000
00000000
00000001
00000000
00000000
00000000
,
00000100
00000100
00000000
00000010
00000010
00000000
00000110
00000000
,
00002002
00000000
00000000
00003003
,
00000002
00000203
00002300
00023000
,
00030000
00000000
00000000
00000000
,
00000000
00000000
00000000
00000000
;
#NOTES:
     dance-double:
     :
     Hard:
     14:
     :
00000000
00000000
00000000
00000000
,
00000000
00000000
00000000
00000000
,
00000000
00000000
00000000
00000000
,
00000000
00000000
00000000
00000000
,
00000000
00000000
00000000
00000000
,
10000000
01000000
00010000
00001000
00010000
01000000
10000000
00000000
,
11000000
00000000
01000000
00010000
00001000
00010000
00000100
00000000
,
00010100
00000000
00000000
00000000
00000100
00000000
00010000
00000000
00001000
00000000
00000010
00000000
00000001
00000000
00000010
00000001
,
00000010
00000000
00000001
00000010
00000100
00001000
00010000
00100000
,
01000000
00000000
00000000
01100000
00000000
00000000
10010000
00000000
00000000
00000000
00000000
00000000
10000000
00000000
01000000
00000000
,
10000000
00000000
01000000
00100000
00000000
01000000
00100000
00000000
00000000
00010000
00100000
00000000
01000000
00000000
00100000
00000000
,
00001000
00000000
00010000
00000000
00000100
00000000
00000000
00000000
00001000
00000000
00000000
00000001
00000000
00000000
00001000
00000000
,
00000001
00000000
00000100
00000010
00000000
00000100
00000001
00000000
00000000
00001000
00000010
00000000
00000100
00000000
00000010
00000000
,
00010000
00001000
00010000
00001000
00010000
00000000
00100000
00000000
10000000
00000000
00000000
00000000
00100000
01000000
00100000
01000000
,
00100000
00000000
10000000
01000000
00000000
10000000
01000000
00000000
00000000
00100000
00010000
00000000
00001000
00000000
00000100
00000000
,
00001000
00000100
00001000
00000100
00001000
00000000
00000001
00000000
00000100
00000000
00000000
00001000
00000000
00000000
00000100
00000000
,
00000001
00000000
00000100
00000010
00000000
00000100
00000010
00000000
00000000
00001000
00000010
00000000
00000100
00000000
00000001
00000000
,
00000100
00000001
00000100
00000001
00001000
00000000
00000010
00001000
00000010
00001000
00000100
00000000
00010000
00000000
00000000
00000000
,
00001000
00000000
00010000
00000000
00001000
00000000
00100000
00010000
00000000
00000000
00100000
00000000
00010000
00000000
10000000
00000000
,
01000000
00000000
00100000
00000000
00010000
00000000
00100000
00000000
00001000
00000000
00000000
00010000
00000000
00000000
00001000
00000000
,
00000100
00000000
00000001
00000000
00000100
00000000
00000010
00001000
00000000
00000000
00000001
00000000
00000100
00000000
00000020
00000000
,
00000000
00001030
00010000
01000000
00200000
00000000
00300000
00000000
,
10000000
00000000
01000000
00000000
10000000
00000000
00010000
00100000
00000000
00000000
00010000
00000000
00001000
00000000
00000100
00000000
,
00010000
00000000
00001000
00000000
00010000
00000000
00000100
00000010
00000000
00000000
00000001
00000000
00001000
00000000
00000010
00000000
,
00001000
00010000
01000000
00100000
02000000
00000000
03010000
20000000
,
00000000
00000000
30000000
00000000
10000000
01000000
00100000
00010000
,
00200000
00000000
00301000
00010000
00001000
00000100
00000010
00000200
,
00000000
00000000
00000300
00000000
00000001
00001000
00000001
00001000
00000001
00000000
00000100
00000000
00000010
00000000
00010000
00000000
,
00002000
00000000
00013000
00000100
00010000
00001000
00100000
00020000
,
00000000
01030000
00100000
20000000
00000000
30000000
00000000
10000000
,
00100000
00000000
01000000
00000000
00010000
00000000
01000000
00010000
00000000
00000000
00100000
00000000
00010000
00000000
00100000
00000000
,
00001000
00000000
00010000
00000000
00001000
00000000
00010000
00000100
00000000
00000000
00000010
00000000
00000100
00000000
00000010
00000000
,
00000002
00000000
00001003
00000100
00000010
00000001
00000100
00001000
,
00020000
00000000
00000000
00000000
00001000
00000000
00000000
00000000
00001000
00000000
00000000
00000000
00031000
00010000
00001000
00010000
,
00001000
00000000
00000000
00000000
00000000
00000000
00001000
00010000
,
00001000
00000000
00000000
00000000
00010000
00000000
00000100
00000010
00000000
00000000
00000100
00000000
00000010
00000000
00000001
00000000
,
00000100
00000000
00001000
00000000
00000100
00000000
00001000
00010000
00001000
00000000
00000000
00000000
00010000
00000000
00001000
00000000
,
00010000
00000000
00000000
00000000
00001000
00000000
01000000
00100000
00000000
00000000
01000000
00000000
00100000
00000000
10000000
00000000
,
01000000
00000000
00010000
00000000
01000000
00000000
00010000
00001000
00010000
00000000
00000000
00000000
00000010
00000000
00001000
00000000
,
00000010
00000000
00000000
00000000
00001000
00000000
00000001
00000100
00000000
00000000
00000001
00000000
00000100
00000000
00001000
00000000
,
00010000
00100000
10000000
00100000
01000000
00000000
01100000
00000000
,
10010000
00000000
10000000
01000000
00100000
01000000
10000000
00010000
,
10010000
00000000
00000000
00110000
00000000
00000000
00101000
00000000
00000000
00000000
00000000
00000000
00001000
00000000
00100000
00000000
,
00001000
00000000
00000000
00000000
00010000
00001000
00000000
00010000
00000100
00000000
00000010
00000000
00000001
00000000
00000100
00000000
,
00000010
00000000
00001000
00000000
00000100
00000000
00010000
00001000
00000000
00000000
00000000
00000000
00100000
00000000
00001000
00000000
,
00010000
00000000
01000000
00000000
00100000
01000000
00100000
01000000
10000000
00000000
01000000
00000000
00010000
00001000
00010000
00001000
,
00010000
00000000
00000100
00000000
00001000
00000000
00000100
00010000
00000000
00000000
00000000
00000000
00001000
00010000
00001000
00010000
,
00001000
00000000
00000000
00000000
00010000
00000000
00000100
00000010
00000000
00000000
00000100
00000000
00001000
00000000
00000001
00000000
,
00000100
00000010
00010000
00000100
00010000
00000000
00002000
00000000
,
00023000
00000000
00001000
00000000
00000100
00000000
00031000
00010000
,
01000000
00000000
00000000
00100000
00000000
00000000
01100000
00000000
00000000
00000000
10010000
00000000
00000000
00000000
00010000
00000000
,
10000000
00000000
00000000
10000000
01000000
00000000
00000000
01000000
00010000
00000000
00000000
00010000
00001000
00000000
00000000
00001000
,
00000010
00000000
00000001
00000000
00000010
00000000
00000001
00000000
00001000
00000001
00001000
00000001
00001000
00000000
00000000
00000000
,
00000001
00000000
00000100
00000010
00000000
00000100
00000010
00000000
00000000
00001000
00000010
00000000
00000100
00000000
00000010
00000000
,
00010000
00000000
00001000
00000000
01000000
00000000
00000000
00000000
00010000
00000000
00000000
10000000
00000000
00000000
00010000
00000000
,
10000000
00000000
01000000
00100000
00000000
01000000
00100000
00000000
00000000
00010000
00100000
00000000
01000000
00000000
00100000
00000000
,
00001000
00010000
00001000
00010000
00001000
00000000
00000010
00000000
00000001
00000000
00000000
00000000
00000010
00000100
00000010
00000100
,
00000010
00000000
00000001
00000100
00000000
00000001
00000100
00000000
00000000
00000010
00001000
00000000
00010000
00000000
01000000
00000000
,
00010000
01000000
00010000
01000000
00010000
00000000
10000000
00000000
01000000
00000000
00000000
00010000
00000000
00000000
01000000
00000000
,
10000000
00000000
01000000
00100000
00000000
01000000
00100000
00000000
00000000
00001000
00010000
00000000
00000100
00000000
00000010
00000000
,
00000001
00001000
00000001
00001000
00000001
00000000
00001000
00000100
00001000
00000100
00001000
00000000
00000001
00000000
00000100
00000000
,
00000002
00000203
00002300
00023000
,
00230000
00000000
00000000
00000000
20300000
00000000
00000000
00000000
31000000
00000000
00100000
00010000
10000000
00000000
00000000
00000000
,
00000000
00000000
00000000
00000000
;
