
//----- song ID: june -----//
#TITLE:10年桜;
#TITLETRANSLIT:10nen sakura;
#BANNER:10nen sakura.png;
#BACKGROUND:10nen sakura-bg.png;
#CDTITLE:./CDTitles/DDR GRAND PRIX.png;
#MUSIC:10nen sakura.ogg;
#SAMPLESTART:62.254;
#SAMPLELENGTH:15;
#DISPLAYBPM:173;
#BPMS:0=173.4;
#NOTES:
     dance-single:
     :
     Beginner:
     2:
     :
0000
0000
0000
0000
,
0000
0000
0000
0000
,
0000
0000
0000
0000
,
0200
0000
0000
0000
,
0000
0000
0000
0300
,
0002
0000
0000
0000
,
0000
0000
0000
0003
,
1000
0000
0000
0000
,
0010
0000
0000
0000
,
0100
0000
0100
0000
,
0100
0000
0000
0000
,
0001
0000
0000
0000
,
0001
0000
0000
0000
,
0010
0000
0010
0000
,
0010
0000
0000
0000
,
0100
0000
0000
0000
,
0100
0000
0000
0000
,
1000
0000
1000
0000
,
1000
0000
0000
0000
,
0010
0000
0000
0000
,
0100
0000
0000
0000
,
0010
0000
0010
0000
,
0010
0000
0000
0000
,
1000
0000
0000
0000
,
0001
0000
0000
0000
,
1001
0000
0000
0000
,
0010
0000
0000
0000
,
0100
0000
0100
0000
,
0001
0000
0000
0000
,
0001
0000
0001
0000
,
1000
0000
0000
0000
,
0020
0000
0030
0000
,
0200
0000
0300
0000
,
0002
0000
0003
0000
,
2000
0000
3000
0000
,
0010
0000
0010
0000
,
0100
0000
0000
0000
,
0001
0000
0001
0000
,
1000
0000
0000
0000
,
0010
0000
1000
0000
,
0010
0000
1000
0000
,
0001
0000
0000
0000
,
0000
0000
0000
0000
,
1000
0000
0000
0000
,
0000
0000
0000
0000
,
0001
0000
0000
0000
,
0001
0000
0000
0000
,
0100
0000
0000
0000
,
0100
0000
0000
0000
,
0010
0000
0000
0000
,
0100
0000
0000
0000
,
0001
0000
1000
0000
,
0001
0000
0000
0000
,
0100
0000
0000
0000
,
0100
0000
0000
0000
,
0001
0000
0000
0000
,
0001
0000
0000
0000
,
2000
0000
3000
0000
,
0010
0000
0000
0000
,
0020
0000
0030
0000
,
0100
0000
0000
0000
,
0001
0000
1000
0000
,
0001
0000
0000
0000
,
0100
0000
0001
0000
,
0100
0000
0000
0000
,
0001
0000
0000
0000
,
1000
0000
0000
0000
,
0020
0000
0030
0000
,
0110
0000
0000
0000
,
1001
0000
0000
0000
,
0000
0000
0000
0000
;
#NOTES:
     dance-single:
     :
     Easy:
     5:
     :
0000
0000
0000
0000
,
0000
0000
0000
0000
,
0000
0000
0000
0000
,
0020
0000
0000
0030
,
0200
0000
0000
0300
,
0002
0000
0000
0003
,
2000
0000
0000
3000
,
0001
0000
0010
0000
,
0100
0000
0000
1000
,
0010
0100
0010
0000
,
1000
0100
1000
0000
,
0001
0000
0001
0000
,
1000
0000
1000
0000
,
0001
0100
0010
1000
,
0001
0000
0000
0000
,
1000
0000
1000
0000
,
0010
0000
0010
0000
,
0110
0000
1001
0000
,
0001
0010
0001
0000
,
1000
0000
1000
0000
,
0001
0000
0001
0000
,
1000
0100
0010
0001
,
1000
0000
0010
0000
,
0110
0000
0001
0000
,
1001
0000
1000
0000
,
1001
0000
0110
0000
,
0001
0100
0001
0000
,
1001
0000
0000
0000
,
0010
0000
0010
0000
,
1001
0000
0000
0000
,
0100
0000
0100
0000
,
0020
0000
1030
0000
,
0002
0000
0103
0000
,
2000
0000
3010
0000
,
0200
0000
0301
0000
,
0110
0000
0000
0000
,
1000
0000
1000
0000
,
0110
0000
0000
0000
,
0001
0000
0001
0000
,
0100
0000
0010
0000
,
1000
0100
0010
0001
,
1001
0000
0000
0000
,
0100
0010
0100
0000
,
0110
0000
0000
0000
,
0001
1000
0001
0000
,
0100
0000
0100
0000
,
0010
1000
0010
0000
,
0100
0000
0100
0000
,
0001
1000
0001
0000
,
0100
0000
0001
0000
,
0010
0000
0001
0000
,
1000
0000
0100
0000
,
0010
0100
0010
0000
,
0001
0000
0001
0000
,
1000
0010
1000
0000
,
0010
0000
0010
0000
,
0100
0001
0100
0000
,
0020
0000
1030
0000
,
0001
0000
1000
0000
,
0200
0000
0310
0000
,
0001
0000
0100
0000
,
0010
1000
0010
0000
,
1000
0001
0100
0000
,
0001
0010
0001
0000
,
1000
0010
0100
0000
,
0001
0000
0010
0000
,
0100
0100
0100
0000
,
2000
0000
3010
0000
,
0110
0000
1001
0000
,
1001
0000
0000
0000
,
0000
0000
0000
0000
;
#NOTES:
     dance-single:
     :
     Medium:
     8:
     :
0000
0000
0000
0000
,
0000
0000
0000
0000
,
0000
0000
0000
0000
,
2000
0000
0000
3001
,
0002
0000
0000
0013
,
0020
0000
0000
0130
,
0200
0000
0000
1300
,
2000
0000
3020
0000
,
0230
0000
0000
0301
,
1001
0000
1000
0000
0001
0010
0000
0001
,
0000
0100
0010
0000
0100
0000
0010
0000
,
1000
0100
1000
0010
,
0100
0001
0100
0010
,
1000
0000
1000
0000
0001
0000
0001
0100
,
0000
0010
1000
0100
,
0010
0001
0100
0010
,
1000
0010
1000
0100
,
0110
0000
1001
0000
,
0110
0000
1001
0000
1000
0010
0100
0000
,
0001
0100
0001
0010
,
0100
1000
0100
0010
,
0001
0000
0100
0000
0010
0000
1000
0010
,
1000
0000
0100
0010
,
0110
0000
0001
1000
,
1001
0000
0001
0010
,
0100
0000
1000
0000
0001
0000
0100
0010
,
0100
0000
0010
0000
1000
0100
1000
0000
,
1001
0000
0000
0010
0100
0000
0000
0010
,
1000
0001
0010
0000
,
0110
0000
0000
1000
0001
0000
0000
1000
,
0010
1000
0001
0000
,
0200
0301
0010
0001
,
2000
3010
0100
0001
,
0020
0130
1000
0001
,
0200
0310
1000
0001
,
1001
0000
0000
1000
0010
0000
0000
1000
,
0100
1000
0001
0000
,
0110
0000
0000
0001
0100
0000
0000
0001
,
0010
0001
1000
0000
,
0000
0010
0010
0010
,
1000
1000
0001
0001
,
0010
0000
0110
0000
0001
0001
0000
0101
,
0000
1010
0000
0100
0100
0000
0001
0000
,
1000
0000
1001
0000
0010
0010
0000
1100
,
0000
0011
0000
0100
0100
0000
0001
0000
,
1000
0010
0000
1000
0000
0100
0000
1000
,
0000
0001
0000
0010
0100
0000
0010
0000
,
0001
0100
0000
0001
0000
0100
0000
0010
,
0000
1000
0000
0010
0100
0000
0001
0000
,
1000
0010
1000
0001
,
0100
0001
0010
0100
,
1000
1000
0001
0001
,
1000
0000
0010
0100
0010
0000
1000
0000
,
0001
0010
0000
0001
0000
0100
0000
0001
,
0000
1000
0000
0010
0100
0000
0010
0000
,
1000
0100
0000
1000
0000
0100
0000
0010
,
0000
0001
0000
0010
0100
0000
1000
0000
,
0002
0000
0000
0103
0010
0000
0000
0000
,
1000
0100
0010
0001
,
2000
0000
0000
3010
0100
0000
0000
0000
,
0001
0010
0100
1000
,
0010
0100
0000
0010
0000
1000
0000
0100
,
0000
1000
0000
0100
0010
0000
0001
0000
,
0100
0010
0000
0100
0000
0001
0000
0010
,
0000
0100
0000
1000
0001
0000
0100
0000
,
0010
1000
0100
1000
,
0001
0100
0010
1000
,
0020
0000
0000
0000
1030
0001
0000
0001
,
1000
0010
0100
0010
,
1001
0000
0000
0000
,
0000
0000
0000
0000
;
#NOTES:
     dance-single:
     :
     Hard:
     11:
     :
0000
0000
0000
0000
,
0000
0000
0000
0000
,
0000
0000
0000
0000
,
0002
0100
0000
0103
,
2000
0100
0000
3100
,
0020
0001
0000
0031
,
0200
1000
0000
1300
,
0002
0000
0023
0000
,
0230
0000
0000
1300
,
1001
0000
0001
0000
1000
0010
0000
0100
,
0000
0001
0010
0000
0001
0100
0010
1000
,
0010
0000
1000
0000
0010
0100
0010
0000
,
1000
0100
1000
0000
0001
0010
0001
0000
,
1000
0000
0100
0000
0010
0000
0001
0100
,
0001
0000
1000
0010
0100
0010
1000
0000
,
0001
0000
1000
0000
0001
0100
1000
0000
,
0100
0000
0001
0000
1000
0100
0001
0000
,
0110
0001
1001
0100
,
1010
0000
0101
0000
0010
1000
0100
0010
,
0001
0000
0100
0000
0010
1000
0010
0000
,
0100
0001
0100
0000
0001
0010
0001
0000
,
0100
0000
0010
0000
1000
0000
0001
0010
,
0001
0000
1000
0000
0001
0010
1000
0000
,
0110
0000
0001
0000
1000
0010
0001
0000
,
0110
0000
1000
0000
0010
0100
0010
0000
,
0101
0000
0011
0000
1010
0000
0100
0001
,
0000
1000
0010
1000
0001
0010
0100
0000
,
0110
0000
0000
0001
0100
0000
0000
0001
,
0010
0001
1000
0100
0010
0000
0110
0000
,
1001
0000
0000
1000
0010
0000
0000
1000
,
0100
1000
0001
0010
0100
0000
0110
0000
,
2000
0000
0000
0010
3010
0000
1010
0000
,
0002
0000
0000
0100
0103
0000
0101
0000
,
0020
0000
0000
1000
1030
0000
1001
0000
,
0200
0000
0000
0001
0301
0000
1001
0000
,
0010
0000
0000
1000
0010
0000
0000
0100
,
0001
0100
0010
1000
0010
0000
1001
0000
,
0100
0000
0000
0001
0100
0000
0000
0010
,
1000
0010
0100
0001
0100
0000
1001
0000
,
0001
0010
0001
0100
,
0010
1000
0010
1000
0001
0100
0010
1000
,
0010
0000
0110
0000
0001
0001
0000
0101
,
0000
1001
0000
0010
1000
0100
1000
0000
,
0100
0000
0110
0000
0001
0001
0000
0010
,
0000
0001
0100
0001
1000
0010
0100
0000
,
0001
0101
0000
0001
0000
0100
0000
1000
,
0000
0100
0000
0010
0100
0000
0010
0000
,
1000
1100
0000
1000
0000
0100
0000
0001
,
0000
0100
0000
0010
0100
0000
0010
0001
,
0100
0000
0010
0000
1000
0010
1000
0001
,
0100
0001
0010
0100
,
1000
0010
1000
0000
0001
0100
0001
0000
,
1000
0010
1000
0100
0010
0001
1000
0000
,
0100
1100
0000
1000
0000
0100
0000
0001
,
0000
0100
0000
0010
0100
0000
0010
0000
,
0001
0101
0000
0001
0000
0100
0000
1000
,
0000
0100
0000
0010
0100
0000
0010
1000
,
0020
0000
0000
0130
0001
0000
0000
1000
,
0100
1000
0100
0010
0100
1000
0001
0100
,
0020
0000
0000
1030
0001
0000
0000
0100
,
0010
0100
0010
1000
0010
0100
0001
0010
,
0001
1000
0000
0100
0000
0010
0000
0100
,
0000
1000
0010
0100
0010
0100
0001
0000
,
1000
0001
0000
0010
0000
0100
0000
0010
,
0000
0001
0000
0010
0100
0000
1000
0010
,
1000
0000
0001
0100
0000
0001
0000
0100
,
0010
1000
0010
0100
0000
0000
0001
0010
,
0002
0000
0100
0000
1003
0010
0000
0010
,
0100
0001
0010
0100
,
1001
0000
0000
0000
,
0000
0000
0000
0000
;
#NOTES:
     dance-double:
     :
     Easy:
     6:
     :
00000000
00000000
00000000
00000000
,
00000000
00000000
00000000
00000000
,
00000000
00000000
00000000
00000000
,
02000000
00000000
00000000
03000000
,
00020000
00000000
00000000
00030000
,
00200000
00000000
00000000
00300000
,
00002000
00000000
00000000
00003000
,
00010000
00000000
00000100
00000000
,
00001000
00000000
00000000
00000001
,
00000100
00000010
00000100
00000000
,
00000010
00001000
00000010
00000000
,
00010000
00000000
00010000
00000000
,
00001000
00000000
00001000
00000000
,
01000000
00010000
10000000
00100000
,
10000000
00000000
00000000
00000000
,
00010000
00000000
00010000
00000000
,
01000000
00000000
01000000
00000000
,
01010000
00000000
00011000
00000000
,
00000100
00010000
00000100
00000000
,
00001000
00000000
00001000
00000000
,
00000001
00000000
00000001
00000000
,
00000100
00000010
00001000
00000100
,
00010000
00000000
00001000
00000000
,
00011000
00000000
01000000
00000000
,
01100000
00000000
00010000
00000000
,
10010000
00000000
00011000
00000000
,
00001000
00010000
00001000
00000000
,
00001010
00000000
00000001
00000000
,
00001000
00000100
00001000
00000000
,
00011000
00000000
00001000
00000000
,
00010000
00001000
01000000
00000000
,
00020000
00000000
10030000
10000000
,
20000000
00000000
31000000
01000000
,
02000000
00000000
03010000
00010000
,
00020000
00000000
00031000
00001000
,
00011000
00000000
00000100
00000000
,
00001000
00000010
00001000
00000000
,
00000110
00000000
00000001
00000000
,
00001000
00000010
00001000
00000000
,
00000001
00000000
00000100
00000000
,
00001000
00010000
01000000
10000000
,
10100000
00000000
00110000
00000000
,
00001000
00010000
00001000
00000000
,
00001100
00000000
00000101
00000000
,
00000100
00000010
00000100
00000000
,
00000001
00001000
00000100
00010000
,
00001000
01000000
00010000
00000000
,
10000000
01000000
00100000
00010000
,
00100000
00001000
00010000
00000000
,
00001000
00000000
00000010
00000000
,
00000001
00000000
00000100
00000000
,
00001000
00000000
00010000
00000000
,
00100000
01000000
00100000
00000000
,
10000000
00100000
00010000
00001000
,
00000010
00000001
00001000
00000000
,
00000001
00000010
00001000
00010000
,
00100000
10000000
00010000
00000000
,
02000000
00000000
03001000
00000000
,
00010000
00000000
00000100
00000000
,
00002000
00000000
00003010
00000000
,
00000100
00000000
00000001
00000000
,
00001000
00000010
00001000
00000000
,
00000100
00010000
00001000
00000000
,
00100000
00010000
00100000
00000000
,
00010000
10000000
01000000
00000000
,
00100000
00000000
00010000
00000000
,
00100000
00001000
00010000
00000000
,
00002000
00000000
00003100
00000000
,
00000001
00000000
00001000
00000000
,
00001001
00000000
00000000
00000000
,
00000000
00000000
00000000
00000000
;
#NOTES:
     dance-double:
     :
     Medium:
     8:
     :
00000000
00000000
00000000
00000000
,
00000000
00000000
00000000
00000000
,
00000000
00000000
00000000
00000000
,
00000002
00000000
00000000
00001003
,
00002000
00000000
00000000
00003100
,
00000200
00000000
00000000
00010300
,
00020000
00000000
00000000
00031000
,
00002000
00000000
02003000
00000000
,
03020000
00000000
00000000
10030000
,
10010000
00000000
00010000
00000000
01000000
00001000
00000000
00010000
,
00000000
00000100
00001000
00000000
00000001
00000000
00000010
00000000
,
00000001
00000100
00000010
00001000
,
00000100
00010000
00000100
00010000
,
00001000
00000000
00001000
00000000
00100000
00000000
00100000
00010000
,
00000000
10000000
00100000
01000000
,
00010000
10000000
01000000
00010000
,
00001000
00000100
00000001
00001000
,
00001001
00000000
00011000
00000000
,
10010000
00000000
01100000
00000000
10000000
00100000
01000000
00000000
,
00100000
10000000
01000000
00100000
,
00010000
00100000
00001000
00010000
,
00001000
00000000
00000010
00000000
00000001
00000000
00000100
00000010
,
00000100
00000000
00000001
00001000
,
00001001
00000000
00001000
00010000
,
00011000
00000000
00001000
00010000
,
00100000
00000000
10000000
00000000
00010000
00000000
10000000
01000000
,
10000000
00000000
00100000
00000000
01000000
00010000
01000000
00000000
,
00011000
00000000
00000000
00010000
00000100
00000000
00000000
00010000
,
00000010
00001000
00000100
00000000
,
00000110
00000000
00000000
00000001
00000100
00000000
00000000
00000001
,
00001000
00000100
00010000
00000000
,
00002000
00013000
01000000
10000000
,
00200000
00310000
00001000
00010000
,
00002000
00003010
00000001
00000010
,
00000200
00001300
00000100
00010000
,
00011000
00000000
00000000
00000000
00001000
00100000
00000000
00001000
,
01000000
00010000
00100000
00000000
,
01100000
00000000
00000000
10000000
01000000
00000000
00000000
10000000
,
00010000
00100000
00001000
00000000
,
00000000
00010000
00010000
00010000
,
00000010
00000010
00001000
00001000
,
00000001
00000000
00000101
00000000
00001000
00001000
00000000
00001100
,
00000000
00011000
00000000
00001000
00001000
00000000
01000000
00000000
,
00010000
00000000
10010000
00000000
10000000
10000000
00000000
10100000
,
00000000
00110000
00000000
00001000
00001000
00000000
00010000
00000000
,
00000010
00001000
00000000
00000001
00000000
00000100
00000000
00000001
,
00000000
00001000
00000000
00000100
00001000
00000000
00000100
00000000
,
00010000
00001000
00000000
01000000
00000000
00010000
00000000
01000000
,
00000000
00100000
00000000
10000000
00010000
00000000
01000000
00000000
,
00100000
10000000
01000000
00010000
,
00001000
00000100
00000001
00000010
,
00000001
00000001
00001000
00001000
,
00000010
00000000
00010000
00001000
00010000
00000000
00001000
00000000
,
00010000
00001000
00000000
00010000
00000000
01000000
00000000
10000000
,
00000000
01000000
00000000
00010000
00001000
00000000
00010000
00000000
,
00001000
00010000
00000000
00001000
00000000
00000100
00000000
00000001
,
00000000
00000100
00000000
00001000
00000100
00000000
00000010
00000000
,
00002000
00000000
00000000
00003100
00010000
00000000
00000000
00000000
,
00001000
00100000
00010000
01000000
,
00200000
00000000
00000000
10300000
00010000
00000000
00000000
00000000
,
00100000
00001000
00010000
00000010
,
00001000
00000100
00000000
00000010
00000000
00000001
00000000
00001000
,
00000000
00000100
00000000
00010000
00001000
00000000
00100000
00000000
,
00010000
01000000
00000000
00100000
00000000
10000000
00000000
00010000
,
00000000
01000000
00000000
00001000
00010000
00000000
00001000
00000000
,
00010000
00000100
00001000
00000100
,
00000010
00000001
00000100
00000010
,
00002000
00000000
00000000
00000000
00003100
00010000
00000000
00010000
,
00001000
01000000
00010000
10000000
,
10010000
00000000
00000000
00000000
,
00000000
00000000
00000000
00000000
;
#NOTES:
     dance-double:
     :
     Hard:
     11:
     :
00000000
00000000
00000000
00000000
,
00000000
00000000
00000000
00000000
,
00000000
00000000
00000000
00000000
,
20000000
01000000
00000000
31000000
,
00020000
00001000
00000000
00031000
,
00000200
00000001
00000000
00000301
,
00002000
00000100
00000000
00003100
,
00020000
00000000
00032000
00000000
,
00203000
00000000
00000000
01300000
,
01100000
00000000
10000000
00000000
00010000
00100000
00000000
00001000
,
00000000
00010000
00001000
00000000
00010000
00000100
00001000
00000100
,
00000010
00000000
00000001
00000000
00001000
00000010
00001000
00000000
,
00000100
00001000
00000100
00000000
00010000
00001000
00010000
00000000
,
00001000
00000000
00010000
00000000
00100000
00000000
10000000
00100000
,
10000000
00000000
01000000
00000000
00100000
00010000
10000000
00000000
,
00010000
00000000
01000000
00000000
00001000
00010000
00001000
00000000
,
00000100
00000000
00000001
00000000
00000010
00000001
00000010
00000000
,
00000110
00001000
00001100
00010000
,
00011000
00000000
00110000
00000000
10000000
00100000
01000000
00010000
,
01000000
00000000
00001000
00000000
00010000
00001000
00010000
00000000
,
00000010
00001000
00000010
00000000
00001000
00000100
00001000
00000000
,
00000001
00000000
00000010
00000000
00000100
00000000
00001000
00000010
,
00001000
00000000
00000001
00000000
00000010
00001000
00010000
00000000
,
00011000
00000000
00001000
00000000
00010000
00100000
10000000
00000000
,
10100000
00000000
10000000
00000000
00010000
00100000
00010000
00000000
,
00011000
00000000
00001001
00000000
00000011
00000000
00001000
00000010
,
00000000
00001000
00000100
00010000
00001000
00010000
00001000
00000000
,
01001000
00000000
00000000
00010000
10000000
00000000
00000000
01000000
,
10000000
01000000
00010000
00001000
00010000
00000000
00011000
00000000
,
00010100
00000000
00000000
00001000
00000001
00000000
00000000
00000010
,
00000001
00000010
00001000
00010000
00001000
00000000
00011000
00000000
,
00200000
00000000
00000000
00010000
00310000
00000000
10010000
00000000
,
20000000
00000000
00000000
00010000
30010000
00000000
00110000
00000000
,
00002000
00000000
00000000
00010000
00013000
00000000
00010010
00000000
,
00002000
00000000
00000000
00000001
00003001
00000000
00000101
00000000
,
00001000
00000000
00000000
00000100
00010000
00000000
00000000
00001000
,
00010000
00001000
00100000
00010000
00100000
00000000
01100000
00000000
,
10000000
00000000
00000000
00010000
00100000
00000000
00000000
00001000
,
00010000
00001000
00010000
00000100
00001000
00000000
00000110
00000000
,
00000001
00000100
00001000
00010000
,
00100000
01000000
00100000
01000000
00010000
10000000
00010000
10000000
,
01000000
00000000
00100000
00000000
00010000
00010000
00000000
00011000
,
00000000
00001001
00000000
00000001
00000100
00000010
00001000
00000000
,
00000100
00000000
00010000
00000000
00001000
00001000
00000000
00010000
,
00000000
00001000
01000000
00010000
01000000
00100000
10000000
00000000
,
00010000
00010000
00000000
10000000
00000000
00100000
00000000
00010000
,
00000000
00001000
00000000
00000010
00000001
00000000
00000100
00000000
,
00000001
00000001
00000000
00000010
00000000
00001000
00000000
00010000
,
00000000
00100000
00000000
10000000
00100000
00000000
01000000
00010000
,
00100000
00000000
00010000
00000000
10000000
00100000
10000000
00010000
,
00100000
00001000
00010000
00000100
,
00001000
00000010
00001000
00000000
00000001
00000010
00000001
00000000
,
00000100
00000010
00001000
00000100
00010000
00001000
00100000
00000000
,
00010000
00010000
00000000
10000000
00000000
01000000
00000000
00010000
,
00000000
00001000
00000000
00000100
00000001
00000000
00000010
00000000
,
00000001
00000001
00000000
00000100
00000000
00001000
00000000
00010000
,
00000000
01000000
00000000
10000000
01000000
00000000
00100000
00000000
,
00020000
00000000
00000000
00130000
00001000
00000000
00000000
00010000
,
00001000
00010000
00000010
00001000
00000010
00000100
00000001
00001000
,
00000200
00000000
00000000
00010300
00001000
00000000
00000000
00010000
,
00001000
01000000
00010000
01000000
00100000
10000000
00010000
01000000
,
00010000
10000000
00000000
01000000
00000000
00010000
00000000
00001000
,
00000000
00000100
00000010
00000100
00000001
00000010
00000001
00000000
,
00001000
00000001
00000000
00000100
00000000
00001000
00000000
00010000
,
00000000
01000000
00000000
00100000
01000000
00000000
10000000
00100000
,
10000000
00000000
01000000
00010000
00000000
00001000
00000000
00010000
,
00001000
00010000
00001000
00000100
00000000
00000000
00000001
00001000
,
00000020
00000000
00001000
00000000
00000130
00000001
00000000
00000001
,
00000100
00000010
00010000
00001000
,
00011000
00000000
00000000
00000000
,
00000000
00000000
00000000
00000000
;
