#TITLE:butterfly;
#ARTIST:SMILE.dk;
#BANNER:butterfly.png;
#BACKGROUND:butterfly-bg.png;
#MUSIC:butterfly.ogg;
#SAMPLESTART:31.88;
#SAMPLELENGTH:15;
#DISPLAYBPM:128;
#BPMS:0=127.99;

//---------------dance-single - ----------------
#NOTES:
     dance-single:
     :
     Easy:
     2:
     :
0000
0000
0000
0000
,
0000
0000
0000
0000
,
0000
0000
0000
0000
,
0000
0000
0000
0000
,
0000
0000
0000
0000
,
0000
0000
0000
0000
,
0000
0000
0000
0000
,
0000
0000
0000
0000
,
0000
0000
0000
0000
,
0000
0000
0001
1001
,
0000
0000
1000
1001
,
0000
0001
0100
1000
,
0000
0000
0001
1001
,
0000
0000
1000
1001
,
0000
0000
0001
1001
,
0000
1000
0100
0001
,
0000
0000
1000
1001
,
0000
0010
0010
0010
,
0001
0001
1000
1000
,
0001
0100
1000
0000
,
0001
0010
0100
1000
,
0000
0010
0010
0010
,
0001
0001
1000
1000
,
0001
0100
1000
0000
,
0001
0010
0100
1000
,
0010
0001
0010
0001
,
0010
1000
0010
1000
,
0010
0001
0010
0001
,
0010
1000
0010
1000
,
0000
0000
0001
1001
,
0000
0000
1000
1001
,
0000
0001
0100
1000
,
0000
0000
0001
1001
,
0000
0000
1000
1001
,
0000
0000
0001
1001
,
0000
1000
0100
0001
,
0000
0000
1000
1001
,
0000
0010
0010
0010
,
0001
0001
1000
1000
,
0001
0100
1000
0000
,
0001
0010
0100
1000
,
0000
0010
0010
0010
,
0001
0001
1000
1000
,
0001
0100
1000
0000
,
0001
0010
0100
1000
,
0000
0010
0001
0010
,
0001
0010
0001
0010
,
0001
0010
0001
0010
,
0001
0010
0100
1000
,
0000
0010
1000
0010
,
1000
0010
1000
0010
,
1000
0010
1000
0010
,
1000
0100
0010
0001
;

//---------------dance-single - ----------------
#NOTES:
     dance-single:
     :
     Medium:
     4:
     :
0000
0000
0000
0000
,
0000
0000
0000
0000
,
0000
0000
0000
0000
,
0000
0000
0000
0000
,
0000
0000
0000
0000
,
0000
0000
0000
0000
,
0000
0000
0000
0000
,
0010
0001
0010
1000
,
0010
0001
0000
0000
,
0010
0000
0110
1001
,
0010
0000
0110
1001
,
0000
0001
0100
1000
,
0010
0001
1000
1001
,
0010
0000
0110
1001
,
0010
0000
0110
1001
,
0000
0001
0100
1000
,
0010
0001
1000
1001
,
0000
0010
0010
1001
,
0001
0011
1000
1100
,
0010
0100
1100
0000
,
0001
1000
0100
0011
,
0000
0010
0010
1001
,
0001
0011
1000
1100
,
0010
0100
0101
0000
,
1000
0001
0010
1100
,
0100
0001
0100
0001
,
0100
1000
0100
1000
,
0100
0001
0100
0001
,
0100
1000
0100
1000
,
0010
0000
0110
1001
,
0010
0000
0110
1001
,
0000
0001
0100
1000
,
0010
0001
1000
1001
,
0010
0000
0110
1001
,
0010
0000
0110
1001
,
0000
0001
0100
1000
,
0010
0001
1000
1001
,
0000
0010
0010
1001
,
0001
0011
1000
1100
,
0010
0100
1100
0000
,
0001
1000
0100
0011
,
0000
0010
0010
1001
,
0001
0011
1000
1100
,
0010
0100
0101
0000
,
1000
0001
0010
1100
,
0000
0100
0001
0100
,
1000
0100
0001
0100
,
1000
0100
0001
0100
,
1000
0010
0100
1001
,
0000
0100
1000
0100
,
0001
0100
1000
0100
,
0001
0100
1000
0100
,
0001
0010
0100
1001
;

//---------------dance-single - ----------------
#NOTES:
     dance-single:
     :
     Hard:
     5:
     :
0000
0000
0000
0000
,
0000
0000
0000
0000
,
0000
0000
0000
0000
,
0000
0000
0000
0000
,
0000
0000
0000
0000
,
0000
0000
0000
0000
,
0000
0000
0000
0000
,
0000
0000
0000
0000
,
0000
0000
0000
0000
0000
0000
0100
0010
,
0010
0000
0100
0000
1001
0000
1000
0100
,
0010
0000
0100
0000
1001
0000
0001
0100
,
1000
0000
0100
0000
0001
0000
0100
1000
,
0100
0000
0001
0000
1000
0000
0100
0001
,
0010
0000
0100
0000
1001
0000
0001
0100
,
0010
0000
0100
0000
1001
0000
1000
0100
,
0001
0000
0100
0000
1000
0000
0100
0001
,
0100
0000
1000
0000
0001
0000
1000
0001
,
1001
0000
0010
0000
1001
0000
1000
0100
,
0010
0011
1100
0000
,
0001
0000
0100
0000
1000
0010
0001
0000
,
0100
0000
1000
0000
0001
0000
0100
1000
,
0010
0000
0010
0000
1001
0000
0001
0100
,
0010
1010
0101
0000
,
1000
0000
0100
0000
0001
0010
1000
0000
,
0100
0000
0001
0000
1000
0000
0001
1000
,
1001
0000
0010
0000
0001
0000
0010
0001
,
0010
0000
0001
0000
0010
0000
0001
0100
,
1000
0000
0010
0000
1000
0000
0010
1000
,
0010
0000
1000
0000
0010
0000
0100
0010
,
0010
0000
0100
0000
1001
0000
1000
0100
,
0010
0000
1000
0000
1001
0000
0001
0100
,
1000
0000
0100
0000
0001
0000
0100
1000
,
0100
0000
0001
0000
1000
0000
0100
0001
,
0010
0000
0100
0000
1001
0000
0001
0100
,
0010
0000
0100
0000
1001
0000
1000
0100
,
0001
0000
0100
0000
1000
0000
0100
0001
,
0100
0000
1000
0000
0001
0000
1000
0001
,
1001
0000
0010
0000
1001
0000
1000
0100
,
0010
0011
1100
0000
,
0001
0000
0100
0000
1000
0010
0001
0000
,
0100
0000
1000
0000
0001
0000
0100
1000
,
0010
0000
0010
0000
1001
0000
0001
0100
,
0010
1010
0101
0000
,
1000
0000
0100
0000
0001
0010
1000
0000
,
0100
0000
0001
0000
1000
0000
0001
1000
,
1001
0000
0010
0000
0001
0000
0010
0001
,
0010
0000
1000
0000
0010
0000
1000
0010
,
0001
0000
0010
0000
0001
0000
0010
0001
,
0100
0000
1000
0000
0001
0000
1000
0001
,
1001
0000
0100
0000
1000
0000
0100
1000
,
0100
0000
0001
0000
0100
0000
0001
0100
,
1000
0000
0100
0000
1000
0000
0100
1000
,
0010
0001
1000
1001
;
