#TITLE:SP-TRIP MACHINE (JUNGLE MIX);
#ARTIST:DE-SIRE;
#BANNER:SP-TRIP MACHINE (JUNGLE MIX).png;
#BACKGROUND:SP-TRIP MACHINE (JUNGLE MIX)-bg.png;
#MUSIC:SP-TRIP MACHINE (JUNGLE MIX).ogg;
#SAMPLESTART:1.49;
#SAMPLELENGTH:15;
#DISPLAYBPM:161;
#BPMS:0=161.06;

//---------------dance-single - ----------------
#NOTES:
     dance-single:
     :
     Easy:
     6:
     :
0000
0000
0000
0000
,
0000
0010
0000
0010
,
0000
1000
0100
0001
,
0010
1000
0100
0000
0001
0000
1000
0000
,
0001
0100
0001
0101
,
0000
0010
0000
0010
,
0000
0001
0100
1000
,
0010
0001
0100
0000
1000
0000
0001
0000
,
1000
0100
1000
1100
,
1001
0000
0100
0000
0010
0100
0010
0000
,
1000
0000
0001
0000
0010
0100
0010
0000
,
0010
0000
0001
0000
1000
0010
0001
0000
,
0110
1001
0100
1000
,
0001
0000
0100
0000
,
1000
0000
0010
0100
,
0001
1000
0100
0100
,
0001
0001
0001
0001
,
0001
0010
0000
0000
0000
0000
0001
0100
,
0000
0010
0001
0100
0000
0000
0000
0000
,
0000
0000
0100
0000
0000
0100
0000
0000
,
0010
0001
1000
0010
,
0100
0001
1000
0100
,
0000
0100
1000
0010
1000
0100
0000
0000
,
0000
0000
0100
0000
0000
0100
0000
0000
,
1000
0001
0100
0010
,
0010
0000
0100
0000
0001
1000
0000
0000
,
0000
0010
0000
1000
0100
0000
0101
0000
,
0010
0000
0100
0000
1000
0001
0000
0010
,
0000
1000
0000
0100
1000
0100
0001
0000
,
0010
0000
0100
0000
1000
0001
0000
0000
,
0000
0010
0000
0001
0100
0000
1100
0000
,
0010
0000
0100
0000
0001
1000
0000
0010
,
0000
0001
0000
0100
0001
0100
1000
0000
,
0010
1000
0000
0100
0000
0000
0010
0000
,
0001
1000
0110
1001
,
0010
0001
0100
0001
0000
0100
0010
0000
,
0010
0100
0000
0100
0000
0100
0000
0001
,
1000
0100
0001
1000
,
0110
0001
1000
0100
,
1000
0000
0001
0000
,
1000
0001
0100
0010
,
0100
1000
0000
0010
0001
0000
0000
0000
,
1000
0100
0001
0100
1000
0000
0101
0000
,
0010
0001
0000
0100
1000
0000
0000
0000
,
0010
0100
0000
0100
0000
0100
0000
0001
,
1000
0010
0001
1000
,
0010
0100
0000
0100
0000
0100
0000
0001
,
1000
0010
1000
0001
,
0100
0010
1000
0001
,
0000
0100
0000
0000
0000
0000
0000
0000
;

//---------------dance-single - ----------------
#NOTES:
     dance-single:
     :
     Medium:
     7:
     :
0000
0000
0000
0000
,
0010
0000
0010
0000
0000
1000
0100
0001
,
0000
1000
0010
0001
,
1000
0010
0001
0000
1000
0000
0100
0000
,
1001
0100
0010
1001
,
0010
0000
0010
0000
0000
0001
0100
1000
,
0000
0001
0010
1000
,
0001
0010
1000
0000
0001
0000
0100
0000
,
1001
0100
0010
1001
,
0001
0000
0010
0000
0100
0010
0001
0000
,
1000
0000
0010
0000
0100
0010
1000
0000
,
0010
0010
0100
0010
0000
0100
0010
0000
,
0011
1100
0101
0110
,
1001
0010
0001
1000
,
1001
1000
0001
0100
,
0001
1000
0100
0100
,
0010
0001
0100
1000
0100
0001
0010
0000
,
0001
0010
1000
0000
0000
0000
0001
0100
,
0000
1000
0001
0100
0000
0000
0000
0000
,
0010
0000
0100
0000
0000
0100
0000
0000
,
1000
0100
0010
1000
,
0001
0100
0010
0001
,
0000
0001
0100
0010
1000
0100
0000
0000
,
0000
0000
0100
0000
0000
0100
0000
0000
,
1000
0100
0010
0001
,
0010
1000
0100
0010
0001
0100
0000
0000
,
0000
0001
0000
1000
0010
0000
0101
0000
,
0010
0001
0100
0010
1000
0100
0000
0001
,
0000
1000
0000
0100
0010
0001
0100
0000
,
0010
0001
0100
0010
1000
0100
0000
0000
,
0000
1000
0000
0001
0010
0000
1100
0000
,
0010
1000
0100
0010
0001
0100
0000
1000
,
0000
0001
0000
0100
0010
1000
0100
0000
,
0001
0100
0000
1000
0000
0000
0001
0000
,
1010
0100
0010
0101
,
1000
0100
0010
0001
0000
0100
1000
0000
,
0010
1000
0000
0100
0000
0001
0000
0010
,
0100
0010
0001
0100
,
0010
1000
0100
0110
,
1000
0000
0001
0000
,
1000
0001
0100
0010
,
1000
0100
0000
0001
0100
0000
0000
0000
,
0010
0001
0010
0100
1000
0000
1100
0000
,
0001
0100
0000
1000
0100
0000
0000
0000
,
0010
1000
0000
0100
0000
0001
0000
0010
,
0100
0010
0001
0100
,
0010
1000
0000
0100
0000
0001
0000
0010
,
0100
0010
1000
0001
,
0100
0010
1000
0001
,
0000
0100
0000
0000
0000
0000
0000
0000
;

//---------------dance-single - ----------------
#NOTES:
     dance-single:
     :
     Hard:
     8:
     :
0000
0000
0000
0000
,
0010
0100
0010
0000
0000
0001
0100
1000
,
0000
0000
0001
1000
0001
1000
0100
0000
,
0001
0010
1000
0000
0001
0000
0100
0000
,
0001
1000
0100
0010
0100
1000
0001
0000
,
0010
0100
0010
0000
0000
1000
0100
0001
,
0000
0000
1000
0001
1000
0001
0100
0000
,
1000
0010
0001
0000
1000
0000
0100
0000
,
1000
0001
0100
0010
0100
0001
1000
0000
,
0001
0010
0100
0100
0100
0010
0001
0000
,
1000
0010
0100
0100
0100
0010
1000
0000
,
0010
0001
1000
0100
0000
0001
1000
0000
,
0101
1100
0011
1010
,
1001
0000
0010
0000
0001
0001
1000
1000
,
1001
0000
1000
1000
0001
0001
0100
0000
,
0001
0000
1000
0000
0100
0100
0100
0000
,
0010
0001
0010
0100
0010
1000
0010
0100
,
0001
0100
1000
0000
0000
0000
0001
1000
,
0000
0001
1000
0100
0000
0000
0000
0000
,
0010
0001
0001
0000
0000
0100
0000
0000
,
1000
0100
0010
1000
,
0001
0100
0010
0001
,
0000
0001
0100
0010
1000
0100
0000
0000
,
0000
0000
0100
0000
0000
0100
0000
0000
,
0001
0010
0100
1000
,
0001
0010
1000
0001
0100
1000
0000
0000
,
0000
0101
0000
1010
0010
0000
0101
0000
,
1000
0010
0001
1000
0100
0001
0000
1000
,
0000
1001
0000
0001
0100
1000
0100
0000
,
1000
0010
0001
1000
0100
0001
0000
0000
,
0000
1100
0000
0011
0010
0000
1100
0000
,
0001
0010
1000
0001
0100
1000
0000
0001
,
0000
1001
0000
1000
0100
0001
0100
0000
,
0001
0100
0000
1000
0000
0000
0001
0000
,
1000
0010
0100
0001
0010
0100
0001
0000
,
1000
0100
0010
0001
0000
1000
0100
0000
,
0010
1000
0000
0101
0000
1010
0000
0010
,
0100
0000
0010
0001
0001
0000
0100
0000
,
0010
1000
1000
0000
0100
0000
0110
0000
,
1000
0000
0001
0000
,
1000
0001
0100
0010
,
1000
0010
0000
0010
0001
0000
0000
0000
,
0010
0001
0010
1000
0010
0000
0101
0000
,
0001
0010
0000
0100
1000
0000
0000
0000
,
0010
1000
0000
0101
0000
1010
0000
0010
,
0100
0010
0100
0100
,
0010
1000
0000
0101
0000
1010
0000
0010
,
0100
0010
1000
0001
,
0100
0010
1000
0001
,
0000
0100
0000
0000
0000
0000
0000
0000
;
