#TITLE:PARANOiA;
#ARTIST:180;
#BANNER:PARANOiA.png;
#BACKGROUND:PARANOiA-bg.png;
#MUSIC:PARANOiA.ogg;
#SAMPLESTART:1.375;
#SAMPLELENGTH:15;
#DISPLAYBPM:175;
#BPMS:0=174.81;

//---------------dance-single - ----------------
#NOTES:
     dance-single:
     :
     Easy:
     6:
     :
0000
0000
0000
0000
,
0000
0000
0000
0000
,
0000
0000
0000
0000
,
0000
0000
0000
0000
,
0000
0000
0000
0000
,
0000
0000
0000
0000
,
0000
0000
0000
0000
,
0000
0010
0010
0010
,
0000
0001
0000
0001
,
0000
1000
0100
1000
,
0010
0100
0010
0100
,
0000
0001
0100
0001
,
0010
0100
0010
0100
,
0000
0010
0001
0100
,
1000
0001
0100
1001
,
0000
0010
0010
0010
,
0001
0001
1000
1000
,
0001
0100
1000
0000
,
0001
0010
0100
1000
,
0010
0100
0001
0100
,
1001
0000
0110
0000
1000
0000
0100
0100
,
0100
0010
1000
0010
,
1001
0000
0110
0000
1000
0000
0100
0100
,
0100
0010
1000
0010
,
1001
0110
0001
1000
,
0100
0001
0100
1000
,
0100
0001
0100
1000
,
0100
0001
0100
0001
,
0010
1000
0100
0001
,
0100
1000
0100
0001
,
0100
1000
0100
1000
,
0100
0001
0100
1000
,
0100
0001
0010
1001
,
0010
0000
0000
0001
0000
0000
0100
0000
,
0000
0010
0000
1000
0100
0100
0100
0000
,
0010
0000
0000
1000
0000
0000
0100
0000
,
0000
0010
0000
0001
0100
0100
0100
0000
,
0010
0000
0000
0001
0000
0000
0100
0000
,
0000
0010
0000
1000
0100
0100
0100
0000
,
0010
0000
0000
1000
0000
0000
0100
0000
,
0000
0010
0000
0001
0100
0100
0100
0000
,
0010
0000
0001
0001
,
0000
1000
1000
1000
,
0100
0001
1000
1000
,
0100
0010
0010
0010
,
0001
1000
0010
0010
,
1000
0100
0100
0100
,
1000
0010
0100
0100
,
0010
0001
0001
0001
,
0010
0100
0001
0001
,
0100
1000
1000
1000
,
0110
1001
0000
0010
,
0000
0100
0001
1000
,
0110
1001
0000
0010
,
0000
0100
1000
0001
,
0110
1001
0000
0010
,
0000
0100
0001
1000
,
0110
1001
0000
0010
,
0000
0100
1000
0001
,
0001
0100
1000
0000
0100
0000
0001
0000
,
0100
1000
0100
0001
,
0001
0100
1000
0000
0100
0000
0001
0000
,
0100
1000
0100
0001
,
0001
1000
0100
0001
,
0100
1000
0100
0001
,
0001
0100
1000
0000
0100
0000
0001
0000
,
0100
1000
0100
0001
,
0100
0001
0001
0000
0001
0000
0001
0000
,
0100
1000
1000
0000
1000
0000
1000
0000
,
0100
0001
0001
0000
0001
0001
0001
0000
,
0100
1000
1000
0000
1000
1000
1000
0000
,
0001
0010
0100
0001
,
1000
0010
0100
1000
,
0010
1000
0100
0001
,
0010
1000
0100
0000
;

//---------------dance-single - ----------------
#NOTES:
     dance-single:
     :
     Medium:
     7:
     :
0000
0000
0000
0000
,
0000
0000
0000
0000
,
0000
0000
0000
0000
,
0000
0000
0000
0000
,
0000
0000
0000
0000
,
0000
0000
0000
0000
,
0000
0000
0000
0000
,
0000
0010
0010
0010
,
0000
0001
0000
0001
,
1100
0001
0100
1000
,
0010
0100
0010
0100
,
0101
1000
0100
0001
,
0010
0100
0010
0100
,
0000
0010
0001
0100
,
1000
0001
0110
1001
,
0000
0010
0010
1001
,
0001
0010
1000
0100
,
0010
0100
1000
0000
,
0001
1000
0100
0010
,
0010
0100
0001
0100
,
1100
0000
0101
0000
1000
0000
0001
0001
,
0001
1000
0100
1000
,
1100
0000
0101
0000
1000
0000
0100
0100
,
0100
0010
1000
0010
,
0101
0000
1100
0000
0001
0000
1000
1000
,
0010
0001
0010
1000
,
0010
0001
0010
1000
,
0010
0001
0010
0001
,
0100
1000
0010
0001
,
0010
1000
0010
0001
,
0010
1000
0010
1000
,
0010
0001
0010
1000
,
0010
0001
0100
1001
,
0010
0000
0000
0001
0000
0000
0100
0000
,
0000
0110
0000
1000
0100
0100
0100
0000
,
0010
0000
0000
1000
0000
0000
0100
0000
,
0000
0110
0000
0001
0100
0100
0100
0000
,
0010
0000
0000
0001
0000
0000
0100
0000
,
0000
0110
0000
1000
0100
0100
0100
0000
,
0010
0000
0000
1000
0000
0000
0100
0000
,
0000
0110
0000
0001
0100
0100
0100
0000
,
0010
0000
0001
0001
,
0000
1000
1000
1000
,
0100
0011
1000
1000
,
0101
0010
0010
0010
,
0001
1100
0010
0010
,
1001
0100
0100
0100
,
1000
0011
0100
0100
,
1010
0001
0001
0001
,
0010
1100
0001
0001
,
0110
1000
1000
1000
,
1000
0001
0000
0010
,
0000
0100
0101
1100
,
0001
1000
0000
0010
,
0000
0100
1100
0101
,
1000
0001
0000
0010
,
0000
0100
0101
1100
,
0001
1000
0000
0010
,
0000
0100
1100
0101
,
0001
0100
1000
0000
0100
0000
0001
0000
,
0100
0000
0110
0000
1000
0100
0001
0000
,
0001
0100
1000
0000
0100
0000
0001
0000
,
0100
0000
0110
0000
1000
0100
0001
0000
,
0001
1000
0100
0001
,
0100
0000
0110
0000
1000
0100
0001
0000
,
0001
0100
1000
0000
0100
0000
0001
0000
,
0100
0000
0110
0000
1000
0100
0001
0000
,
0100
0001
0001
0000
0001
0001
0001
0000
,
0100
1000
1000
0000
1000
1000
1000
0000
,
0100
0001
0001
0001
0001
0001
0001
0000
,
0100
1000
1000
1000
1000
1000
1000
0000
,
0011
0100
1000
0010
,
1010
0100
0001
0010
,
1100
0001
0110
1001
,
0101
1000
0110
0000
;

//---------------dance-single - ----------------
#NOTES:
     dance-single:
     :
     Hard:
     8:
     :
0000
0000
0000
0000
,
0000
0000
0000
0000
,
0000
0000
0000
0000
,
0000
0000
0000
0000
,
0000
0000
0000
0000
,
0000
0000
0000
0000
,
0000
0000
0000
0000
,
0000
0000
0000
0000
,
0000
0000
0000
0000
,
1100
0000
0001
0000
0100
0001
1000
0000
,
0010
0000
0100
1000
0001
0100
1000
0000
,
0101
0000
1000
0000
0100
1000
0001
0000
,
0010
0000
0100
0001
1000
0100
0001
0000
,
0010
0000
0010
0000
1001
0000
0001
0100
,
0010
1010
0101
0000
,
1000
0000
0100
0000
0001
0010
1000
0000
,
0100
0001
1000
1001
,
0000
0000
1000
0000
0100
0000
0010
0100
,
0001
0000
0010
0000
1001
0000
1000
0100
,
0010
0000
0100
0000
0001
0010
0100
0000
,
0010
0100
0001
0100
1000
0000
0001
0010
,
1000
0000
0001
0000
0010
1000
0001
0000
,
1000
0001
0010
0001
0001
0000
0010
1000
,
0100
0000
0010
0000
1000
0100
0010
0000
,
0100
0010
1000
0010
0001
0000
1000
0100
,
0001
0010
1000
0100
,
0001
0010
1000
0100
,
0001
0010
0001
0010
,
1000
0100
0001
0010
,
1000
0100
0001
0010
,
1000
0100
1000
0100
,
0001
0010
1000
0100
,
0001
0000
0010
0000
1000
0100
0001
0000
,
0001
0000
0000
0010
0000
0000
0100
0000
,
0000
1000
0000
0100
0001
0001
0100
0000
,
1000
0000
0000
0010
0000
0000
0100
0000
,
0000
0001
0000
0100
1000
1000
0100
0000
,
0001
0000
0000
0010
0000
0000
0100
0000
,
0000
1000
0000
0100
0001
0001
0100
0000
,
1000
0000
0000
0010
0000
0000
0100
0000
,
0000
0001
0000
0100
1000
1000
0100
0000
,
0010
0000
0000
0000
0001
0010
1000
0000
,
0000
0000
0001
0100
1000
0100
0001
0000
,
0001
0000
1010
0000
0100
0001
0010
0000
,
1001
0000
0100
1000
0010
1000
0100
0000
,
0100
0000
0011
0000
1000
0100
0001
0000
,
0110
0000
1000
0010
0001
0010
1000
0000
,
1000
0000
0101
0000
0010
1000
0100
0000
,
1001
0000
0010
0001
0100
0001
0010
0000
,
0010
0000
1100
0000
0001
0010
1000
0000
,
0110
0000
0001
0100
1000
0100
0001
0000
,
1000
0100
0001
0000
0000
0000
0010
0000
,
0000
0101
0100
1100
,
0001
0100
1000
0000
0000
0000
0010
0000
,
0000
1100
0100
0101
,
1000
0100
0001
0000
0000
0000
0010
0000
,
0000
0101
0100
1100
,
0001
0100
1000
0000
0000
0000
0010
0000
,
0000
1100
0100
0101
,
0001
0010
1000
0000
0100
0000
0001
0000
,
1000
0100
0001
0000
0100
1000
0010
0000
,
0001
0010
1000
0000
0100
0000
0001
0000
,
1000
0100
0001
0000
0100
1000
0010
0000
,
0001
1000
0100
0001
,
1000
0100
0001
0000
0100
1000
0010
0000
,
0001
0010
1000
0000
0100
0000
0001
0000
,
1000
0100
0001
0000
0100
1000
0010
0000
,
0010
0001
0001
0001
0010
0001
0001
0000
,
0010
1000
1000
1000
0010
1000
1000
0000
,
0100
1000
0100
1000
1000
1000
1000
0000
,
0100
0001
0100
0001
0001
0001
0001
0000
,
0010
0000
1000
0000
0100
0000
0001
0010
,
1000
0000
0100
0000
0001
0000
0010
1000
,
0100
0000
0001
0000
0010
0000
1000
0100
,
0001
0010
1000
0000
;
