#TITLE:PARANOiA MAX (DIRTY MIX);
#ARTIST:190;
#BANNER:PARANOiA MAX (DIRTY MIX).png;
#BACKGROUND:PARANOiA MAX (DIRTY MIX)-bg.png;
#MUSIC:PARANOiA MAX (DIRTY MIX).ogg;
#SAMPLESTART:1.22;
#SAMPLELENGTH:15;
#DISPLAYBPM:196;
#BPMS:0=196.37;

//---------------dance-single - ----------------
#NOTES:
     dance-single:
     :
     Easy:
     6:
     :
0000
0000
0000
0000
,
0000
0000
0000
0000
,
0000
0000
0000
0000
,
0000
0000
0000
0000
,
0000
0000
0000
0000
,
0000
0000
0000
0000
,
0000
0000
0000
0000
,
0000
0001
0000
0001
,
0000
0100
0000
0100
,
0000
0010
0100
1000
,
0100
0001
0010
0001
,
0100
1000
0100
0100
,
0001
0010
0100
1000
,
0010
1000
0100
0000
0000
0000
0100
0000
,
0010
0001
0100
1000
,
0101
0101
1100
1100
,
0011
0101
1001
0101
,
0010
0001
0010
1000
,
0010
0000
0100
0000
0001
1000
0100
0000
,
0001
0001
1000
1000
,
0010
0000
0100
0000
0010
0001
1000
0000
,
0001
1000
0100
0001
,
1000
0000
0001
0000
1000
0100
1100
0000
,
1000
0011
0100
1010
,
0101
0011
1100
0000
,
0001
1000
0001
1000
,
0001
0001
0001
0001
,
1000
1000
0001
0001
,
1000
0001
1000
0001
,
1000
0100
0001
0010
,
1000
0100
1000
0100
,
1000
0100
1000
0010
,
0001
0100
1000
0100
,
1000
0000
0000
0100
0000
0000
0001
0000
,
0000
1000
0000
0010
0001
0001
0001
0000
,
0001
0000
0000
0100
0000
0000
1000
0000
,
0000
0001
0000
0010
1000
1000
1000
0000
,
1000
0000
0000
0100
0000
0000
0001
0000
,
0000
1000
0000
0010
0001
0001
0001
0000
,
0001
0000
0000
0100
0000
0000
1000
0000
,
0000
0001
0000
0010
1000
1000
1000
0000
,
0010
0000
0001
0001
,
0000
1000
1000
1000
,
0100
1000
0010
0010
,
1000
0001
0001
0001
,
1000
0001
0100
0100
,
0001
0010
0010
0010
,
0001
0010
1000
1000
,
0010
0100
0100
0100
,
0010
0100
0001
0001
,
0100
1000
1000
1000
,
0010
0001
0010
1000
,
1001
0000
0010
0100
,
0010
0001
0010
1000
,
1001
0000
0100
0010
,
0100
1000
0100
0001
,
1001
0000
0100
0010
,
0100
1000
0100
0000
,
1001
0000
0110
0000
,
1000
0010
0100
0000
0001
0000
0001
0000
,
1001
0110
1001
0110
,
1000
0010
0100
0000
0001
0000
0001
0000
,
1001
1100
0101
0000
,
1000
0010
0100
0000
0001
0000
0001
0000
,
0110
1001
0100
1000
,
1000
0010
0100
0000
0001
0000
0001
0000
,
1010
0110
0101
0000
,
1000
0000
0110
0000
0001
0100
1000
0000
,
0100
0000
1001
0000
1000
0100
0001
0000
,
0100
0010
0001
1000
0010
0100
0000
0000
,
0100
0010
1000
0001
0010
0100
0000
0000
,
0010
1000
0100
0110
,
0010
0001
0100
0110
,
1000
0100
0001
0010
,
1010
0001
0011
0000
;

//---------------dance-single - ----------------
#NOTES:
     dance-single:
     :
     Medium:
     8:
     :
0000
0000
0000
0000
,
0000
0000
0000
0000
,
0000
0000
0000
0000
,
0000
0000
0000
0000
,
0000
0000
0000
0000
,
0000
0000
0000
0000
,
0000
0000
0000
0000
,
0000
0001
0000
0001
,
0000
0100
0000
0100
,
0001
0100
1000
0100
,
0010
0001
1000
0100
,
0001
0100
0010
1000
,
0110
1001
0110
1001
,
0010
0010
0001
0100
,
1000
1000
0100
0001
,
0010
0000
0010
0000
,
0011
0000
1100
0000
0001
1000
0100
0000
,
0001
0100
0010
1000
,
0001
0100
0010
1000
,
0001
0100
1000
0000
0001
0100
1000
0000
,
0001
1000
0001
1000
0001
0100
1000
0000
,
0101
0100
0100
0000
1001
0000
0000
0000
,
1010
0010
0010
0000
1001
0000
0000
0000
,
0011
0001
0001
0000
1100
1000
1000
0000
,
0101
1100
1001
0000
,
1000
1100
0001
0101
,
0010
0100
1000
1001
,
0001
0101
0100
1100
,
0010
0100
0001
1001
,
1000
0001
1000
0110
,
0001
1000
0001
1001
,
0010
1100
0001
0101
,
0100
0010
1001
0100
,
0001
0000
0000
1000
0000
0000
0100
0000
,
0000
1000
0000
0001
0010
0010
0010
0000
,
1000
0000
0000
0001
0000
0000
0100
0000
,
0000
0001
0000
1000
0010
0010
0010
0000
,
0001
0000
0000
1000
0000
0000
0100
0000
,
0000
1000
0000
0001
0010
0010
0010
0000
,
1000
0000
0000
0001
0000
0000
0100
0000
,
0000
0001
0000
1000
0010
0010
0010
0000
,
0010
0000
0001
1000
,
0000
1000
0100
0001
,
0001
0010
1000
0100
,
0010
0100
0010
1000
,
1000
0001
0100
0010
,
0001
0010
0001
0100
,
0100
1000
0010
0001
,
1000
0001
1000
0010
,
0010
0100
0001
1000
,
0100
1000
0100
0001
,
0010
0001
0011
1000
,
1100
0000
0000
0000
0010
0010
0100
0000
,
0010
0001
0011
1000
,
1100
0000
0000
0000
0100
0100
0010
0000
,
0100
1000
1100
0001
,
0101
0000
0000
0000
0100
0100
0010
0000
,
0100
1000
0100
0000
,
0010
0100
0110
0000
,
1000
0100
1000
0000
0001
0100
0001
0000
,
1001
1010
1100
1000
,
1000
0100
1000
0000
0001
0100
0001
0000
,
1001
1100
0101
0000
,
1000
0100
1000
0000
0001
0100
0001
0000
,
1001
1010
1100
1000
,
1000
0100
1000
0000
0001
0100
0001
0000
,
1001
1100
0101
0000
,
0100
0001
0100
0000
0010
1000
0010
0000
,
0100
0001
0100
0000
0010
1000
0010
0000
,
1000
0010
1000
0010
1000
0100
1000
0100
,
1000
0001
0100
0001
0100
0001
0001
0000
,
0010
0010
1100
0101
,
0100
1000
0100
0001
0100
0000
0100
0000
,
0010
1001
0110
0001
,
1000
0000
0100
0100
0100
0000
0000
0000
;

//---------------dance-single - ----------------
#NOTES:
     dance-single:
     :
     Hard:
     8:
     :
0000
0000
0000
0000
,
0000
0000
0000
0000
,
0000
0000
0000
0000
,
0000
0000
0000
0000
,
0000
0000
0000
0000
,
0000
0000
0000
0000
,
0000
0000
0000
0000
,
0000
0001
0000
0001
,
0000
0100
0000
0100
,
0010
0000
0010
0000
0001
0100
0001
0000
,
1000
0000
1000
0000
0100
1000
0001
0000
,
0010
0000
0100
0000
0010
0010
0010
0000
,
0011
0000
1100
0000
0001
1000
0100
0000
,
0010
0010
0010
0000
1000
0010
0001
0000
,
0010
0010
0010
0000
1000
0000
0100
0000
,
0001
1000
0010
0000
1000
0001
0010
0000
,
1000
0010
0001
0000
0001
0010
1000
0000
,
1000
0001
1010
1001
,
0010
0000
1010
0000
0100
0100
0100
0000
,
0010
0001
0100
1000
,
0100
0001
0100
1000
0100
0001
0100
0000
,
0010
0100
0010
0000
0001
0100
1000
0000
,
0001
0000
1000
0000
0001
1000
0100
0000
,
0001
0010
1000
0000
0001
0000
0100
0000
,
0001
1000
0100
0010
0100
1000
0001
0000
,
1000
1000
0001
0001
,
1000
1000
0001
0001
,
0100
0110
0110
0110
,
1010
0001
1100
0101
,
0001
1000
0101
0101
,
1010
0101
0101
0000
,
1000
0001
1100
1100
,
0011
1100
1100
0000
,
1000
0000
0000
0001
0000
0000
0110
0000
,
0000
1001
0000
0010
0100
0100
0100
0000
,
0001
0000
0000
1000
0000
0000
0110
0000
,
0000
1001
0000
0010
0100
0100
0100
0000
,
1000
0000
0000
0001
0000
0000
0110
0000
,
0000
1001
0000
0010
0100
0100
0100
0000
,
0001
0000
0000
1000
0000
0000
0110
0000
,
0000
1001
0000
0010
0100
0100
0100
0000
,
0010
0000
1001
0011
,
0000
0000
1000
0100
0010
0100
1000
0000
,
0001
0010
1100
1001
,
0010
0000
0100
0010
0001
0010
0100
0000
,
1000
0001
0110
1100
,
0001
0000
0010
0001
1000
0001
0010
0000
,
0100
1000
0011
0110
,
1000
0000
0001
1000
0100
1000
0001
0000
,
0010
0100
1001
0011
,
0100
0000
1000
0100
0010
0100
1000
0000
,
0010
1000
0110
0001
,
1001
0100
1001
0010
,
0001
1000
0010
0000
1000
0100
0001
0000
,
1000
0001
0010
0000
0001
1000
0100
0000
,
1000
1000
0001
0001
,
1001
0110
1001
0100
,
1000
0100
0001
0000
0100
1000
0010
0000
,
0001
0001
1001
1001
,
1000
0100
1000
0100
0001
0100
0001
0100
,
1000
0001
1000
0001
1000
0100
1000
0100
,
0010
0001
1000
0100
0010
0001
0010
1000
,
0010
0001
0100
0001
0010
1000
0001
0010
,
0100
0001
1000
0001
0100
1000
0010
1000
,
0100
0001
0010
0001
0100
1000
0010
1000
,
0100
0001
0010
1000
0001
0100
1000
0010
,
0100
0001
1000
1000
0100
0000
1001
0000
,
0001
0001
0001
0000
0001
0100
1000
0000
,
1000
1000
1000
0000
1000
0100
0001
0000
,
0001
0001
0001
0000
0001
0100
1000
0000
,
0010
0100
0001
1000
0100
0010
0100
0000
,
1000
0101
0001
1100
,
0010
0001
1100
0101
,
0011
0001
1001
0101
,
0001
1000
0101
0000
;
