#TITLE:La SeƱorita;
#ARTIST:CAPTAIN.T;
#BANNER:La Senorita.png;
#BACKGROUND:La Senorita-bg.png;
#MUSIC:La Senorita.ogg;
#SAMPLESTART:36.105;
#SAMPLELENGTH:15;
#DISPLAYBPM:177;
#BPMS:0=176.98;

//---------------dance-single - ----------------
#NOTES:
     dance-single:
     :
     Easy:
     4:
     :
0000
0000
0000
0000
,
0000
0000
0000
0000
,
0000
0000
0000
0000
,
0000
0000
0000
0000
,
0000
0000
0000
0000
,
0000
0000
0000
0000
,
0000
1000
0000
1000
,
0000
0001
0000
0001
,
0000
1000
0000
1000
,
0000
0001
0000
0001
,
0000
1000
0000
0001
,
0000
1000
0000
0001
,
0000
1000
0000
0001
,
0000
1000
0000
0001
,
0000
0010
0000
0010
,
0000
0100
0000
0100
,
0000
1000
0000
1000
,
0000
0001
0000
0001
,
1001
1000
1000
1000
,
0001
0001
0001
0001
,
1001
1000
1000
1000
,
0001
0001
0001
0001
,
1000
0100
0001
0100
,
1000
0100
0001
0100
,
1000
1000
0001
0001
,
1001
1001
1001
1001
,
0100
0100
0100
0100
,
1001
0100
0001
0100
,
1000
0100
0001
0100
,
1000
1000
0001
0001
,
1000
1000
0001
0001
,
0010
0100
0010
0100
,
0010
0100
0010
0100
,
1000
1000
0001
0001
,
1000
1000
0001
0001
,
1000
0010
1000
0001
,
1000
0010
1000
0001
,
0001
0010
0001
1000
,
0001
0010
0001
1000
,
1000
0100
0001
0100
,
1000
0100
0001
0100
,
1000
1000
0001
0001
,
1000
0000
0001
0000
,
0010
1000
0100
0001
,
1001
1001
1001
1001
,
1000
0100
0001
0100
,
1000
0100
0001
0100
,
1000
1000
0001
0001
,
1000
0001
1000
0001
,
1000
1000
0001
0001
,
1000
1000
0001
0001
,
1000
0001
0100
0100
,
0001
1000
0100
0100
,
1001
0100
1001
0100
,
0001
0001
1000
1000
,
0000
0001
0000
1000
,
0000
0001
0000
1000
,
0001
0001
1000
1000
,
0010
0010
0100
0100
,
1000
1000
0100
0100
,
1001
1001
1001
1001
,
0100
0100
0100
0100
,
1001
0100
0001
0100
,
1000
0100
0001
0100
,
1000
0010
0001
0010
,
1000
0010
0001
0010
,
0010
0010
0100
0100
,
0001
0001
1000
1000
,
0001
0001
1000
1000
,
0001
0100
1000
0010
,
0001
0100
1000
0010
,
0001
0001
1000
0001
,
1000
1000
0001
1000
,
0000
0001
0000
0001
,
0000
1001
0000
0000
;

//---------------dance-single - ----------------
#NOTES:
     dance-single:
     :
     Medium:
     6:
     :
0000
0000
0000
0000
,
0000
0000
0000
0000
,
0000
0000
0000
0000
,
0000
0000
0000
0000
,
0000
0000
0000
0000
,
0000
0000
0000
0000
,
1000
0000
0100
0000
0001
0100
0001
0000
,
0001
0000
0100
0000
1000
0100
1000
0000
,
1000
0000
0100
0000
0001
0100
0001
0000
,
0001
0000
0100
0000
1000
0100
1000
0000
,
0001
0100
1000
0100
,
0001
0100
0001
0100
,
1000
0100
0001
0100
,
1000
0100
1000
0100
,
0001
1000
0001
1000
,
0001
0001
1000
1000
,
0001
1000
0010
0010
,
0100
0100
0010
0010
,
1001
0101
0110
1001
,
1100
1001
0010
0100
,
0101
1100
0010
0010
,
1100
1001
0010
0100
,
0001
1000
0010
0100
,
0001
1000
0100
1000
,
0001
0100
1000
0100
,
0001
0010
0100
1000
,
0001
0100
0010
0010
,
1000
0000
0000
0100
1000
0000
0000
0000
,
0001
0000
0000
0100
0001
0000
0000
0000
,
1000
0000
0000
0100
1000
0000
0000
0000
,
0001
0000
0000
0100
0001
0000
0000
0000
,
0010
0000
0000
1000
0100
0000
0000
0000
,
0010
0000
0000
0001
0100
0000
0000
0000
,
0010
0000
0000
1000
0100
0000
0000
0000
,
0010
0000
0000
0001
0100
0000
0000
0000
,
1000
0100
0001
0100
,
1000
0000
0100
0000
0001
0100
0001
0000
,
1000
0100
0001
0100
,
1000
0000
0000
0001
0000
0000
1000
0000
0000
0000
0000
0000
0000
0000
0000
0000
,
1001
0100
1000
0100
,
0001
0100
0001
0100
,
1000
0100
1000
0100
,
1000
0000
0000
0001
0000
0000
1000
0000
0001
0000
0000
1000
0000
0000
0001
0000
,
0000
1001
1001
1001
,
0100
0100
0100
0100
,
1000
0000
0000
0001
0100
0000
0000
0000
,
0001
0000
0000
1000
0100
0000
0000
0000
,
1000
0000
0000
0001
0100
0000
0000
0000
,
0001
0000
0000
1000
0100
0000
0000
0000
,
0010
0000
0000
1000
0100
0000
0000
0000
,
0001
0000
0000
1000
0100
0000
0000
0000
,
0010
0000
0000
0001
0100
0000
0000
0000
,
1000
0000
0000
0001
0100
0000
0000
0000
,
1001
0101
0110
1001
,
1100
1001
0010
0100
,
0101
1100
0010
0010
,
1100
1001
0010
0100
,
0001
1000
0010
0100
,
0001
1000
0100
1000
,
0001
0100
1000
0100
,
0001
0010
0100
1000
,
0001
0100
0010
0010
,
1000
0000
0000
0100
1000
0000
0000
0000
,
0001
0000
0000
0100
0001
0000
0000
0000
,
1000
0000
0000
0100
1000
0000
0000
0000
,
0001
0000
0000
0100
0001
0000
0000
0000
,
0010
0000
0000
1000
0100
0000
0000
0000
,
0010
0000
0000
0001
0100
0000
0000
0000
,
0010
0000
0000
1000
0100
0000
0000
0000
,
0010
0000
0000
0001
0100
0000
0000
0000
,
1000
1000
0001
0001
,
1000
1000
0001
0001
,
0010
1000
0100
0001
,
0010
0001
0100
1000
,
0000
1000
0001
0000
0000
0000
0000
0000
;

//---------------dance-single - ----------------
#NOTES:
     dance-single:
     :
     Hard:
     7:
     :
0000
0000
0000
0000
,
0000
0000
0000
0000
,
0000
0000
0000
0000
,
0000
0000
0000
0000
,
0000
0000
0000
0000
,
0000
0000
0000
0000
,
1000
0001
0100
0000
0001
1000
0100
0000
,
1000
0001
0100
0000
0001
1000
0100
0000
,
1000
0001
0100
0000
0001
1000
0100
0100
,
0000
0100
0000
1000
0001
1000
0100
0000
,
0000
1000
1000
0000
0000
0001
0001
0000
,
1000
0010
0000
0001
0000
0100
0100
0000
,
0000
1000
1000
0000
0010
0001
0001
1000
,
0000
0001
0000
0100
0001
1000
0010
0100
,
0100
0000
0000
1000
0001
0000
0000
0010
,
1000
0001
0000
0100
0000
1000
0000
0001
,
0000
0100
0000
0000
0000
1000
0001
0100
,
0000
0001
0000
1000
0001
0100
0100
0000
,
1000
0000
0000
0010
0000
0000
0001
0000
,
0000
0100
0000
0000
1001
0000
1001
0000
,
0010
0000
0000
1000
0000
0000
0001
0000
,
0100
0010
0000
1000
0000
0000
1000
0000
,
0001
0000
0000
1000
0000
0000
0010
0000
,
0000
0100
0000
0000
1001
0000
1001
0000
,
0010
0000
0000
0001
0000
0100
0100
0000
,
1001
1001
1001
1001
,
0000
1000
0000
0001
0000
0010
1000
0001
,
0000
1001
0100
0010
,
1000
0000
1000
0000
0001
1000
0100
0000
,
0000
0000
0010
0000
0001
1000
0010
0001
,
0000
0001
0000
0000
1000
0001
1000
0001
,
0000
1001
0100
0010
,
0001
1000
0100
0010
0000
0000
0001
0000
,
0000
0000
0010
0000
1000
0001
0100
1000
,
0000
0100
0000
0000
0000
0000
0000
0000
,
0000
1001
0000
0000
0000
0000
0000
0000
0000
0000
0000
0000
0000
0000
0010
0000
,
0100
0000
0000
1000
0001
1000
0001
0000
,
0000
0000
0000
1001
0000
0000
0000
0000
0000
0000
0000
0000
0000
0000
0000
0000
,
0100
0000
0000
1000
0000
0000
0001
0000
0000
0000
0000
0000
1001
0000
0000
0000
,
0000
0100
0000
1001
0000
0000
0000
0010
,
0010
0000
0000
0001
1000
0010
0100
0100
,
0000
0101
0000
0000
,
0010
0000
0000
1000
0000
0000
0001
0000
0010
0000
0000
1000
0000
0000
0001
0000
,
0000
0000
1001
0100
0010
0001
0100
0001
,
0100
0001
0100
0001
1001
0000
1001
0000
,
0000
1000
1000
0000
0000
0001
0001
0000
,
1000
0010
0000
0001
0000
0100
0100
0000
,
0000
1000
1000
0000
0010
0001
0001
1000
,
0000
0001
0000
0100
0001
1000
0010
0100
,
0100
0000
0000
1000
0001
0000
0000
0010
,
1000
0001
0000
0100
0000
1000
0000
0001
,
0000
0100
0000
0000
0000
1000
0001
0100
,
0000
0001
0000
1000
0001
0100
0100
0000
,
1001
0000
0000
0010
0000
0000
0001
0000
,
0000
0100
0010
0000
1001
0000
1001
0000
,
0001
0000
0000
1000
0000
0000
0001
0000
,
0100
0010
0000
1000
0000
0000
0000
0000
,
1001
0000
0000
1000
0000
0000
0010
0000
,
0000
0100
0001
0000
1001
0000
1001
0000
,
0010
0000
0000
0001
0000
1000
0100
0000
,
1001
1001
1001
1001
,
0000
1000
0000
0001
0000
0010
1000
0001
,
0000
1001
0010
0100
,
1000
0001
1000
0100
0000
0000
0101
0000
,
0000
0000
0010
0000
0001
1000
0010
0001
,
0000
0001
0000
0000
1001
0000
1001
0000
,
0000
1001
0100
0010
,
0001
1000
0100
0010
0000
0000
1001
0000
,
0000
0000
0010
0000
1000
0001
1000
0100
,
0000
0100
0000
0000
1001
0000
1001
0000
,
0000
0000
0010
0000
1000
0001
0100
1000
,
0000
0100
0000
0000
0010
0001
0100
0000
,
0010
1000
0100
0000
0010
0001
0100
0000
,
1000
0001
0100
0000
1000
0001
1000
0000
,
0000
0100
0001
0000
0000
0000
0000
0000
;
