#TITLE:LOVE;
#ARTIST:SONIC DREAM;
#BANNER:LOVE.png;
#BACKGROUND:LOVE-bg.png;
#MUSIC:LOVE.ogg;
#SAMPLESTART:67.395;
#SAMPLELENGTH:15;
#DISPLAYBPM:125;
#BPMS:0=124.64;

//---------------dance-single - ----------------
#NOTES:
     dance-single:
     :
     Easy:
     3:
     :
0000
0000
0000
0000
,
0000
0000
0000
0000
,
0000
0000
0000
0000
,
0000
0000
0000
0000
,
0000
0000
0000
0000
,
0000
0000
0000
0000
,
1000
0000
1000
0000
,
0001
0000
0001
0000
,
1001
0000
1001
0000
,
0010
0000
0100
0000
,
0010
0000
0000
0000
,
1000
0000
0000
0000
,
0100
0000
0000
0000
,
0001
0000
0000
0000
,
0010
0000
0000
0000
,
1000
0000
0000
0000
,
0100
0000
0000
0000
,
0001
0000
0000
0000
,
0010
1000
0100
0001
,
1000
0100
0001
0100
,
0010
1000
0100
0001
,
1000
0100
0001
0100
,
0010
1000
0100
0001
,
1001
0000
1001
0000
,
0001
0100
1000
0100
,
0001
0001
0001
0000
,
0010
0000
0100
0000
,
1001
0000
0000
0000
,
1000
0100
1000
0100
,
0001
0100
0001
0100
,
0010
1001
0010
1001
,
0010
1000
0100
0001
,
1000
0010
0100
0001
,
0010
1001
0010
1001
,
0001
0001
0001
0000
,
1001
0000
0000
0000
,
1000
0100
1000
0100
,
0001
0100
0001
0100
,
0010
1001
0010
1001
,
0010
1000
0100
0001
,
1000
0010
0100
0001
,
0010
1001
0010
1001
,
0001
0001
0001
0000
,
1001
0000
0000
0000
;

//---------------dance-single - ----------------
#NOTES:
     dance-single:
     :
     Medium:
     5:
     :
0000
0000
0000
0000
,
0000
0000
0000
0000
,
0000
0000
0000
0000
,
0000
0000
0000
0000
,
0000
0000
0000
0000
,
0000
0000
0000
0000
,
1000
0001
1000
0000
0000
0000
1001
0000
,
0010
1000
0100
0001
,
1000
0001
1000
0000
0000
0000
1001
0000
,
0000
0010
0000
0100
,
0010
0010
0000
0000
,
1000
1000
0000
0000
,
0100
0100
0000
0000
,
0001
1000
0010
0100
,
0010
0010
0000
0000
,
1000
1000
0000
0000
,
0100
0100
0000
0000
,
0001
1000
0010
0100
,
0010
1000
0100
0001
,
1001
0110
1001
0000
,
0010
1000
0100
0001
,
1001
0110
1001
0000
,
0010
1000
0100
0001
,
1001
1100
1001
0101
,
0001
0100
1000
0100
,
0001
0001
1001
0000
,
0010
0000
0100
0000
,
1000
0001
1000
0000
0000
0000
1001
0000
,
0010
1000
0100
0001
,
1000
0100
0001
0100
,
1001
1100
1001
0101
,
0010
1000
0100
0001
,
1000
0010
0100
0001
,
1001
1100
1001
0101
,
0001
0001
1001
0000
,
1000
0001
1000
0000
0000
0000
1001
0000
,
0010
1000
0100
0001
,
1000
0100
0001
0100
,
1001
1100
1001
0101
,
0010
1000
0100
0001
,
1000
0010
0100
0001
,
1001
1100
1001
0101
,
0001
0001
1001
0000
,
1001
0000
0000
0000
;

//---------------dance-single - ----------------
#NOTES:
     dance-single:
     :
     Hard:
     7:
     :
0000
0000
0000
0000
,
0000
0000
0000
0000
,
0000
0000
0000
0000
,
0000
0000
0000
0000
,
0000
0000
0000
0000
,
0000
0000
0000
0000
,
1000
0001
1000
0000
0000
0001
0000
1000
,
0000
0001
0000
1000
0000
0001
0000
0000
,
0000
0000
1001
0000
0000
0010
0000
0100
,
0000
0001
1000
0000
0010
0000
0100
0000
,
0010
0000
0000
0000
0010
0000
0000
0010
0000
0000
0000
0000
0000
0000
0000
0000
,
1000
0000
0000
0000
1000
0000
0000
1000
0000
0000
0000
0000
0000
0000
0000
0000
,
0100
0000
0000
0000
0100
0000
0000
0100
0000
0000
0000
0000
0000
0000
0000
0000
,
0001
0000
0000
0000
0001
0000
0000
0001
0000
0000
1000
0000
0010
0000
0100
0000
,
0010
0000
0000
0000
0010
0000
0000
0010
0000
0000
0000
0000
0000
0000
0000
0000
,
1000
0000
0000
0000
1000
0000
0000
1000
0000
0000
0000
0000
0000
0000
0000
0000
,
0100
0000
0000
0000
0100
0000
0000
0100
0000
0000
0000
0000
0000
0000
0000
0000
,
0001
0000
0000
0000
0001
0000
0000
0001
0000
0000
1000
0000
0100
0000
0010
0000
,
1000
0100
0001
0010
,
1100
0011
1100
0011
,
1000
0100
0001
0010
,
1100
0011
1100
0011
,
1000
0100
0001
0010
,
1001
0110
1001
0110
,
0001
0100
1000
0100
,
0001
0001
0001
0000
,
0010
0000
1000
1000
0001
0001
0100
0100
,
1001
0000
0000
0000
0000
1000
0001
1000
,
0000
0000
0010
0000
0010
0000
0000
0000
1000
0000
0000
1000
0000
0000
1000
0000
,
0000
0000
0001
0000
0001
0000
0000
0000
0100
0000
0000
0100
0000
0000
0100
0000
,
0000
0000
1000
0000
1000
0000
0000
0000
0010
0000
0000
0010
0000
0000
0010
0000
,
0000
0100
0100
0000
0001
1000
0001
1000
,
0000
0000
0001
0000
0001
0000
0000
0000
0010
0000
0000
0010
0000
0000
0010
0000
,
0000
0000
1000
0000
1000
0000
0000
0000
0100
0000
0000
0100
0000
0000
0100
0000
,
0000
0010
0010
0000
1001
0000
0110
0000
,
1001
0000
0000
0000
0000
1000
0001
1000
,
0000
0000
0010
0000
0010
0000
0000
0000
1000
0000
0000
1000
0000
0000
1000
0000
,
0000
0000
0001
0000
0001
0000
0000
0000
0100
0000
0000
0100
0000
0000
0100
0000
,
0000
0000
1000
0000
1000
0000
0000
0000
0010
0000
0000
0010
0000
0000
0010
0000
,
0000
0100
0100
0000
0001
1000
0001
1000
,
0000
0000
0001
0000
0001
0000
0000
0000
0010
0000
0000
0010
0000
0000
0010
0000
,
0000
0000
1000
0000
1000
0000
0000
0000
0100
0000
0000
0100
0000
0000
0100
0000
,
0000
0010
0010
0000
1001
0000
0110
0000
,
1001
0000
0000
0000
;
