#TITLE:IF YOU WERE HERE;
#ARTIST:JENNIFER;
#BANNER:IF YOU WERE HERE.png;
#BACKGROUND:IF YOU WERE HERE-bg.png;
#MUSIC:IF YOU WERE HERE.ogg;
#SAMPLESTART:49.04;
#SAMPLELENGTH:15;
#DISPLAYBPM:142;
#BPMS:0=141.93;

//---------------dance-single - ----------------
#NOTES:
     dance-single:
     :
     Easy:
     5:
     :
0000
0000
0000
0000
,
0000
0000
0000
0000
,
0000
0000
0000
0000
,
0000
0000
0000
0000
,
0000
0000
0000
0000
,
0000
0000
0000
0000
,
0000
0000
0000
0000
,
0010
1000
0001
0100
,
1000
1000
0000
0000
,
0010
1000
0001
0101
,
0010
0100
1000
1100
,
0010
0100
0010
1001
,
0100
0100
0001
0001
,
0110
0000
0110
0000
,
1001
0000
1001
0000
,
0001
0010
1000
0100
,
1000
0010
0001
0100
,
1000
1000
0001
0001
,
0110
0000
1000
0001
0000
0000
0000
0000
,
1000
0001
0100
1000
,
0010
0001
1000
1001
,
0010
0010
1001
0110
,
0001
1000
0100
0001
,
0010
1000
0001
1001
,
0010
0001
0010
1000
,
0010
0010
0001
1001
,
1000
0001
0100
1001
,
0010
1000
0100
0001
,
0010
0110
0000
0110
,
1001
0000
0100
0000
,
1000
0010
1000
0010
,
0001
0110
0001
0100
,
1000
0010
0001
1001
,
0100
1001
0100
1001
,
0100
1001
0100
1001
,
0100
1000
0010
0001
,
1000
0100
0001
0100
,
1000
0000
0110
0000
0001
0100
1000
0000
,
0100
0000
1001
0000
1000
0100
0001
0000
,
0100
0000
0110
0000
0100
1000
0010
0000
,
0001
0000
1001
0000
0010
1000
0100
0000
,
1001
0110
1001
0010
,
1001
0000
0010
0000
1000
0100
0001
0000
,
1001
0000
0010
0000
0001
0100
1000
0000
,
0100
0010
1000
0001
,
0010
0000
0010
0000
;

//---------------dance-single - ----------------
#NOTES:
     dance-single:
     :
     Medium:
     6:
     :
0000
0000
0000
0000
,
0000
0000
0000
0000
,
0000
0000
0000
0000
,
0000
0000
0000
0000
,
0000
0000
0000
0000
,
0000
0000
0000
0000
,
0000
0000
0000
0000
,
0010
1000
0100
0000
0010
0001
0100
0000
,
1000
0000
1000
0000
0001
1000
0100
0000
,
0001
0000
0001
0000
0001
0100
1000
0000
,
0001
0000
0001
0000
1000
0100
0001
0000
,
0010
0000
0010
0000
1000
0001
0100
0000
,
0010
0000
0010
0000
0001
1000
0100
0000
,
0110
1000
0110
0001
,
1001
0000
1001
0000
,
0001
0000
0010
0000
1000
0100
0001
0000
,
1000
0000
0010
0000
0001
1000
0100
0000
,
1000
1000
0001
0001
,
0110
0000
1000
0001
0000
0000
0000
0000
,
1000
0001
0100
1000
,
0010
0001
1000
1001
,
0010
0010
1001
0110
,
0001
0000
1000
0000
0100
0100
0100
0000
,
0010
1000
0001
1001
,
0010
0001
0010
1000
,
0010
0010
0001
1001
,
1000
0000
0001
0000
0100
0100
0100
0000
,
0010
0000
1000
0000
0100
0000
0001
0100
,
0010
0110
0000
0110
,
1001
0000
0100
0000
,
1000
0010
1000
0010
,
0001
0110
0001
0100
,
1000
0000
0010
0000
0100
0100
0100
0000
,
1001
0000
0100
0000
,
1000
0010
1000
0010
,
0001
0110
0001
0100
,
1000
0000
0100
0000
0010
0010
0010
0000
,
1000
0000
0110
0000
0001
0100
1000
0000
,
0100
0000
0001
0000
1000
0010
0001
0000
,
0100
0000
0110
0000
0100
1000
0010
0000
,
0001
0000
1001
0000
0010
1000
0100
0000
,
1001
0000
0110
0000
1000
0010
0001
0000
,
1001
0000
0010
0000
1000
0100
0001
0000
,
1001
0000
0010
0000
0001
0100
1000
0000
,
0100
0000
0010
0000
1000
0001
1000
0000
,
0010
0010
0000
0000
0010
0010
0000
0000
;

//---------------dance-single - ----------------
#NOTES:
     dance-single:
     :
     Hard:
     7:
     :
0000
0000
0000
0000
,
0000
0000
0000
0000
,
0000
0000
0000
0000
,
0000
0000
0000
0000
,
0000
0000
0000
0000
,
0000
0000
0000
0000
,
0000
0000
0000
0000
,
0100
1000
0010
0000
0010
1000
0100
0000
,
0001
0100
0001
0010
0001
1000
0100
0000
,
0010
0000
1000
0000
0100
0000
1000
0000
0000
0001
0000
0000
0100
0000
0000
0000
,
0001
0000
1000
0000
0001
0000
0010
0000
0000
0100
0000
0000
1000
0000
0000
0000
,
0010
0000
0100
0000
0010
0000
0100
0000
0000
0001
0000
0000
1000
0000
0000
0000
,
0001
1000
0001
0010
0100
0100
0100
0000
,
0010
1000
0110
0001
,
1001
0100
1001
0010
,
0001
1000
0010
0000
1000
0100
0001
0000
,
1000
0001
0010
0000
0001
1000
0100
0000
,
1000
0000
1000
0000
0001
0000
0001
1000
,
0110
0000
1000
0001
0000
0000
0000
0000
,
1000
0100
0001
0000
0100
1000
0010
0000
,
0001
0000
0001
0000
1000
0001
1001
0000
,
0010
0010
0010
0000
1001
0000
0110
0000
,
0001
0100
1000
1000
0100
0001
0010
0100
,
0010
0001
1000
1001
,
0010
1000
0110
0001
,
0100
0100
0100
0000
0001
1000
0100
0010
,
0001
0000
1000
0000
0100
0100
0100
0000
,
0010
1000
0001
0000
0100
1000
0001
0000
,
0010
1000
0110
0000
0001
1000
0110
0000
,
1001
0000
0100
0000
,
1000
0001
0100
0000
0001
1000
0100
0000
,
1000
0100
1001
0000
0001
0100
1001
0000
,
0100
0000
0010
0000
0100
0100
0100
0000
,
1001
0000
0100
0000
,
0001
1000
0100
0000
1000
0000
0100
0000
,
0010
1000
0100
0000
0100
0000
1000
0000
,
0010
0000
1000
0100
0010
0100
0010
0000
,
0010
0000
1000
0000
0100
0000
1000
0000
0000
0001
0000
0000
0100
0000
0000
0000
,
0001
0000
1000
0000
0001
0000
0010
0000
0000
0100
0000
0000
1000
0000
0000
0000
,
0010
0000
0100
0000
0010
0000
0100
0000
0000
0001
0000
0000
1000
0000
0000
0000
,
0001
0001
0001
0010
0100
0000
0000
0000
,
0010
0000
0001
0000
0100
0000
0001
0000
0000
1000
0000
0000
0100
0000
0000
0000
,
1000
0000
1000
0000
1000
0000
0010
0000
0000
0100
0000
0000
0000
0000
0000
0000
,
0010
0000
0100
0000
0010
0000
0100
0000
0000
1000
0000
0000
0001
0000
0000
0000
,
1000
0001
1000
0010
0100
0000
0000
0000
,
0010
1000
0001
0000
0010
0001
0100
0000
;
