#TITLE:I believe in miracles;
#ARTIST:HI-RISE;
#BANNER:I believe in miracles.png;
#BACKGROUND:I believe in miracles-bg.png;
#MUSIC:I believe in miracles.ogg;
#SAMPLESTART:58.27;
#SAMPLELENGTH:15;
#DISPLAYBPM:124;
#BPMS:0=123.57;

//---------------dance-single - ----------------
#NOTES:
     dance-single:
     :
     Easy:
     5:
     :
0000
0000
0000
0000
,
0000
0000
0000
0000
,
0000
0000
0000
0000
,
0000
0000
0000
0000
,
0000
0000
0000
0000
,
0000
0000
0000
0000
,
0010
0100
0001
0100
,
1000
0100
0001
0100
,
0010
0100
1000
0100
,
0010
0100
0001
1000
0000
0100
0010
0000
,
0100
0010
1000
0100
,
0001
0100
1000
0100
,
0010
0100
0001
0100
,
0010
0100
1000
0001
0000
0100
0010
0000
,
0000
0100
0000
0010
,
0000
0001
0100
0100
,
0000
1000
0100
0100
,
0010
0100
0001
1000
0000
0100
0010
0000
,
0100
1001
0001
0001
,
0010
1001
1000
1000
,
0001
0100
1000
0100
,
0010
0100
0001
1000
0000
0100
0010
0000
,
0000
0010
0100
1001
,
0000
0100
0010
1001
,
0000
0100
0010
0001
,
0100
1000
1001
0000
,
1000
0001
0010
0100
,
0001
1000
0010
0100
,
1000
0100
0001
0100
,
0010
0010
0010
0000
,
0001
0100
1000
0000
0010
0000
0010
0000
,
1000
0100
0001
0000
0010
0000
0010
0000
,
0001
1000
0010
0100
,
0010
0100
0001
1000
0000
0100
0010
0000
,
0000
1000
1000
1000
,
0000
0001
0001
0001
,
0010
0100
0001
1000
,
0010
0100
0001
1000
0000
0100
0010
0000
,
0001
0010
0001
1000
,
0001
0010
1000
0001
,
1000
0010
0100
0001
,
0010
0100
0001
1000
0000
0100
0010
0000
,
0100
0010
0001
1000
0000
0010
0100
0000
,
0010
0100
0001
1000
0000
0100
0010
0000
,
0100
0010
0001
1000
0000
0010
0100
0000
,
0010
0100
0001
1000
0000
0100
0010
0000
,
1001
0000
0000
0000
;

//---------------dance-single - ----------------
#NOTES:
     dance-single:
     :
     Medium:
     6:
     :
0000
0000
0000
0000
,
0000
0000
0000
0000
,
0000
0000
0000
0000
,
0000
0000
0000
0000
,
0000
0000
0000
0000
,
0000
0000
0000
0000
,
1001
0010
0100
1000
,
0101
1100
0010
0100
,
1001
0010
0100
0001
,
0010
0001
0100
1000
0000
0010
0100
0000
,
1001
0010
0100
0001
,
1100
0101
0010
0100
,
1001
0010
0100
1000
,
0010
1000
0100
0001
0000
0100
0010
0000
,
1000
0001
0100
0010
,
0001
0000
0100
0000
0010
0100
0010
0000
,
1000
0000
0010
0000
0100
0010
0100
0000
,
0010
0100
0001
1000
0000
0100
0010
0000
,
1001
0110
0001
1000
,
0110
1001
0100
0010
,
0001
1000
0010
0100
,
0010
0100
0001
1000
0000
0100
0010
0000
,
0000
0010
0100
1001
,
0000
0100
0010
1001
,
0000
0100
0010
0001
,
0100
0000
1000
0000
0010
0000
0001
1000
,
0010
0001
0010
0001
,
0001
1000
0010
0100
,
1000
0100
0001
0100
,
0010
0100
0010
0100
0010
0000
0000
0000
,
1000
0100
0001
0000
0010
0000
0010
0000
,
0001
0100
1000
0000
1000
0100
0001
0000
,
1000
0001
0010
0100
,
0010
0100
0001
1000
0000
0100
0010
0100
,
0010
0001
0001
1001
,
0010
1000
1000
1001
,
0010
0100
0001
1000
,
0010
0100
0001
1000
0000
0100
0010
0000
,
1000
0001
1010
0011
,
1000
0100
0101
1100
,
1010
0101
0011
1100
,
0010
0100
0001
1000
0000
0100
0010
0000
,
0001
1000
0100
0010
0000
1000
0001
0000
,
0100
0010
1000
0001
0000
0010
0100
0000
,
1000
0001
0010
0100
0000
0001
1000
0000
,
0010
0100
0001
1000
0000
0100
0010
0000
,
1001
0000
0000
0000
;

//---------------dance-single - ----------------
#NOTES:
     dance-single:
     :
     Hard:
     8:
     :
0000
0000
0000
0000
,
0000
0000
0000
0000
,
0000
0000
0000
0000
,
0000
0000
0000
0000
,
0000
0000
0000
0000
,
0000
0000
0000
0000
,
0001
0001
0001
0000
0010
0000
0100
0000
,
1000
1000
1000
0000
0010
0000
0100
0000
,
0001
0010
1000
0100
0001
0100
1000
0000
,
0010
0000
0100
0000
0001
0000
1000
0100
0000
0010
0000
0000
0100
0000
0000
0000
,
0001
0001
0001
0000
1010
0000
0101
0000
,
1000
1000
1000
0000
0011
0000
1100
0000
,
0001
0010
1000
0100
0001
0100
1000
0000
,
0010
0000
0100
0000
0001
0000
1000
0100
0000
0010
0000
0000
0100
0000
0000
0000
,
0001
0001
0001
0000
0001
0100
1000
0000
,
1000
1000
1000
0000
1000
0100
0001
0000
,
0001
0001
0001
0000
0001
0100
1000
0000
,
0010
0000
0100
0000
0001
0000
1000
0100
0000
0010
0000
0000
0100
0000
0000
0000
,
0001
0001
0001
1000
0001
0100
1000
0000
,
1000
1000
1000
0001
1000
0100
0001
0000
,
0001
0001
0001
1000
0001
0100
1000
0000
,
0010
0000
0100
0000
0001
0000
1000
0100
0000
0010
0000
0000
0100
0000
0000
0000
,
0001
0100
0001
0100
0001
0100
0001
0000
,
1000
0100
1000
0100
1000
0100
1000
0000
,
0010
0001
0010
0000
0010
1000
0010
0000
,
0001
0000
0000
0000
0100
0000
0000
0000
0010
0000
1000
0000
0000
0100
0001
0000
,
0100
0000
0000
0000
1000
0000
0000
0000
1000
0000
0000
0000
0001
0000
0000
0001
,
0000
1000
0010
0100
,
1000
0100
0001
0100
,
1000
0000
0000
1000
0000
0000
1000
0000
0000
1000
0000
0000
1000
0000
0000
0000
,
0001
0100
1000
0100
0001
0100
1000
0000
,
0001
0100
1000
0100
0001
0100
1000
0000
,
0001
0100
1000
0100
0001
0100
1000
0000
,
0010
0000
0100
0000
0001
0000
1000
0100
0000
0010
0000
0000
0100
0000
0010
0000
,
0100
0000
0001
0000
0001
0000
0001
1000
,
1001
0000
0001
0000
1001
0000
0001
1000
,
1001
1000
1001
0000
0001
0000
0001
0000
,
0010
0000
0100
0000
0001
0000
1000
0100
0000
0010
0000
0000
0100
0000
0000
0000
,
0000
0000
0000
0000
0000
0000
0000
0010
,
0100
0000
0000
0000
0000
0000
0000
0010
,
0100
0000
0000
0000
0000
0000
0000
0010
,
0001
0100
0001
0100
0001
0000
1000
0100
0000
0010
0000
0000
0100
0000
0000
0000
,
1000
0100
1000
0100
1000
0000
0001
0100
0000
0010
0000
0000
0100
0000
0000
0000
,
0001
0100
0001
0100
0001
0000
1000
0100
0000
0010
0000
0000
0100
0000
0000
0000
,
1000
0100
1000
0100
1000
0000
0001
0100
0000
0010
0000
0000
0100
0000
0000
0000
,
0001
0100
0001
0100
0001
0000
1000
0100
0000
0010
0000
0000
0100
0000
0000
0000
,
1001
0000
0000
0000
;
