#TITLE:HAVE YOU NEVER BEEN MELLOW;
#ARTIST:THE OLIVIA PROJECT;
#BANNER:HAVE YOU NEVER BEEN MELLOW.png;
#BACKGROUND:HAVE YOU NEVER BEEN MELLOW-bg.png;
#MUSIC:HAVE YOU NEVER BEEN MELLOW.ogg;
#SAMPLESTART:52.44;
#SAMPLELENGTH:15;
#DISPLAYBPM:124;
#BPMS:0=123.57;

//---------------dance-single - ----------------
#NOTES:
     dance-single:
     :
     Easy:
     1:
     :
0000
0000
0000
0000
,
0000
0000
0000
0000
,
0000
0000
0000
0000
,
0000
0000
0000
0000
,
0000
0000
0000
0000
,
0000
0000
0000
0000
,
0000
0000
0000
0000
,
0000
0000
0000
0000
,
0000
0000
0000
0000
,
0000
0000
0000
0010
,
0000
0000
0000
0001
,
0000
0000
0000
0100
,
0000
0000
0000
0001
,
0000
0000
0000
0010
,
0000
0000
0000
1000
,
0000
0000
0000
0100
,
0000
0000
0000
1000
,
0000
0010
0000
0010
,
0000
0001
0000
0001
,
0000
0100
0000
0100
,
0000
0010
0000
0010
,
0000
1000
0000
1000
,
0000
0100
0000
0100
,
0000
0001
0000
1000
,
0000
0001
0000
1000
,
0000
0000
0000
0000
,
0000
0000
0000
0000
,
0000
0001
0000
0010
,
0100
0010
0100
0010
,
0000
1000
0000
0100
,
0010
0100
0010
0100
,
0000
0001
0000
1000
,
0000
0001
0000
1000
,
0010
0001
0100
1000
,
0000
0000
0000
0000
,
0000
0001
0000
0010
,
0100
0010
0100
0010
,
0000
1000
0000
0100
,
0010
0100
0010
0100
,
0000
0001
0000
1000
,
0000
0001
0000
1000
,
0010
0001
0100
1000
,
0000
0000
0000
0000
,
0000
0001
0000
1000
,
0000
0010
0000
0100
;

//---------------dance-single - ----------------
#NOTES:
     dance-single:
     :
     Medium:
     2:
     :
0000
0000
0000
0000
,
0000
0000
0000
0000
,
0000
0000
0000
0000
,
0000
0000
0000
0000
,
0000
0000
0000
0000
,
0000
0000
0000
0000
,
0000
0000
0000
0000
,
0000
0000
0000
0000
,
0000
0000
0000
0000
,
0010
0001
0100
1000
,
0010
0001
0100
1000
,
0100
0001
0010
1000
,
0100
0001
0010
1000
,
0010
0001
0100
1000
,
0100
0001
0010
1000
,
0000
0000
0000
0000
,
0010
0100
0001
1000
,
0001
0100
1000
0010
,
1000
0100
1000
0010
,
0001
0100
0001
0010
,
1000
0100
0001
0010
,
1000
0100
0001
0100
,
1000
0100
1000
0100
,
0001
0100
0001
0100
,
0001
0010
1000
0100
,
0000
0000
0000
0000
,
0100
0010
1000
0001
,
0000
0001
0000
0010
,
0100
1000
0010
0100
,
0000
1000
0000
0100
,
0010
0001
0010
0100
,
0000
0001
0100
1000
,
0000
0001
0010
1000
,
0000
0000
0100
1000
,
0010
0001
0100
1000
,
0000
0001
0000
0010
,
0100
1000
0010
0100
,
0000
1000
0000
0100
,
0010
0001
0010
0100
,
0000
0001
0100
1000
,
0000
0001
0010
1000
,
0010
0001
0100
1000
,
0010
1000
0100
0001
,
0000
0001
0000
1000
,
0000
0010
0000
0100
;

//---------------dance-single - ----------------
#NOTES:
     dance-single:
     :
     Hard:
     4:
     :
0000
0000
0000
0000
,
0000
0000
0000
0000
,
0000
0000
0000
0000
,
0000
0000
0000
0000
,
0000
0000
0000
0000
,
0000
0000
0000
0000
,
0000
0000
0000
0000
,
0000
0000
0000
0000
,
0000
0000
0000
0000
,
1001
0000
0010
0000
0001
0100
1000
0000
,
0010
0000
0001
0000
0100
1000
0010
0000
,
0001
0000
0100
0000
1000
0010
0001
0000
,
0100
0000
1000
0000
0010
0001
0100
0000
,
1000
0000
0010
0000
0001
0100
1000
0000
,
0010
0000
0001
0000
0100
1000
0010
0000
,
0001
0000
0100
0000
1000
0010
0001
0000
,
0010
0010
0100
0000
1000
1000
0001
0000
,
1001
0000
0001
0000
0100
0001
0100
0000
,
1000
0000
0010
0000
0001
0010
0001
0000
,
0100
0000
1000
0000
0010
1000
0010
0000
,
0001
0000
0100
0000
1000
0100
1000
0000
,
0100
0010
0100
0000
0001
0100
0001
0000
,
0010
0000
1000
0000
0100
1000
0100
0000
,
0001
0000
0010
0000
1000
0010
1000
0000
,
0100
0000
0001
0000
0010
0001
0010
0000
,
0100
0000
0010
0000
1000
0001
0010
0100
,
0010
0001
0100
1000
0010
0001
0100
1000
,
1001
0001
0000
0010
,
1100
0001
0010
0100
,
0000
1000
0000
0100
,
0011
0000
1000
0000
0010
0100
0010
0000
,
1001
0110
0001
1000
,
0100
0001
1000
0001
,
0100
1000
0100
0001
,
0010
1000
0100
0000
0010
0001
0100
0000
,
1001
0000
1000
0000
0100
1000
0010
0000
,
0101
1000
0010
0100
,
0000
0000
1000
0001
0010
0001
0100
0000
,
1010
0000
0001
0000
0010
0100
0010
0000
,
1001
0110
0000
0001
,
0000
0100
0000
1000
,
0010
0100
0001
0000
0100
0010
1000
0000
,
0010
0001
0100
1000
0010
0001
0100
1000
,
1001
0100
0000
1000
,
0000
0010
0000
0001
;
