#TITLE:EL RITMO TROPICAL;
#ARTIST:DIXIES GANG;
#BANNER:EL RITMO TROPICAL.png;
#BACKGROUND:EL RITMO TROPICAL-bg.png;
#MUSIC:EL RITMO TROPICAL.ogg;
#SAMPLESTART:63.14;
#SAMPLELENGTH:15;
#DISPLAYBPM:127;
#BPMS:0=126.86;

//---------------dance-single - ----------------
#NOTES:
     dance-single:
     :
     Easy:
     2:
     :
0000
0000
0000
0000
,
0000
0000
0000
0000
,
0000
0000
0000
0000
,
0000
0000
0000
0000
,
0000
0000
0000
0000
,
0000
0000
0000
0000
,
0000
0000
0000
0000
,
0010
0000
0100
0000
,
0001
0000
1000
0000
,
0100
0100
0000
0000
,
0001
0000
0100
0000
,
1000
0000
0100
0000
,
0001
0000
0100
0000
,
0010
0000
1000
0000
,
0100
0000
1000
0000
,
0010
0000
1000
0000
,
0100
0000
1000
0000
,
0010
0000
0100
0000
,
1001
0000
1000
0000
,
0001
0000
1000
0000
,
0001
1000
0001
0000
,
1000
0000
0001
0000
,
1000
0001
1000
0000
,
0010
0000
0100
0000
,
0010
0000
0100
0000
,
0010
0010
0010
0010
,
1000
0001
1000
0001
,
1000
0100
0001
0100
,
1000
0100
0001
0100
,
1000
1001
0000
1000
,
1001
0000
0000
0001
,
1001
0000
0010
1000
,
0001
0100
1000
0100
,
1001
0000
0000
0000
,
1001
0010
0001
0000
,
1000
0000
0001
0000
,
1000
0100
0001
0100
,
1000
0100
0001
0010
,
1000
0100
1000
0100
,
1000
0100
1000
0010
,
0001
0100
1000
0100
,
0010
0010
0000
0000
,
0010
0010
0001
1000
,
0100
0100
0001
0100
,
0010
0010
1000
0001
,
0100
0100
1000
0100
,
0010
0010
0001
1000
,
0100
0100
0001
0000
,
0010
0000
0100
0000
,
0001
1000
0100
0001
,
1001
0000
0000
0000
;

//---------------dance-single - ----------------
#NOTES:
     dance-single:
     :
     Medium:
     6:
     :
0000
0000
0000
0000
,
0000
0000
0000
0000
,
0000
0000
0000
0000
,
0000
0000
0000
0000
,
0000
0000
0000
0000
,
0000
0000
0000
0000
,
0000
0000
0000
0000
,
0010
0010
0000
0000
0100
0100
0000
0000
,
0001
0100
1000
1001
,
0100
0100
0000
0000
,
0001
0100
0010
1000
,
0001
0100
0010
1000
,
0001
0100
1000
0000
0001
0100
1000
0000
,
0001
1000
0001
1000
0001
0100
1000
0000
,
0001
0100
1000
0100
,
0010
0001
1000
0100
,
0001
0100
0010
1000
,
0110
1001
0110
1001
,
0010
0001
1000
0100
,
0001
0000
1000
0000
,
0001
0100
1000
0000
1000
0100
0001
0000
,
1000
0000
0100
0000
1000
0010
0100
0000
,
1000
0001
1000
0110
,
0001
1000
0001
0100
,
0010
1000
0100
0000
0001
0100
1000
0000
,
0001
0000
1000
0000
0100
0100
0100
0000
,
1000
0000
0000
1000
0000
0000
1000
0000
0001
0000
0000
0001
0000
0000
0001
0000
,
0100
0000
0000
0100
0000
0000
0100
0000
0001
0000
0000
0001
0000
0000
1000
0000
,
1000
0000
0000
1000
0000
0000
0100
0000
0001
0000
0000
0001
0000
0000
0100
0000
,
1000
0000
0000
1000
0000
0000
0100
0000
0001
0000
0000
0001
0000
0000
1000
0000
,
1000
0000
0000
1000
0000
0000
0001
0000
0001
0000
0000
0001
0000
0000
0010
0000
,
0010
0000
0000
0010
0000
0000
1000
0000
1000
0000
0000
1000
0000
0000
0100
0000
,
0100
0000
0000
0100
0000
0000
0001
0000
0001
0000
0000
0001
0000
0000
0010
0000
,
0010
0000
0000
0010
0000
0000
0100
0000
0000
0000
0000
0000
0000
0000
0000
0000
,
0010
0010
1001
0100
,
0001
0100
1001
0010
,
0100
1001
0100
0100
,
0001
1000
0001
0100
0010
0000
0010
0000
,
0100
0100
1001
0010
,
0100
0010
1001
0100
,
0010
0010
1000
0001
,
0100
0100
0000
0000
,
0010
1000
0001
0000
0100
0000
0000
0000
,
0010
0001
1000
0000
0100
0000
0000
0000
,
0100
1000
0001
0000
0010
0000
0001
0000
,
0100
0100
1000
0100
,
0010
1000
0001
0000
0100
0000
0000
0000
,
0010
0001
1000
0000
0100
0000
0000
0000
,
0010
0010
1000
0000
0100
0100
0001
0000
,
0100
0100
1000
0000
0100
0100
0010
0000
,
1001
0000
0000
0000
;

//---------------dance-single - ----------------
#NOTES:
     dance-single:
     :
     Hard:
     7:
     :
0000
0000
0000
0000
,
0000
0000
0000
0000
,
0000
0000
0000
0000
,
0000
0000
0000
0000
,
0000
0000
0000
0000
,
0000
0000
0000
0000
,
0000
0000
0000
0000
,
0001
0100
1000
0010
1000
0100
0001
0100
,
1000
0010
1000
0100
0001
0000
0100
0000
,
1001
0110
0000
0000
,
0001
0000
0000
1000
0000
0000
0100
0000
0010
0000
0000
1000
0000
0000
0001
0000
,
1000
0000
0000
0001
0000
0000
0100
0000
0010
0000
0000
1000
0000
0000
0001
0000
,
0100
0000
0000
0001
0000
0000
1000
0000
0001
0000
0000
0100
0000
0000
0100
0000
,
0001
0000
0000
1000
0000
0000
0001
0000
1000
0000
0000
0001
0000
0000
1000
0000
,
0001
0000
0000
0001
0000
0000
0100
0000
1000
0000
0000
1000
0000
0000
0100
0000
,
0001
0000
0000
0001
0000
0000
0100
0000
1000
0000
0000
1000
0000
0000
0100
0000
,
0001
0000
0000
0001
0000
0000
0010
0000
0010
0000
0000
0010
0000
0000
0010
0000
,
1001
0110
1001
0000
,
0010
0000
0000
0001
0000
0000
1000
0000
0100
0000
0000
0001
0000
0000
1000
0000
,
0001
0000
0000
0001
0000
0000
1000
0000
1000
0000
0000
1000
0000
0000
0001
0000
,
0001
0000
0000
0001
0000
0000
1000
0000
1000
0000
0000
1000
0000
0000
0001
0000
,
0010
0000
0000
0010
0000
0000
0100
0000
1001
0000
0000
1000
0000
0000
0001
0000
,
1001
0000
0000
1000
0000
0000
0001
0000
1000
0000
0000
0100
0000
0000
0001
0000
,
0001
0000
0000
0100
0000
0000
1000
0000
1000
0000
0000
0100
0000
0000
0001
0000
,
0001
0000
0000
0010
0000
0000
1000
0000
1000
0000
0000
0010
0000
0000
0001
0000
,
0001
0000
0000
1000
0000
0000
0001
0000
0100
0000
0000
0100
0000
0000
0100
0000
,
1000
0000
0000
1000
0000
0000
1000
0000
0001
0000
0000
0001
0000
0000
0001
0000
,
0100
0000
0000
0100
0000
0000
0100
0000
1001
0000
0000
0001
0000
0001
0000
0000
,
1001
0000
0000
1000
0000
0000
1000
0000
0101
0000
0000
0001
0000
0000
0100
0000
,
1100
0000
0000
1000
0000
0000
0100
0000
0011
0000
0000
0001
0000
0000
0100
0000
,
1010
0000
0000
1000
0000
0000
0100
0000
0001
0000
0000
1001
0000
0000
0100
0000
,
1000
0000
0000
1001
0000
0000
0100
0000
0001
0000
0000
1001
0000
0000
0100
0000
,
1000
0000
0000
1001
0000
0000
0100
0000
1001
0000
0000
0110
0000
0000
1000
0000
,
0001
0000
0000
1000
0000
0000
0110
0000
0000
0000
0000
0000
0000
0000
0000
0000
,
0010
0000
0000
0010
0000
0000
1001
0000
0100
0000
0000
0001
0000
0000
0100
0000
,
1001
0000
0000
0010
0000
0000
0100
0000
1001
0000
0000
0100
0000
0000
0100
0000
,
0001
0000
0000
1000
0000
0000
0001
0000
1000
0000
0000
0100
0000
0000
0010
0000
,
0010
0000
0000
0010
0000
0000
1001
0000
0100
0000
0000
0001
0000
0000
0100
0000
,
1001
0000
0000
0010
0000
0000
0100
0000
1001
0000
0000
0100
0000
0000
0100
0000
,
1000
0000
0000
0001
0000
0000
1000
0000
0001
0000
0000
0100
0000
0000
0100
0000
,
0010
0000
0000
0010
0000
0000
1000
0000
0001
0000
0000
0001
0000
0000
0100
0000
,
0100
0100
0000
0000
,
0010
0000
0000
1000
0000
0000
0001
0000
0100
0000
0000
0100
0000
0000
0100
0000
,
0010
0000
0000
0001
0000
0000
1000
0000
0100
0000
0000
0100
0000
0000
0100
0000
,
0100
0000
0000
1000
0000
0000
0001
0000
0010
0000
0000
0010
0000
0000
0010
0000
,
0100
0000
0000
0100
0000
0000
1000
0000
0100
0000
0000
0100
0000
0000
0100
0000
,
0010
0000
0000
1000
0000
0000
0001
0000
0100
0000
0000
0100
0000
0000
0100
0000
,
0010
0000
0000
0001
0000
0000
1000
0000
0100
0000
0000
0100
0000
0000
0100
0000
,
0010
0000
0000
0010
0000
0000
1001
0000
0100
0000
0000
0100
0000
0000
1001
0000
,
0100
0000
0000
0100
0000
0000
1001
0000
0100
0000
0000
0100
0000
0000
0100
0000
,
1001
0000
0000
0000
;
