#TITLE:DUB-I-DUB;
#ARTIST:ME & MY;
#BANNER:DUB-I-DUB.png;
#BACKGROUND:DUB-I-DUB-bg.png;
#MUSIC:DUB-I-DUB.ogg;
#SAMPLESTART:40.43;
#SAMPLELENGTH:15;
#DISPLAYBPM:137;
#BPMS:0=136.53;

//---------------dance-single - ----------------
#NOTES:
     dance-single:
     :
     Easy:
     4:
     :
0000
0000
0000
0000
,
0000
0000
0000
0000
,
0000
0000
0000
0000
,
0000
0000
0000
0000
,
0000
0000
0000
0000
,
0000
0000
0000
0000
,
0000
0000
0000
0000
,
0010
0000
1000
0000
,
0100
0000
0001
0000
,
0010
0010
1000
1000
,
0100
0100
0010
1001
,
0010
0000
0100
0000
,
0010
0000
0100
0000
,
0001
0001
1000
1000
,
0001
1000
0100
1001
,
1000
1000
0100
1001
,
0001
0001
0100
1001
,
1000
1000
0001
0001
,
1000
0001
1000
1001
,
0010
0010
0100
0100
,
0010
0101
0010
1100
,
0001
0100
1000
0100
,
0100
0011
0100
1010
,
0010
0010
0100
0100
,
0010
0100
0010
1001
,
0101
0101
1100
1100
,
0011
0101
1001
0101
,
0010
0000
0100
0000
1000
0001
0001
0000
,
1000
0000
0100
0000
0010
0001
0001
0000
,
1000
0000
0010
0000
1000
0001
0001
0000
,
0001
0000
1000
0000
0100
0001
0001
0000
,
0010
0000
1000
0000
,
0100
0000
0001
0100
,
0010
0000
0001
0000
,
0100
0000
1000
0100
,
0001
0000
0001
0000
,
0001
0000
0101
0101
,
1010
0000
1000
0000
,
1000
0000
0101
0101
,
0010
0010
0100
0100
,
0010
0100
0010
1001
,
0101
0101
1100
1100
,
0011
0101
1001
0101
,
0100
0000
0100
0000
,
0010
1000
0001
0101
;

//---------------dance-single - ----------------
#NOTES:
     dance-single:
     :
     Medium:
     6:
     :
0000
0000
0000
0000
,
0000
0000
0000
0000
,
0000
0000
0000
0000
,
0000
0000
0000
0000
,
0000
0000
0000
0000
,
0000
0000
0000
0000
,
0000
0000
0000
0000
,
0100
0001
0100
0000
0010
1000
0010
0000
,
0100
0001
0100
0000
0010
1000
0010
0000
,
1000
0010
1000
0010
1000
0100
1000
0100
,
1000
0001
0100
0001
0100
0001
0001
0000
,
0010
1000
1000
0000
1000
0100
0100
0000
,
0100
0001
0001
0000
0001
0010
0010
0000
,
0001
0010
0001
0010
0001
0100
0001
0100
,
0001
1000
0100
1000
0100
1000
1000
0000
,
0001
0001
1000
1000
,
0001
0001
1000
1000
,
0001
0100
0100
0000
1000
0100
0100
0000
,
0001
0100
0100
0000
1000
0100
0100
0000
,
0010
0001
0100
0000
0001
0010
0001
0000
,
0010
1000
0100
0000
1000
0100
1000
0000
,
0010
1000
0100
0101
,
0010
0001
0100
1100
,
0010
0000
0010
0000
0100
1000
0100
0000
,
0010
0000
0010
0000
0100
0001
0100
0000
,
0101
0101
1100
1100
,
0110
0000
1001
0000
0001
0100
1000
0000
,
0010
0000
0010
0000
0100
1000
0100
0000
,
0010
0000
0010
0000
0100
0001
0100
0000
,
0101
0101
1100
1100
,
0110
0000
1001
0000
1000
0100
0001
0000
,
0001
0100
0001
0000
0100
1000
0100
0000
,
1000
0010
1000
0000
0010
0000
0001
0000
,
0001
0100
0001
0000
0100
1000
0100
0000
,
1000
0010
1000
0000
0010
0001
0010
0000
,
0001
0010
0001
0000
0010
1000
0010
0000
,
1000
0100
1000
0000
0100
0001
0100
0000
,
0001
0010
0001
0000
0010
1000
0010
0000
,
1000
0100
1000
0000
0100
0001
0100
0000
,
0010
0000
0010
0000
0100
1000
0100
0000
,
0010
0000
0010
0000
0100
0001
0100
0000
,
0101
0101
1100
1100
,
0110
0000
1001
0000
0110
1001
0110
0000
,
0101
0000
0101
0000
,
0010
0000
0001
0000
0001
0100
1000
0000
;

//---------------dance-single - ----------------
#NOTES:
     dance-single:
     :
     Hard:
     8:
     :
0000
0000
0000
0000
,
0000
0000
0000
0000
,
0000
0000
0000
0000
,
0000
0000
0000
0000
,
0000
0000
0000
0000
,
0000
0000
0000
0000
,
0000
0000
0000
0000
,
0100
0001
0101
0000
0010
1000
1100
0000
,
0100
0001
0101
0000
1010
0000
0101
0000
,
0010
1000
0100
0010
0001
0100
0010
1000
,
0100
0010
0001
0100
0010
1000
1000
0000
,
0010
1001
0100
0000
1000
0110
0001
0000
,
0010
0001
0001
0000
0010
1000
1000
0000
,
0010
0001
0100
0010
1000
0100
0010
0001
,
0100
0010
1000
0100
0010
0001
0001
0000
,
0001
1100
1000
0101
,
0001
1000
1000
0000
1000
0001
0001
0000
,
0010
0001
0001
0000
0100
1000
1000
0000
,
0010
1001
0010
1001
,
0010
1001
1100
0000
0010
1001
0101
0000
,
0010
1000
0100
0000
0010
0001
0100
0000
,
0010
0000
1000
0000
0100
0001
1100
0000
,
0010
0000
0001
0000
0100
1000
1001
0000
,
0110
0000
1001
0000
1100
0001
0001
0000
,
1001
0000
0110
0000
0011
1000
1000
0000
,
0101
0000
0101
0000
1100
0001
0100
0000
,
0110
0000
1001
0000
0110
0001
1000
0000
,
0110
0000
1001
0000
0110
0001
0100
0000
,
1001
0000
0110
0000
1100
0001
0100
0000
,
0101
0000
0101
0000
0010
1000
1100
0000
,
0110
0000
1001
0000
0110
1000
0001
0000
,
0010
0000
1000
0000
,
0001
0000
0000
0000
0000
0000
0000
0000
0100
1000
0000
0000
0001
0000
0000
0000
,
0010
1000
0000
0000
0001
0000
0000
0000
0100
1000
0000
0000
0001
0000
0000
0000
,
0001
0100
0000
0000
0010
0000
0000
0000
0010
1000
0000
0000
0100
0010
0000
0000
,
0001
1000
1000
0001
,
1001
0000
0000
0000
0100
0000
0000
0000
0010
0100
0000
0000
1001
0000
0000
0000
,
0100
1000
0000
0000
0001
0000
0000
0000
0100
0001
0000
0000
1000
0000
0000
0000
,
0100
1000
0000
0000
0001
0000
0000
0000
0100
0000
0100
0000
0100
0000
0000
0000
,
1010
0000
0110
0000
0100
1000
0101
0000
,
0011
0000
0110
0000
0100
0001
1100
0000
,
0101
0000
0101
0000
1100
0010
0101
0000
,
0110
0000
1001
0000
0110
1001
0110
0000
,
0010
1000
0001
0010
1000
0100
0010
1000
,
0001
0010
0100
0001
1000
0100
0100
0000
;
