#TITLE:DAM DARIRAM;
#ARTIST:JOGA;
#BANNER:DAM DARIRAM.png;
#BACKGROUND:DAM DARIRAM-bg.png;
#MUSIC:DAM DARIRAM.ogg;
#SAMPLESTART:55.715;
#SAMPLELENGTH:15;
#DISPLAYBPM:141;
#BPMS:0=140.54;

//---------------dance-single - ----------------
#NOTES:
     dance-single:
     :
     Easy:
     4:
     :
0000
0000
0000
0000
,
0000
0000
0000
0000
,
0000
0000
0000
0000
,
0000
0000
0000
0000
,
0000
0000
0000
0000
,
0000
0100
0000
0100
,
0000
0010
0000
0010
,
0000
0100
0000
0100
,
0000
0000
0000
0000
,
1000
0001
1000
0001
,
0100
1000
0100
1000
,
0001
1000
0001
1000
,
0100
0001
0100
0001
,
1000
0001
1000
0001
,
0100
1000
0100
1000
,
0001
1000
0001
1000
,
0100
0001
0100
0001
,
0110
0000
0000
0000
,
1000
0100
0010
0001
,
1000
0100
0001
0100
,
0010
1000
0100
0001
,
1001
0000
0000
0000
,
0100
0010
0001
1000
,
0010
0001
1000
0100
,
0010
0001
0100
1000
,
1001
0000
0000
0000
,
1001
0000
0000
0000
,
1001
0000
0000
0000
,
0010
0010
0100
0100
,
1001
0000
0000
0000
,
1001
0000
0000
0000
,
1001
0000
0000
0000
,
0110
0000
0000
0000
,
1001
1001
1100
1100
,
0001
0100
1000
0100
,
1001
0000
1001
0000
,
0110
0000
0000
0000
,
1001
1001
0101
0101
,
1000
0100
0010
0001
,
1001
0000
1001
0000
,
0110
0000
0000
0000
,
1000
0001
1000
0001
,
0100
1000
0100
1000
,
0001
1000
0001
1000
,
0100
0001
0100
0001
,
1000
0001
1000
0001
,
0100
1000
0100
1000
,
0001
1000
0001
1000
,
0100
0001
0100
0001
,
1000
0000
0000
0000
,
0100
0000
0000
0000
,
0010
0000
0000
0000
,
0001
0000
0000
0000
;

//---------------dance-single - ----------------
#NOTES:
     dance-single:
     :
     Medium:
     6:
     :
0000
0000
0000
0000
,
0000
0000
0000
0000
,
0000
0000
0000
0000
,
0000
0000
0000
0000
,
0000
0000
0000
0000
,
1000
1000
1000
1000
,
0001
0001
0001
0001
,
1000
1000
1000
1000
,
0110
0000
0000
0000
,
1001
0000
1001
0000
0100
0010
0100
0000
,
1001
0000
1001
0000
0010
0100
0010
0000
,
1100
0000
1100
0000
0001
0010
0001
0000
,
1100
0000
1100
0000
0010
0001
0010
0000
,
0110
0000
0110
0000
1000
0001
1000
0000
,
0110
0000
0110
0000
0001
1000
0001
0000
,
0101
0000
0101
0000
1000
0010
1000
0000
,
0101
0000
0101
0000
0010
1000
0010
0000
,
1000
0000
0000
0100
0010
0100
0000
0000
,
1000
0000
0000
0010
0100
0010
0000
0000
,
1000
0000
0000
0001
0100
0010
0000
0000
,
1000
0000
0000
0100
0010
0001
0000
0000
,
0001
0000
0000
0100
0010
0100
0000
0000
,
0001
0000
0000
0010
0100
0010
0000
0000
,
0001
0000
0000
1000
0100
0010
0000
0000
,
0001
0000
0000
0100
0010
1000
0000
0000
,
1000
0000
0100
0010
0001
0100
0010
0000
,
1000
0000
0100
0010
0001
0100
0010
0000
,
1000
0000
0100
0010
0001
0100
0010
0000
,
1000
0100
0001
0100
,
0010
0000
1000
0100
0010
0001
0100
0000
,
0010
0000
1000
0100
0010
0001
0100
0000
,
0010
0000
1000
0100
0010
0001
0100
0000
,
1010
0000
0000
0000
,
0110
0000
0001
1000
0001
0000
0001
1000
,
0001
0000
0001
1000
0100
0010
0001
1000
,
0100
0000
1000
0001
0100
0010
0000
1001
,
0000
0000
0000
0000
,
0110
0000
1000
0001
1000
0000
1000
0001
,
1000
0000
1000
0001
0100
0010
1000
0001
,
0100
0000
0001
1000
0100
0010
0000
1001
,
0000
0000
0000
0000
,
1001
0000
1001
0000
0100
0010
0100
0000
,
1001
0000
1001
0000
0010
0100
0010
0000
,
1001
0000
1100
0000
0001
0010
0001
0000
,
1001
0000
1100
0000
0010
0001
0010
0000
,
1001
0000
0110
0000
1000
0001
1000
0000
,
0110
0000
1001
0000
0010
0100
0010
0000
,
0101
0000
1001
0000
0010
0100
0010
0000
,
1001
0000
1100
0000
0010
0001
0010
0000
,
0001
0001
0001
0001
,
0100
0100
0100
0100
,
0010
0010
0010
0010
,
1000
1000
1000
0000
;

//---------------dance-single - ----------------
#NOTES:
     dance-single:
     :
     Hard:
     8:
     :
0000
0000
0000
0000
,
0000
0000
0000
0000
,
0000
0000
0000
0000
,
0000
0000
0000
0000
,
0000
0000
0000
0000
,
1000
0001
0000
1000
0001
0000
1000
0001
0000
1000
0001
0000
1000
0000
0001
0000
,
1000
0001
0000
1000
0001
0000
0010
0100
0000
0010
0100
0000
1000
0000
0001
0000
,
1000
0100
0000
0010
0001
0000
0100
0010
0000
1000
0100
0000
0010
0000
0001
0000
,
1001
0000
0000
0100
0100
0100
0000
0000
,
1000
0000
0000
0001
0000
0000
1000
0000
0000
0001
0000
0000
0010
0000
0100
0000
,
1000
0000
0000
0001
0000
0000
1000
0000
0000
0001
0000
0000
0100
0000
0010
0000
,
1000
0000
0000
0001
0000
0000
1000
0000
0000
0001
0000
0000
0010
0000
0100
0000
,
1000
0000
0000
0001
0000
0000
1000
0000
0000
0001
0000
0000
0100
0000
0010
0000
,
1000
0000
0000
0100
0000
0000
0010
0000
0000
0001
0000
0000
0100
0000
0010
0000
,
1000
0000
0000
0100
0000
0000
0010
0000
0000
0001
0000
0000
0100
0000
0010
0000
,
1000
0000
0000
0100
0000
0000
0010
0000
0000
0001
0000
0000
0100
0000
0010
0000
,
1000
0000
0000
0100
0000
0000
0010
0000
0000
0001
0000
0000
0100
0000
0010
0000
,
1000
0100
0001
0100
1000
0100
0001
0100
,
1000
0010
0001
0100
1000
0010
0001
0100
,
0010
0100
0001
0100
0010
0100
0001
0100
,
1000
0010
0100
0001
1000
0010
0100
0001
,
1000
0100
0010
0001
0100
0010
1000
0001
,
0100
0010
1000
0100
0010
0001
0100
0010
,
1000
0001
0100
0010
1000
0001
0100
0010
,
1000
0100
0010
0001
1000
0100
0010
0000
,
1001
0000
0100
0001
1000
0100
0010
1001
,
0000
0000
0100
0001
1000
0100
0010
1001
,
0000
0000
0010
0100
0000
1000
0000
0001
,
0000
0100
0010
0000
0000
0000
0000
0000
,
1001
0000
0100
0001
1000
0100
0010
1001
,
0000
0000
0100
0001
1000
0100
0010
1001
,
0000
0010
0000
0100
0000
0001
0000
1000
,
0000
0001
0100
0000
0000
0010
1000
0100
,
0110
0000
0001
0100
0110
0000
1000
0100
,
0110
0000
0001
0100
0010
1000
0100
0010
,
0011
0000
1000
0100
0010
0001
0000
1100
,
0000
0000
0000
0000
0000
0001
0100
0010
,
1001
0000
0100
0010
1001
0000
0100
0010
,
1001
0000
0100
0010
1000
0100
0010
0001
,
1001
0000
0100
0010
1000
0001
0000
0110
,
0000
0000
0000
0000
,
1000
0000
0000
0001
0000
0000
1000
0000
0000
0001
0000
0000
0010
0000
0100
0000
,
1000
0000
0000
0001
0000
0000
1000
0000
0000
0001
0000
0000
0100
0000
0010
0000
,
1000
0000
0000
0001
0000
0000
1000
0000
0000
0001
0000
0000
0010
0000
0100
0000
,
1000
0000
0000
0001
0000
0000
1000
0000
0000
0001
0000
0000
0100
0000
0010
0000
,
1000
0000
0000
0100
0000
0000
0010
0000
0000
0001
0000
0000
0100
0000
0010
0000
,
1000
0000
0000
0001
0000
0000
0100
0000
0000
0010
0000
0000
1000
0000
0100
0000
,
0010
0000
0000
0001
0000
0000
0100
0000
0000
0010
0000
0000
1000
0000
0100
0000
,
0010
0000
0000
0001
0000
0000
1000
0000
0000
0010
0000
0000
0100
0000
0001
0000
,
1000
0100
0000
0010
0001
0000
0100
0010
0000
1000
0100
0000
0010
0000
0001
0000
,
1000
0001
0000
0000
0000
0000
0010
0100
0000
0000
0000
0000
1000
0000
0001
0000
,
1000
0001
0000
0000
0000
0000
1000
0000
0000
0000
0000
0000
1000
0000
0001
0000
,
1000
0000
0000
1000
;
