#TITLE:BOOM BOOM DOLLAR;
#ARTIST:King Kong & D.Jungle Girls;
#BANNER:BOOM BOOM DOLLAR.png;
#BACKGROUND:BOOM BOOM DOLLAR-bg.png;
#MUSIC:BOOM BOOM DOLLAR.ogg;
#SAMPLESTART:43.945;
#SAMPLELENGTH:15;
#DISPLAYBPM:137;
#BPMS:0=136.53;

//---------------dance-single - ----------------
#NOTES:
     dance-single:
     :
     Easy:
     2:
     :
0000
0000
0000
0000
,
0000
0000
0000
0000
,
0000
0000
0000
0000
,
0000
0000
0000
0000
,
0000
0000
0000
0000
,
0000
0000
0000
0000
,
0000
0000
0000
0000
,
0001
1000
0001
1000
,
0001
0001
1000
1000
,
0010
0000
0100
0000
,
0001
0000
1000
0000
,
0001
0000
0100
0000
,
1000
0001
1000
0001
,
0100
0000
1000
0000
,
0010
0000
0001
0000
,
1000
0000
0100
0000
,
0001
1000
0001
1000
,
0100
0000
0010
0000
,
0010
0000
0100
0000
,
1000
0000
0001
0000
,
1000
0000
0001
0000
,
0100
0000
1000
0000
,
0100
0000
0001
0000
,
0010
0000
1000
0000
,
0001
0000
0000
0000
,
1000
0001
1000
0001
,
1000
0001
1000
1000
,
0001
1000
0001
1000
,
0001
1000
0001
0001
,
1000
0001
1000
0001
,
1000
0001
1000
1000
,
0010
0000
0000
0000
,
0100
0000
0000
0000
,
1000
0001
1000
0001
,
1000
1000
1000
1000
,
0001
1000
0001
1000
,
0001
0001
0001
0001
,
1000
1000
0001
0001
,
1000
0001
1000
0001
,
0010
0000
0000
0000
,
0100
0000
0000
0000
,
0010
0010
0010
0010
,
0100
0100
0100
0100
;

//---------------dance-single - ----------------
#NOTES:
     dance-single:
     :
     Medium:
     5:
     :
0000
0000
0000
0000
,
0000
0000
0000
0000
,
0000
0000
0000
0000
,
0000
0000
0000
0000
,
0000
0000
0000
0000
,
0000
0000
0000
0000
,
0000
0000
0000
0000
,
0001
1000
0001
1000
,
0001
0001
0001
0000
1000
1000
1000
0000
,
0000
0010
0001
0010
,
1000
0010
1000
0010
,
0001
0010
0001
0000
,
0010
1000
0100
0001
0100
1000
0010
0000
,
1000
0100
0001
0100
,
1000
0010
1000
0010
,
0001
0010
1000
0000
,
0010
1000
0100
0001
0100
1000
0010
0000
,
1000
0010
1001
0000
,
0010
0010
1000
0100
,
0001
0010
0001
0000
0100
0000
1000
0000
,
1000
0000
0100
0000
0001
0000
0001
0100
,
1000
0000
0100
0000
0001
0000
1000
0100
,
0001
0000
0100
0000
1000
0000
0010
1000
,
0001
1000
0100
0001
,
0100
1000
0001
0000
,
0010
1000
0010
1001
,
0010
0000
0010
0000
1000
0100
0000
0000
,
0010
0001
0010
1000
,
1000
0100
0001
0000
0100
1000
0010
0000
,
0010
0001
0010
1000
,
0100
0001
0100
1000
,
0010
0000
0000
0000
,
0100
0000
0000
0000
,
0010
1000
0010
0001
,
0010
0010
0010
0010
,
1000
0100
0001
0000
0001
0100
1000
0000
,
0010
0010
0010
0010
,
0100
0001
0010
0000
0001
1000
0100
0000
,
0001
0000
0001
0000
1000
0001
1000
0000
,
0001
0100
1000
0000
1000
0100
0001
0000
,
0100
1000
0001
0100
,
0010
0010
1100
0101
,
0100
1000
0100
0001
0100
0000
0100
0000
;

//---------------dance-single - ----------------
#NOTES:
     dance-single:
     :
     Hard:
     6:
     :
0000
0000
0000
0000
,
0000
0000
0000
0000
,
0000
0000
0000
0000
,
0000
0000
0000
0000
,
0000
0000
0000
0000
,
0000
0000
0000
0000
,
0000
0000
0000
0000
,
0001
0000
1000
0000
0010
1000
0100
0000
,
0010
0001
0100
0000
0010
1000
0100
0000
,
0000
0000
0001
0000
0010
1000
0100
0000
,
1000
0000
0010
0000
1000
0010
0001
0000
,
0001
0010
1000
0000
0001
0001
0100
0000
,
0010
1000
0100
0001
0100
1000
0010
0000
,
1000
0000
0100
0000
0001
0001
0100
0000
,
1000
0000
0010
0000
1000
0000
0010
0010
,
0001
0000
0010
0010
1000
0000
0001
0000
,
0010
1000
0100
0001
0100
1000
0010
0000
,
1000
0000
0010
0000
1001
0000
0100
0100
,
0010
0000
0010
0000
1000
0000
0100
0100
,
0001
0010
0001
0000
0100
0000
1000
1000
,
0100
0000
0100
0000
0001
0000
0001
0100
,
1000
0000
0100
0000
0001
0000
1000
0100
,
0001
0000
0100
0000
1000
0000
0010
1000
,
0001
0000
1000
0000
0100
0000
0001
1000
,
0100
0000
1000
0000
0001
1000
0001
1000
,
0010
0010
0010
0000
1000
0010
0001
0000
,
0010
0010
0010
0000
1000
0100
0000
0000
,
0001
1000
0010
0000
1000
0001
0010
0000
,
1000
0010
0001
0000
0001
0010
1000
0000
,
0010
0010
1010
0000
1000
0010
0001
0000
,
0010
0010
1010
0000
0001
0010
1000
0000
,
0010
1000
0100
0001
0100
1000
0010
1000
,
0100
0001
0100
1000
0010
1000
0100
0001
,
0100
0100
1100
0000
0010
0010
1010
0000
,
0010
0000
0010
0010
0010
1000
0010
0000
,
1100
0100
0100
0000
0101
0100
0100
0000
,
0010
0000
0010
0010
0010
1000
0010
0000
,
0100
1100
0100
0000
0100
0101
0100
0000
,
0001
0001
1000
0001
,
0010
1000
0100
0001
0100
1000
0010
1000
,
0100
0001
0100
1000
0010
1000
0100
0001
,
0100
0000
0100
0000
0100
1000
0001
0000
,
0100
1000
0100
0001
0100
0000
1001
0000
;
