#TITLE:BAD GIRLS;
#ARTIST:Juliet Roberts;
#BANNER:BAD GIRLS.png;
#BACKGROUND:BAD GIRLS-bg.png;
#MUSIC:BAD GIRLS.ogg;
#SAMPLESTART:57.775;
#SAMPLELENGTH:15;
#DISPLAYBPM:121;
#BPMS:0=120.47;

//---------------dance-single - ----------------
#NOTES:
     dance-single:
     :
     Easy:
     2:
     :
0000
0000
0000
0000
,
0000
0000
0000
0000
,
0000
0000
0000
0000
,
0000
0000
0000
0000
,
0000
0000
0000
0000
,
0010
0000
0000
0000
,
0010
0000
0000
0000
,
0100
0000
0000
0000
,
0100
0000
0000
0000
,
1000
1000
0000
0000
,
0001
0001
0000
0000
,
0010
0010
0000
0000
,
0100
0100
0000
0000
,
0000
1000
0100
0000
,
0010
0000
0100
0000
,
0000
0001
0100
0000
,
1000
0001
1000
1000
,
0100
0100
0010
0000
,
0001
0001
0000
0000
,
1000
0000
1000
0000
,
0100
0001
0010
1000
,
0100
0100
0000
0000
0001
0001
0000
0010
,
0000
0000
0000
0000
,
1000
1000
0000
0000
0100
0100
0000
0001
,
0000
0000
0000
0000
,
0010
0010
0000
0000
1000
1000
0000
0100
,
0000
0000
0000
0000
,
0010
0000
0100
0000
,
0010
0001
0100
1000
,
1001
0010
0100
1000
,
0100
0001
0010
0001
,
0100
1000
0100
0100
,
0001
0010
0100
1001
,
0001
0001
1000
1000
,
0010
0100
0010
0100
,
1000
0000
0001
0000
0000
0000
0000
1000
,
1000
0000
0000
0000
,
1000
1000
0001
0001
,
0010
0100
0010
0100
,
0001
0000
1000
0000
0000
0000
0000
0100
,
0100
0000
1000
0001
;

//---------------dance-single - ----------------
#NOTES:
     dance-single:
     :
     Medium:
     4:
     :
0000
0000
0000
0000
,
0000
0000
0000
0000
,
0000
0000
0000
0000
,
0000
0000
0000
0000
,
0000
0000
0000
0000
,
1000
1100
0001
0101
,
0010
0100
1000
1001
,
0001
0101
1000
1100
,
0010
0100
0001
1001
,
1000
0001
1000
0110
,
0001
1000
0001
1001
,
0010
1100
0001
0101
,
0100
0010
1001
0100
,
0000
0100
1100
0000
,
0110
0000
0100
0000
1001
0000
1000
0100
,
0000
0010
0101
0000
,
0110
1001
0100
0100
,
0010
0100
1001
0010
,
1000
0100
0001
0001
,
0100
0010
0100
0000
,
1001
0100
0110
1000
,
0010
0100
0000
0000
0001
1000
0000
0110
,
0000
1000
0010
0001
,
1000
0001
0000
0000
0010
0100
0000
1001
,
0000
0100
0001
0010
,
0100
0010
0000
0000
1000
0001
0000
0110
,
0000
0001
0010
1000
,
0001
0001
0100
0100
,
0110
1001
0110
1000
,
1001
0010
0100
1000
,
1001
0001
0010
0001
,
0110
1000
0100
0100
,
1001
0010
0110
1000
,
1000
1100
0001
0101
,
1000
0001
0010
0000
0101
0000
1100
0000
,
0001
0100
0001
0000
0000
0000
0000
1000
,
0100
0000
0000
0000
1000
1000
0010
0010
,
0001
0101
1000
1100
,
0001
1000
0010
0000
1100
0000
0101
0000
,
1000
0100
1000
0000
0000
0000
0000
0001
,
0100
0000
0000
0000
1000
1000
0001
0001
;

//---------------dance-single - ----------------
#NOTES:
     dance-single:
     :
     Hard:
     5:
     :
0000
0000
0000
0000
,
0000
0000
0000
0000
,
0000
0000
0000
0000
,
0000
0000
0000
0000
,
0000
0000
0000
0000
,
1000
0001
0100
0000
0001
1000
0100
0000
,
0010
0100
1001
0000
0001
1000
0110
0000
,
0001
0001
1000
0000
1000
1000
0001
0000
,
1100
0101
0011
1100
,
0011
0001
1000
0000
1010
1000
0001
0000
,
1100
0000
0101
0000
0001
0100
1000
0000
,
0001
0110
1000
0000
1000
0110
0001
0000
,
0001
0100
0010
1000
0100
1000
0100
0000
,
0000
0010
0001
0100
1100
0000
0000
0000
,
0001
0001
1000
0000
1000
0000
0001
0100
,
0000
0010
1000
0100
0101
0000
0000
0000
,
0101
1100
0100
0100
,
0010
0010
0100
0000
1000
1000
0001
0000
,
0010
0000
0110
0000
0100
0100
1001
0000
,
0010
0000
1000
1000
0100
0100
0001
0000
,
0010
1000
0100
0001
0001
1000
0100
0000
,
1010
0100
0000
0000
1100
0001
0000
0110
,
0000
0000
1010
0000
0001
0100
1001
0000
,
0011
0100
0000
0000
0101
1000
0000
1001
,
0000
0000
0011
0000
1000
0100
1001
0000
,
1010
0100
0000
0000
1001
0100
0000
1001
,
0000
0000
1010
0100
0001
0000
1001
0000
,
0001
0100
0010
0100
1000
0001
0100
0010
,
1000
0100
1000
0100
0001
0010
0001
0000
,
1001
0000
0100
0000
1000
0110
0001
0000
,
1001
0000
0110
0000
0001
0110
1000
0000
,
0001
0001
1000
1000
1000
0110
0001
0000
,
0001
0001
1000
1000
1000
0110
0001
0000
,
1000
0010
0100
0000
0001
0010
0100
0000
,
1000
0001
0010
0000
0101
0000
1100
0000
,
1000
0100
0101
0000
0000
0000
0000
1000
,
0101
0000
0000
0000
1000
0001
0010
0100
,
0001
0010
0100
0000
1000
0010
0100
0000
,
0001
1000
0010
0000
1100
0000
0101
0000
,
0001
0100
1100
0000
0000
0000
0000
1001
,
0110
0000
0000
0000
1000
0100
0001
0010
;
