#TITLE:AM-3P;
#ARTIST:kTz;
#BANNER:AM-3P.png;
#BACKGROUND:AM-3P-bg.png;
#MUSIC:AM-3P.ogg;
#SAMPLESTART:47.715;
#SAMPLELENGTH:15;
#DISPLAYBPM:126;
#BPMS:0=125.75;

//---------------dance-single - ----------------
#NOTES:
     dance-single:
     :
     Easy:
     5:
     :
0000
0000
0000
0000
,
0000
0000
0000
0000
,
0000
0000
0000
0000
,
0000
0000
0000
0000
,
0000
0000
0000
0000
,
0000
0000
0000
0000
,
0000
0000
0000
0000
,
0010
1000
0010
1001
,
1000
0001
0100
1001
,
0100
1001
0100
1001
,
0100
1001
0100
1001
,
0010
0100
0010
1001
,
0010
1000
0100
1001
,
0010
0001
0100
1001
,
0010
1000
0100
1001
,
1100
0001
0101
1000
,
1100
0001
0101
1000
,
0001
0000
0000
0001
0000
0000
0001
0000
0000
0000
1000
0000
0100
0000
0000
0000
,
1000
0000
0000
1000
0000
0000
1000
0000
0000
0000
0001
0000
0100
0000
0000
0000
,
0001
0000
0000
1000
0000
0000
0001
0000
0000
0000
0010
0000
0100
0000
0000
0000
,
0010
0001
0001
0001
,
1000
0000
0000
0100
0000
0000
1000
0000
0000
0000
0001
0000
0100
0000
0000
0000
,
0100
0000
0000
0001
0000
0000
1000
0000
0000
0000
0100
0000
1000
0000
0000
0000
,
0010
0000
0000
0001
0000
0000
1000
0000
0000
0000
0100
0000
0010
0000
0000
0000
,
0010
1000
1000
1000
,
0001
0100
0010
1000
,
0100
0010
0001
0100
,
0010
1000
0100
0010
,
0001
0001
1000
1000
,
0010
1000
0100
0110
,
0010
0001
0100
0110
,
1000
0100
0001
0010
,
1010
0001
0011
1000
,
0010
0000
1000
0000
0001
0100
0001
0000
,
0010
0000
0001
0000
0100
0100
0100
0000
,
1001
0000
1001
0000
1000
0100
1000
0000
,
1000
0000
0100
0000
0010
0001
0100
0000
,
1100
0001
0101
1000
,
1100
0001
0101
1000
,
0010
1000
0100
0010
,
0001
0100
0010
1001
,
1000
0010
0001
0010
,
1000
0010
0100
0000
0001
0010
0100
0000
,
0010
0000
0000
1000
0000
0000
0100
0000
,
0000
0001
0000
0000
0010
0010
0100
0100
;

//---------------dance-single - ----------------
#NOTES:
     dance-single:
     :
     Medium:
     6:
     :
0000
0000
0000
0000
,
0000
0000
0000
0000
,
0000
0000
0000
0000
,
0000
0000
0000
0000
,
0000
0000
0000
0000
,
0000
0000
0000
0000
,
0000
0000
0000
0000
,
1000
0100
1000
0000
0010
1000
0001
0000
,
0001
0100
0001
0000
0100
0000
1001
0000
,
0100
1000
1001
0000
0100
0001
1001
0000
,
0100
1000
1001
0000
0100
0001
1001
0000
,
0010
0100
0010
1001
,
0010
0001
0100
0000
0100
0000
1001
0000
,
0100
0001
0100
0000
0100
1000
0100
0000
,
0100
0001
0100
0000
0100
1000
0100
0000
,
0100
1000
0001
0000
0100
0001
1000
0000
,
0100
1000
0001
0000
0100
0001
1000
0000
,
0001
0000
0000
0001
0000
0000
0001
0000
0000
0000
0100
0000
1000
0000
0100
0000
,
1000
0000
0000
1000
0000
0000
1000
0000
0000
0000
0001
0000
0100
0000
0001
0000
,
0010
0000
0000
0001
0000
0000
0100
0000
0000
0000
1000
0000
0100
0000
0001
0000
,
0100
0100
0100
0100
,
0010
0000
0000
0010
0000
0000
0010
0000
0000
0000
1000
0000
0001
0000
0100
0000
,
0010
0000
0000
0010
0000
0000
1001
0000
0000
0000
0010
0000
1000
0000
0100
0000
,
0001
0000
0000
0001
0000
0000
0110
0000
0000
0000
0001
0000
1000
0000
0100
0000
,
0010
0000
0010
0000
1001
1000
0100
0000
,
0100
0000
0010
0000
1000
0100
0010
0000
,
0001
0000
0100
0000
0010
1000
0100
0000
,
0010
0000
0001
0000
0100
0010
1000
0000
,
1001
0000
1001
0000
0100
0001
1000
0000
,
0010
1000
0100
0110
,
0010
0001
0100
0110
,
1000
0100
1000
0000
0001
0100
0001
0000
,
1000
0100
1000
0000
0001
0100
0001
0000
,
1000
0000
0001
0000
1000
1000
0100
0000
,
0001
0000
1000
0000
0001
0001
0100
0000
,
0011
0000
1001
0000
0001
1000
0100
0000
,
0010
0000
1001
0000
0010
0100
0010
0000
,
1100
0001
0101
1000
,
1100
0110
0101
0110
,
0010
1000
0100
0011
,
0001
0100
0010
1010
,
0001
0100
0010
1000
,
1000
0010
0100
0000
0001
0010
0100
0000
,
0010
0000
0000
1000
0000
0000
0100
0000
,
0000
0001
0000
0000
0100
0100
0010
0010
;

//---------------dance-single - ----------------
#NOTES:
     dance-single:
     :
     Hard:
     8:
     :
0000
0000
0000
0000
,
0000
0000
0000
0000
,
0000
0000
0000
0000
,
0000
0000
0000
0000
,
0000
0000
0000
0000
,
0000
0000
0000
0000
,
0000
0000
0000
0000
,
0100
0001
0100
0001
0100
1000
0100
1000
,
0100
0001
0100
0001
0100
1000
0100
1000
,
0100
0001
0100
1000
0100
0001
0100
1000
,
0100
0001
0100
1000
0100
0010
0100
0010
,
0100
0001
0100
1000
0100
0001
0100
1000
,
0100
0001
0100
0010
0100
1000
0100
0010
,
0001
0100
0001
0010
0001
0100
0001
0010
,
0001
1000
0001
1000
0001
0100
0001
0100
,
1000
0001
1000
0001
1000
0010
1000
0010
,
1000
0100
1000
0010
1000
0100
1010
0000
,
1000
0000
0000
0001
0000
0000
1000
0000
0000
0000
0010
0000
0100
0000
0001
0000
,
0001
0000
0000
1000
0000
0000
0001
0000
0000
0000
0010
0000
0100
0000
1000
0000
,
0010
0000
0000
0010
0000
0000
0010
0000
0000
0000
1000
0000
0001
0000
0100
0000
,
0010
0000
0010
0000
0010
1000
0100
0000
,
1000
0000
0000
1000
0000
0000
1000
0000
0000
0100
1000
0000
0001
0000
0100
0000
,
0001
0000
0000
0001
0000
0000
0001
0000
0000
0010
0001
0000
1000
0000
0100
0000
,
0010
0000
0000
0010
0000
0000
0010
0000
0000
0100
1000
0000
0001
0000
0100
0000
,
0010
1000
0000
0000
0100
1000
0000
0000
0001
1000
0000
0000
0100
1000
0000
0000
,
0000
1000
0000
1000
0000
0001
0000
0001
,
0000
0010
0000
1100
0000
0010
0000
0101
,
0000
0100
0000
1001
0000
0100
0000
1001
,
0000
0100
0000
0100
0000
0010
1001
0000
,
0100
1000
0100
1000
0001
0010
0001
0010
,
0001
0100
0001
0100
0010
1000
1010
0000
,
0100
1000
0010
1000
0001
0100
0010
1000
,
0100
0010
0001
0100
0010
0100
1001
0000
,
0010
0000
1000
0000
0001
1001
1001
0000
,
1001
0000
0100
0000
1001
1000
0100
0000
,
0010
1000
0100
0010
0001
0100
0100
0000
,
1100
0000
1010
0000
0010
0001
0101
0000
,
1001
0000
0100
0000
0001
0100
1000
0000
,
1001
0000
0100
0000
1000
0100
0001
0000
,
1001
0000
0101
0000
0001
0010
0101
0000
,
0011
0000
1100
0000
1010
0001
0100
0000
,
1000
0101
0001
1100
,
0010
0000
0001
1100
0000
1000
0101
0000
,
0010
0001
0001
1000
0001
0001
0100
0001
,
0001
0001
1000
1000
0010
1000
1001
0101
;
