#TITLE:Superstar;
#ARTIST:tomboy;
#BANNER:Superstar.png;
#BACKGROUND:Superstar-bg.png;
#CDTITLE:./CDTITLES/DanceDanceRevolution Full-Full Party.png;
#MUSIC:Superstar.ogg;
#SAMPLESTART:13.547;
#SAMPLELENGTH:15;
#BPMS:0=159;

//---------------dance-single - ----------------
#NOTES:
     dance-single:
     :
     Beginner:
     1:
     :
0000
0000
0000
0000
,
0000
0000
0000
0000
,
0000
0000
0000
0000
,
0000
0000
0000
0000
,
0000
0000
0000
0000
,
0000
0000
0000
0000
,
0000
0000
0000
0000
,
0000
0000
0000
0000
,
0000
0000
0000
0000
,
0010
0000
0000
0000
,
0001
0000
0001
0000
,
0100
0000
0000
0000
,
1000
0000
1000
0000
,
0010
0000
0000
0000
,
0001
0000
0001
0000
,
0100
0000
0000
0000
,
0001
0000
1000
0000
,
0001
0000
0100
0000
,
0001
0000
0000
0000
,
1000
0000
0000
0000
,
0100
0000
0100
0000
,
0000
0000
0001
0000
,
0000
0000
1000
0000
,
0000
0000
0000
0000
,
1001
0000
1001
0000
,
1000
0000
0010
0000
,
1000
0000
0000
0000
,
0001
0000
0000
0000
,
0010
0000
0010
0000
,
0000
0000
1000
0000
,
0000
0000
0001
0000
,
0100
0000
0000
0000
,
0010
0000
0100
0000
,
1001
0000
0000
0000
,
0001
0000
0000
0000
,
1001
0000
0000
0000
,
1000
0000
0000
0000
,
0000
0000
1000
0000
,
0000
0000
0001
0000
,
1000
1000
1000
0000
,
0001
0001
0001
0000
,
1000
0000
0000
0000
,
0100
0000
0000
0000
,
0001
0001
0000
0000
,
0010
0000
0000
0000
,
1000
0000
0000
0001
,
0001
0000
0000
0100
,
0100
0000
0000
0000
,
0000
0000
1001
0000
,
0001
0000
0000
0000
,
0010
0000
0000
0000
,
1000
1000
0000
0000
,
0100
0000
0000
0000
,
0001
0000
0000
1000
,
1000
0000
0000
0010
,
0010
0000
0000
0000
,
1001
0000
0010
0000
,
0100
0000
0000
0000
;

//---------------dance-single - ----------------
#NOTES:
     dance-single:
     :
     Easy:
     3:
     :
0000
0000
0000
0000
,
0000
0000
0000
0000
,
0000
0000
0000
0000
,
0000
0000
0000
0000
,
0000
0000
0000
0000
,
0000
0000
0000
0000
,
0000
0000
0000
0000
,
0000
0000
0000
0000
,
0000
0000
0000
0000
,
0001
0001
0000
0000
,
0100
0000
0100
0000
,
1000
1000
0000
0000
,
0110
0000
0100
0000
,
0001
0001
0000
0000
,
0110
0000
0010
0000
,
0200
0000
0300
0000
,
0001
0010
0100
1000
,
0001
0000
0001
0000
,
1000
0000
0100
0000
,
0010
0000
0000
0000
,
1000
0000
0000
0000
,
0010
0000
0001
0000
,
1000
0000
0010
0010
,
1000
0000
0100
0001
,
1000
0001
1000
0001
,
1000
0000
1001
0000
,
1000
0000
0100
0100
,
0110
0000
0000
0000
,
1000
0000
0001
0000
,
0010
0000
0000
0000
,
1000
0000
0000
0000
,
0001
0000
0100
0000
,
1000
0001
0100
0001
,
2000
0000
3000
0000
,
0200
0000
0310
0000
,
0002
0000
1003
0000
,
0020
0000
0030
0000
,
0001
0000
0100
0000
,
1000
0000
0100
0000
,
1000
1000
1000
1000
,
0001
0001
0001
0000
,
0002
0000
0003
0000
,
0020
0000
0030
0000
,
0200
0000
0300
0000
,
0020
0000
0000
0030
,
1000
0100
0000
0001
,
0001
0000
0100
0000
,
0001
1000
0000
0000
,
0110
0000
1001
0000
,
2000
0000
3000
0000
,
0200
0000
0300
0000
,
0020
0000
0030
0000
,
0200
0000
0000
0300
,
1000
0000
0100
0001
,
1000
0100
0001
0100
,
1000
0100
0010
0001
,
0010
0010
0100
1000
,
1000
0000
0000
0000
;

//---------------dance-single - ----------------
#NOTES:
     dance-single:
     :
     Medium:
     5:
     :
0000
0000
0000
0000
,
0000
0000
0000
0000
,
0000
0000
0000
0000
,
0000
0000
0000
0000
,
0000
0000
0000
0000
,
0000
0000
0000
0000
,
0000
0000
0000
0000
,
0000
0000
0000
0000
,
0000
0000
0000
0000
,
0100
0000
1000
0001
0000
0000
0100
0000
,
0010
0001
0010
0100
,
0010
0000
0001
1000
0000
0000
0010
0000
,
0100
0010
0100
0010
,
0100
0000
1000
0001
0000
0000
0100
0000
,
0010
0100
0010
0100
,
0200
0000
1000
1300
,
0010
0000
0100
0000
0001
0010
0100
1000
,
0001
0010
0001
0100
,
0010
0000
1000
1000
,
0010
0001
0100
1000
,
0100
1000
0001
0001
,
0100
0000
0000
1000
0000
0000
0001
0000
,
0010
0000
0010
1000
,
0001
0000
0110
0010
,
2000
3002
1003
1001
,
0001
0000
0010
0000
0001
0000
0100
1000
,
0010
0000
0000
0000
1000
0000
1000
0001
,
0010
0000
0001
0000
0100
0000
1000
0001
,
0100
0010
1000
0000
0001
0000
0001
0000
,
1000
0000
0001
0000
,
0001
0000
1000
0000
,
1000
0000
0001
1000
,
0010
0000
0001
0000
1000
0001
1000
0001
,
0200
0000
0300
0010
,
0020
1000
0030
0100
,
0210
0001
0300
0010
,
0020
0000
0030
0000
,
0100
0001
0100
1000
,
0001
0010
1000
0010
,
0100
0001
1000
0001
,
0010
1000
0001
0000
,
2000
0000
0010
3010
,
0102
0000
1000
1003
,
0200
0000
0010
0300
,
2100
0100
0001
3001
,
0100
0000
0010
1000
0001
0000
0100
0000
,
0001
1000
0001
0100
,
0001
0010
0100
0000
0100
0000
0001
0000
,
0100
0110
0100
1001
,
0002
0000
0100
0103
,
2010
0000
0001
3001
,
0020
0000
0100
0030
,
0012
0010
1000
1003
,
0010
0000
0001
1000
,
0001
0010
1000
0010
,
1000
0100
0010
0001
,
0010
0000
0100
0000
1000
0010
0100
0001
,
0010
0000
0000
0000
;

//---------------dance-single - ----------------
#NOTES:
     dance-single:
     :
     Hard:
     6:
     :
0000
0000
0000
0000
,
0000
0000
0000
0000
,
0000
0000
0000
0000
,
0000
0000
0000
0000
,
0000
0000
0000
0000
,
0000
0000
0000
0000
,
0000
0000
0000
0000
,
0000
0000
0000
0000
,
0000
0000
0000
0000
,
1000
0000
0100
0010
0000
0010
0100
1000
,
0001
0000
1000
0010
0000
0100
0001
0000
,
1000
0000
0100
0001
0000
0001
0100
1000
,
0010
0100
0001
1000
,
0001
0000
0010
1000
0000
1000
0010
0001
,
0100
0010
1000
0001
,
0020
0000
0100
0130
,
0001
0001
0010
0010
0100
0100
1000
1000
,
0001
0000
1000
0100
0000
0000
0100
0000
,
0010
0000
0000
0100
0000
0000
1010
0000
,
0100
0000
0000
0001
0000
0010
1000
0100
,
0010
0000
0010
0110
,
0001
0000
1000
0010
0000
0010
0100
0000
,
0001
1000
0100
0010
,
0001
1001
0100
0001
,
1000
0001
1000
0001
1000
0001
1000
0001
,
1000
0000
0001
0100
0001
0000
0100
0001
,
0010
0000
0001
0100
0010
0000
1010
0000
,
0100
0000
1000
0001
0000
0010
1000
0100
,
0010
1000
0010
1001
,
0001
0000
1000
0010
0100
0010
0100
0000
,
0001
1100
0100
0011
,
0001
0000
1000
0001
,
1000
0100
0010
0001
0010
0100
1000
0100
,
0020
0001
0031
0100
,
0200
0010
0310
1000
,
0020
0000
1000
0000
1030
0000
0001
1000
,
0200
0000
0300
0000
,
0100
0000
0001
0000
0000
0100
1100
0000
,
0100
1000
0010
0101
,
0010
0000
0001
1000
0001
1000
0001
0000
,
0100
0000
1000
0001
1000
0000
0000
0000
,
2000
0000
3001
0011
,
0020
1000
0100
1030
,
0002
0000
1000
1003
,
0210
0001
0010
0310
,
0010
0000
0100
0001
0010
0000
0100
1000
,
0001
0000
0010
0001
0000
1000
1000
0000
,
0010
1000
0100
0000
1000
0000
0010
0000
,
0100
0011
1010
1001
,
0002
0000
1003
1100
,
0200
0001
0010
0301
,
2000
0000
0001
3001
,
0120
0000
1000
0000
0100
0100
0130
0000
,
1000
0001
0100
0010
,
1000
0100
0001
0010
,
1000
0100
1000
0000
0001
0100
0001
0000
,
1000
0100
1000
0100
0010
0100
0010
0001
,
0100
0000
0000
0000
;
