#TITLE:Purple Line;
#ARTIST:東方神起;
#ARTISTTRANSLIT:Tohoshinki;
#BANNER:Purple Line.png;
#BACKGROUND:Purple Line-bg.png;
#CDTITLE:./CDTITLES/DanceDanceRevolution Full-Full Party.png;
#MUSIC:Purple Line.ogg;
#SAMPLESTART:23.13;
#SAMPLELENGTH:15;
#BPMS:0=101;

//---------------dance-single - ----------------
#NOTES:
     dance-single:
     :
     Beginner:
     1:
     :
0000
0000
0000
0000
,
0000
0000
0000
0000
,
0000
0000
0000
0000
,
0000
0000
0000
0000
,
0000
0000
0000
0000
,
0000
0000
0000
0000
,
1000
0000
0000
0000
,
0001
0000
0000
0000
,
0100
0000
0100
0000
,
0001
0000
1000
0000
,
1001
0000
0010
0000
,
0100
0000
0010
0000
,
1001
0000
0000
0000
,
0010
0010
0010
0000
,
1001
0000
0001
0000
,
1000
0000
0001
0000
,
1001
0000
0000
0000
,
0100
0100
0100
0000
,
1001
0000
0000
0000
,
1000
0000
0000
0000
,
0001
0000
1000
0000
,
0001
0000
1000
0000
,
1000
0000
0100
0000
,
0001
0000
0000
0000
,
0001
0000
0010
0000
,
1000
0000
0100
0000
,
1001
0000
0000
0000
,
0000
0000
0010
0010
,
0010
0000
0001
0001
,
0000
0000
1000
1000
,
0000
0000
1000
0000
,
0100
0000
0100
0000
,
0000
0000
0001
0000
,
1000
0000
0001
0000
,
0000
0000
0010
0010
,
0000
0000
0100
0100
,
0000
0000
0001
0001
,
0000
0110
0000
0000
,
1001
0000
0100
0000
,
0010
0000
0100
0000
,
1001
0000
0000
0000
,
0100
0100
0100
0000
,
1001
0000
1000
0000
,
0001
0000
1000
0000
,
1001
0000
0000
0000
,
0010
0010
0010
0000
,
1001
0000
0000
0000
;

//---------------dance-single - ----------------
#NOTES:
     dance-single:
     :
     Easy:
     3:
     :
0000
0000
0000
0000
,
0000
0000
0000
0000
,
0000
0000
0000
0000
,
0000
0000
0000
0000
,
0000
0000
0000
0000
,
0000
0000
0000
0000
,
1000
0110
0000
0000
,
0001
0000
0100
0000
,
1000
0000
0100
0100
,
0001
0000
0110
0000
,
1001
0000
0100
0010
,
0110
0000
1000
0001
,
1001
0000
0100
0100
,
0010
0110
0110
0000
,
1001
0000
1000
0001
,
0110
0000
0100
0010
,
1001
0000
1000
0000
,
0100
0110
0110
0000
,
1001
0000
0000
0000
,
1000
0000
0000
0000
,
0001
0000
0010
0000
,
1000
0000
0010
0000
,
1001
0000
0100
0000
,
0001
0000
0000
0000
,
0001
0010
0100
0000
,
1000
0010
0100
0000
,
1001
0000
0000
0000
,
1000
0001
1000
0001
,
1000
0000
0100
1000
,
0001
0000
0100
0001
,
1000
0000
0100
0000
,
1000
0100
0100
0000
,
0001
0000
0010
0000
,
0001
0010
0010
0000
,
1000
1001
1000
0000
,
0001
1001
0001
0000
,
0001
1000
0110
1001
,
0001
0110
1000
1001
,
1001
0000
0010
0100
,
0110
0000
0001
1000
,
1001
0000
0010
0010
,
0100
0110
0110
0000
,
1001
0000
0001
1000
,
0110
0000
0010
0100
,
1001
0000
0001
0000
,
1000
0100
0001
0100
,
1001
0000
0000
0000
;

//---------------dance-single - ----------------
#NOTES:
     dance-single:
     :
     Medium:
     5:
     :
0000
0000
0000
0000
,
0000
0000
0000
0000
,
0000
0000
0000
0000
,
0000
0000
0000
0000
,
0000
0000
0000
0000
,
0000
0000
0000
0000
,
1000
1010
0001
1000
,
1000
0010
0100
0001
,
0001
1000
0100
0100
,
1000
0000
0010
0000
0101
0101
0010
0000
,
1010
0000
0100
0000
1010
0100
0001
0000
,
0101
0100
0010
0000
1000
0001
1000
0000
,
1001
0000
0100
0110
,
1000
1010
0101
0010
,
1010
0000
1000
0000
1010
0100
0001
0000
,
0101
0010
1000
0000
1000
0001
1000
0000
,
1002
0000
1003
0000
,
0001
0110
0110
1000
,
1001
0010
1000
0011
,
1010
0010
0001
0101
,
0001
0010
1000
0010
,
0001
0100
0010
1001
,
0001
0011
0100
0100
,
1000
1100
0010
0001
,
0001
0000
0010
0010
0100
0000
1000
0000
,
0010
0000
0100
0100
0001
0000
0110
0000
,
1001
0000
0000
0010
1001
0000
0000
0010
,
1001
0001
0010
1000
,
1000
0000
0000
0000
0100
0010
0100
0000
,
1000
0010
1000
0000
0001
0000
0001
0000
,
1000
0000
0010
0000
1000
0010
0001
0000
,
1000
0000
0010
0000
1000
1000
0010
0000
,
0001
0000
0010
0000
0001
0010
1000
0000
,
0001
0000
0010
0000
0001
0001
0010
0000
,
1000
1010
1000
0000
,
0001
0011
0001
0000
,
0001
1000
1010
0101
,
0001
0001
0110
0000
1000
1000
1001
0000
,
0101
0000
0010
0000
0101
0010
1000
0000
,
1010
0010
0100
0000
0001
1000
0001
0000
,
1001
0000
0010
0110
,
0001
0101
1010
0100
,
0101
0000
0001
0000
0101
0010
1000
0000
,
1010
0100
0001
0000
0001
1000
0001
0000
,
2001
0000
3001
0000
,
1000
0110
0110
0001
,
2002
3003
0000
0000
;

//---------------dance-single - ----------------
#NOTES:
     dance-single:
     :
     Hard:
     7:
     :
0000
0000
0000
0000
,
0000
0000
0000
0000
,
0000
0000
0000
0000
,
0000
0000
0000
0000
,
0000
0000
0000
0000
,
0000
0000
0000
0000
,
1000
0000
1100
0000
0001
1000
0100
0000
,
1000
0000
0100
0010
0000
0010
0001
0000
,
0001
0000
1000
0000
0010
0100
0010
0000
,
1000
1000
0100
0100
0011
0011
0100
0100
,
1100
1000
0010
1100
0100
0010
0011
0000
,
0011
0010
0100
1000
0001
1000
0001
0110
,
1001
0000
0000
0000
0010
0100
0110
0000
,
1000
1100
1001
0000
0011
0010
0100
1000
,
1100
0000
1000
1100
0100
0010
0011
0000
,
0011
0000
0100
1000
0001
1000
0001
0110
,
1002
1000
1003
0000
,
0001
0010
0110
0000
0110
0100
1000
0001
,
1001
0000
0100
0000
1000
0100
0101
0000
,
1100
0000
0100
0000
0001
0100
0011
0000
,
0001
0100
0001
0000
1000
0100
1000
0000
,
0001
0100
0010
1000
0001
1000
1001
0000
,
0001
0000
0101
0000
0010
1000
0010
0000
,
1000
0010
1010
0000
0100
0001
0001
0000
,
0001
0100
0100
0010
1000
1000
0010
0100
,
0100
0001
0100
0001
0001
0000
0110
0000
,
1001
0000
0000
0100
1001
0000
0000
0100
,
1001
1000
0001
0010
0100
0001
1000
0010
,
1000
0000
0000
1000
0000
0000
1000
0000
0010
0000
0100
0000
0010
0000
0000
0000
,
1000
0000
0100
0000
1000
0000
0000
0001
0000
0000
0001
0000
0001
0000
0000
0000
,
1000
0000
0100
0000
1000
0100
0001
0000
,
1000
0100
1000
0001
1000
1000
0100
0100
,
0001
0000
0100
0100
0001
0100
1000
0000
,
0001
0001
0100
1000
0001
0001
0100
0100
,
1000
0000
1100
0000
1000
0100
0001
0000
,
0001
0000
0101
0000
0001
0100
1000
0110
,
0001
0000
1000
0000
1100
0100
0011
0000
,
0001
0011
0100
0110
1000
1000
1001
0000
,
0011
0001
0100
0011
0010
0100
1100
0000
,
1100
0100
0010
0001
1000
0001
1000
0110
,
1001
0000
0000
0000
0100
0010
0110
0000
,
0001
0011
1001
0000
1100
0100
0010
0001
,
0011
0000
0001
0011
0010
0100
1100
0000
,
1100
0000
0010
0001
1000
0001
1000
0110
,
2001
0001
3001
0000
,
1000
0100
0110
0000
0110
0010
0001
1000
,
2002
3003
0000
0000
;
