#TITLE:Our Song;
#ARTIST:Shinichi Osawa;
#BANNER:Our Song.png;
#BACKGROUND:Our Song-bg.png;
#CDTITLE:./CDTITLES/DanceDanceRevolution Full-Full Party.png;
#MUSIC:Our Song.ogg;
#SAMPLESTART:29.972;
#SAMPLELENGTH:15;
#DISPLAYBPM:136;
#BPMS:0=135.93;

//---------------dance-single - ----------------
#NOTES:
     dance-single:
     :
     Beginner:
     1:
     :
0000
0000
0000
0000
,
0000
0000
0000
0000
,
0000
0000
0000
0000
,
0000
0000
0000
0000
,
0000
0000
0000
0000
,
0000
0000
0000
0000
,
0000
0000
0000
0000
,
0000
0000
0000
0000
,
0000
0000
0000
0000
,
1000
0000
0000
0000
,
0001
0000
0000
0000
,
1000
1000
1000
0000
,
0100
0100
0100
0000
,
1000
0000
0000
0000
,
0001
0000
0000
0000
,
0010
0010
0010
0000
,
0000
0000
0000
0000
,
1000
0000
0100
0000
,
1000
0000
0000
0000
,
0001
0000
1000
0000
,
0100
0000
0100
0000
,
1000
0000
0010
0000
,
0100
0000
0000
0000
,
0001
0000
0000
0100
,
0000
0000
1000
0000
,
0001
0000
0000
0000
,
0010
0000
0000
0000
,
0100
0000
0000
0000
,
1000
0000
0000
0000
,
1000
0000
0000
0000
,
0100
0000
0000
0000
,
0010
0000
0000
0000
,
0001
0000
0000
0000
,
0100
0000
0000
0000
,
0010
0000
0000
0000
,
0001
0000
0000
0000
,
1001
0000
1001
0000
,
0001
0000
0010
0000
,
0001
0000
0000
0000
,
1000
0000
0001
0000
,
0010
0000
0010
0000
,
0001
0000
0100
0000
,
0010
0000
0000
0000
,
1001
0000
0000
0000
,
1001
0000
0000
0000
,
1000
0000
0010
0000
,
1000
0000
0000
0000
,
0001
0000
1000
0000
,
0010
0000
0010
0000
,
1000
0000
0100
0000
,
0010
0000
0000
0000
,
1000
0000
0010
0000
,
0000
0000
0001
0000
,
0001
0000
0000
0100
,
0000
0000
1000
0000
,
0001
0000
0000
0010
,
0000
0000
1000
0000
,
0100
0000
0000
0000
;

//---------------dance-single - ----------------
#NOTES:
     dance-single:
     :
     Easy:
     4:
     :
0000
0000
0000
0000
,
0000
0000
0000
0000
,
0000
0000
0000
0000
,
0000
0000
0000
0000
,
0000
0000
0000
0000
,
0000
0000
0000
0000
,
0000
0000
0000
0000
,
0000
0000
0000
0000
,
0000
0000
0000
0000
,
1000
0100
0000
1000
,
0001
0000
0100
0001
,
0010
0010
0010
0010
,
0100
0100
0100
0100
,
1000
0100
0000
1000
,
0001
0000
0100
0001
,
0010
0010
0010
0010
,
0000
0000
0000
0000
,
0001
1000
0100
0000
,
1000
0000
0100
0000
,
0100
1000
0100
0000
,
0010
0000
0001
0000
,
1000
1000
0001
0001
,
0100
0100
0001
0000
,
0100
0000
0000
0010
0000
0000
1000
0000
,
0000
0010
0000
0000
0100
0000
0000
0000
,
0001
0000
0010
0000
,
1000
0000
0100
0000
,
0001
0000
1000
0000
,
0010
0000
0100
0000
,
0001
0001
0010
0000
,
1000
0000
0100
0100
,
0001
0000
1000
1000
,
0010
0010
0100
0000
,
1000
0000
0010
0000
,
0001
0000
0010
0000
,
1001
0000
0000
0000
,
0110
0000
1001
0000
,
1000
0001
0100
0000
,
0001
0000
0100
0000
,
0100
0001
0100
0000
,
0010
0000
1000
0000
,
0001
0001
1000
1000
,
0100
0100
1000
0000
,
0100
0000
0000
0010
0000
0000
0001
0000
,
1000
0000
0001
1001
,
1000
0000
0010
0000
,
0001
0000
0010
0000
,
0010
0000
0010
0000
,
0100
0000
1000
0000
,
0001
0001
1000
1000
,
0010
0010
1000
1000
,
0100
0000
0000
0010
0000
0000
0001
0000
,
0000
0010
0000
0000
0100
0000
0000
0000
,
0010
0000
0000
0100
0000
0000
1000
0000
,
0000
0010
0000
0000
0100
0000
0000
0000
,
0010
0000
0000
0100
0000
0000
0001
0000
,
0000
0010
0000
0000
0100
0000
0000
0000
,
1000
0000
0000
0000
;

//---------------dance-single - ----------------
#NOTES:
     dance-single:
     :
     Medium:
     6:
     :
0000
0000
0000
0000
,
0000
0000
0000
0000
,
0000
0000
0000
0000
,
0000
0000
0000
0000
,
0000
0000
0000
0000
,
0000
0000
0000
0000
,
0000
0000
0000
0000
,
0000
0000
0000
0000
,
0000
0000
0000
0000
,
1000
0000
0010
1000
0000
0100
0000
0010
,
0100
0000
0001
0100
0000
1000
0000
0001
,
0010
0010
0010
0010
,
0001
0001
0001
0001
,
0001
0000
0100
0001
0000
0010
0000
0100
,
0010
0000
1000
0010
0000
0001
0000
1000
,
0100
0100
0100
0100
,
1000
0110
1001
0110
,
0001
0100
0100
0010
,
1000
0100
1000
0000
0100
0000
0010
0000
,
0001
1000
0010
0100
,
0001
0000
0001
0000
1000
0001
0100
0000
,
1000
0100
1000
0000
0100
1000
0100
0000
,
0010
0001
0010
0000
0001
1000
0100
0000
,
0001
0000
0000
0011
0000
0000
0100
0000
,
0000
1010
0000
0000
1001
0000
0001
1000
,
0001
0010
0100
1000
,
0001
0010
0010
1000
,
0001
0100
0100
0001
,
0001
0010
0100
0010
,
1000
0100
0010
0001
,
1000
0100
0100
0001
,
1000
0010
0010
1000
,
1000
0100
0010
0100
,
1000
0100
0001
0010
,
0001
0010
1000
0010
,
0001
1000
0001
0000
0010
0100
0010
0000
,
1000
0001
1000
0000
0001
0000
1001
0000
,
1000
0010
0010
0100
,
0001
0010
0001
0000
0010
0000
0100
0000
,
1000
0001
0100
0010
,
1000
0000
1000
0000
0001
1000
0010
0000
,
0001
0010
0001
0000
0010
0001
0010
0000
,
0100
1000
0100
0000
1000
0001
0010
0000
,
1000
0000
0000
1100
0000
0000
0010
0000
,
0101
0000
0000
0000
1001
0000
1000
0001
,
1000
0100
0100
0010
,
0001
0001
0100
0010
,
1000
0001
0010
0100
,
1000
1000
0001
0100
,
0001
0000
0001
0000
0100
0001
0100
0000
,
0010
1000
0010
0000
1000
0000
0100
0000
,
1000
0000
0000
1010
0000
0000
0100
0000
,
0000
0011
0000
0000
1001
0000
1000
0001
,
1000
0000
0000
0011
0000
0000
1000
0000
,
0000
0101
0000
0000
0110
0000
0010
0100
,
0001
0000
0000
1100
0000
0000
0001
0000
,
0000
1010
0000
0000
0110
0000
1000
0001
,
1000
0000
0000
0000
;

//---------------dance-single - ----------------
#NOTES:
     dance-single:
     :
     Hard:
     7:
     :
0000
0000
0000
0000
,
0000
0000
0000
0000
,
0000
0000
0000
0000
,
0000
0000
0000
0000
,
0000
0000
0000
0000
,
0000
0000
0000
0000
,
0000
0000
0000
0000
,
0000
0000
0000
0000
,
0000
0000
0000
0000
,
0001
1000
0010
0100
0000
0100
0010
0100
,
1000
0100
0001
0010
0000
0001
0010
0100
,
0010
0000
0010
0000
0010
0000
0010
0001
,
1000
1000
1000
1000
,
0001
1000
0100
0010
0000
0010
0100
0010
,
1000
0010
0001
0100
0000
0001
0100
0010
,
0100
0000
0100
0000
0100
0000
0100
0001
,
0100
1000
0110
0001
0110
1000
1001
0000
,
0001
0000
0000
0000
1000
0010
0000
0000
1000
0000
0000
0000
0100
0000
0000
0000
,
0010
0001
0000
0000
0010
0100
0000
0000
1000
0000
0000
0000
0010
0000
0000
0000
,
0001
0000
0000
0000
0100
0000
0000
0000
0001
1000
0000
0000
0010
0000
0000
0000
,
0100
0001
0000
0000
0100
0010
0000
0000
1000
0000
0000
0000
0001
0000
0000
0000
,
0010
0001
0000
0000
0010
0001
0000
0000
1000
0100
0000
0000
1000
0100
0000
0000
,
0010
0001
0000
0000
1000
0100
0000
0000
1000
0100
0000
0000
0010
0001
0000
0000
,
0101
0000
1000
1100
0000
0100
0110
0000
,
0010
0011
0000
0100
1001
0000
0001
1000
,
0001
0010
0100
0010
,
0001
0010
0100
1000
,
1000
0010
0010
0100
,
0001
0100
0100
1000
,
0001
0000
0010
1000
0100
0000
0010
0100
,
0001
0000
0010
0001
0100
0000
1000
0100
,
1000
0000
0010
0001
0010
0000
0100
0010
,
0001
0000
0100
0010
0100
0000
1000
0100
,
0010
0100
0100
0010
,
1000
0001
0001
0010
,
0001
1000
0001
1000
0010
0100
0010
0100
,
0001
1000
0010
0100
0001
1000
0110
0000
,
1000
0000
0000
0000
0001
0100
0000
0000
0001
0000
0000
0000
0010
0000
0000
0000
,
0100
1000
0000
0000
0100
0010
0000
0000
0001
0000
0000
0000
0100
0000
0000
0000
,
1000
0000
0000
0000
0010
0000
0000
0000
1000
0001
0000
0000
0100
0000
0000
0000
,
0010
1000
0000
0000
0010
0100
0000
0000
0001
0000
0000
0000
1000
0000
0000
0000
,
0100
1000
0000
0000
1000
0100
0000
0000
0010
0001
0000
0000
0001
0010
0000
0000
,
0100
1000
0000
0000
1000
0010
0000
0000
0001
0010
0000
0000
0100
1000
0000
0000
,
1010
0000
0001
0011
0000
0010
0110
0000
,
0001
1000
0100
0000
1001
0010
1001
0000
,
0001
0000
1000
0100
1000
0000
0010
0000
,
0100
0001
0100
0010
1000
0000
0100
0000
,
0001
0000
0010
0000
0001
1000
0100
0000
,
0010
0001
0010
0100
1000
0000
0001
0000
,
0100
0001
0100
0001
1000
0010
1000
0010
,
0100
0001
1000
0010
1000
0010
0100
0001
,
0011
0000
1000
1010
0000
0010
0110
0000
,
0100
0101
0000
0010
1001
0000
0001
1000
,
0101
0000
0010
0011
0000
0001
1001
0000
,
1000
1100
0000
0001
0110
0000
0100
0010
,
1100
0000
0010
1010
0000
1000
1001
0000
,
0001
0101
0000
1000
0110
0000
0100
0010
,
0100
0000
0000
0000
;
