#TITLE:Keep on movin';
#ARTIST:NM;
#BANNER:Keep on movin'.png;
#BACKGROUND:Keep on movin'-bg.png;
#CDTITLE:./CDTITLES/DanceDanceRevolution Full-Full Party.png;
#MUSIC:Keep on movin'.ogg;
#SAMPLESTART:30.85;
#SAMPLELENGTH:15;
#BPMS:0=132;

//---------------dance-single - ----------------
#NOTES:
     dance-single:
     :
     Beginner:
     3:
     :
0000
0000
0000
0000
,
0000
0000
0000
0000
,
0000
0000
0000
0000
,
0000
0000
0000
0000
,
0000
0000
0000
0000
,
1000
1000
0000
0000
,
0001
0000
0001
0000
,
0001
0001
0000
0000
,
0010
0000
1000
1000
,
1000
0000
0000
0000
,
0001
0001
0001
0000
,
0010
0000
0100
0000
,
0010
0000
0001
0000
,
0001
0000
0000
0000
,
1000
1000
1000
0000
,
0100
0000
0010
0000
,
0100
0000
1000
0000
,
0001
0000
0001
0000
,
1000
0000
1000
0000
,
0100
0000
0010
0000
,
1000
0000
0001
0000
,
0001
0001
0001
0000
,
1000
1000
1000
0000
,
0010
0000
0100
0000
,
0001
0000
1000
0000
,
0000
1000
0000
0001
,
0000
0100
0100
0100
,
0100
0000
0010
0000
,
0001
0001
0001
0001
,
0000
0001
0000
1000
,
0000
0010
0010
0010
,
0010
0000
0100
0000
,
1000
1000
1000
1000
,
0000
0000
0000
0000
,
0000
0010
0010
0010
,
0000
0000
0000
0000
,
0000
0100
0100
0100
,
0000
0001
0001
0001
,
0001
0000
0010
0000
,
0100
0000
1000
1000
,
0000
0001
0000
1001
,
0001
0000
0001
0000
,
1000
0000
1000
0000
,
0100
0000
0010
0000
,
1000
0000
0001
0000
,
0001
0001
0001
0000
,
1000
1000
1000
0000
,
0010
0000
0100
0000
,
0001
0000
1000
0000
,
1001
0000
0000
0000
;

//---------------dance-single - ----------------
#NOTES:
     dance-single:
     :
     Easy:
     5:
     :
0000
0000
0000
0000
,
0000
0000
0000
0000
,
0000
0000
0000
0000
,
0000
0000
0000
0000
,
0000
0000
0000
0000
,
0002
0000
1000
1003
,
0020
0000
0100
0130
,
0200
0000
0001
0301
,
0000
0001
0000
0100
,
1001
0000
0010
0010
,
0100
1000
1000
1000
,
0010
1000
0001
0100
,
0100
0001
0001
0001
,
1001
0000
0100
0100
,
0010
0001
0001
0001
,
0100
0001
1000
0010
,
0010
1000
1000
1000
,
0020
1000
1000
0130
,
2000
0001
0001
3010
,
0100
0010
1001
1001
,
0010
1000
0001
0100
,
0200
0001
0001
0310
,
0002
1000
1000
0103
,
0010
1001
0010
1001
,
0100
0001
1000
0110
,
0100
0200
0000
0320
,
0000
1030
0100
1000
,
0100
0001
1000
0100
,
2000
0000
0000
3010
,
0010
0020
0000
0230
,
0000
0301
0010
0001
,
0010
1000
0001
0010
,
0002
0000
0000
0103
,
0200
0000
0000
0301
,
0002
0000
0000
0013
,
0020
0000
0100
0130
,
0200
0000
0001
0301
,
0010
1001
0010
0110
,
0000
0020
2030
3002
,
0203
0010
0001
0310
,
0100
0010
1000
1001
,
0020
1000
1000
0130
,
2000
0001
0001
3010
,
0100
0010
1001
1001
,
0010
1000
0001
0100
,
0200
0001
0001
0310
,
0002
1000
1000
0103
,
0010
1001
0010
1001
,
0100
0001
1000
0110
,
2000
0000
3000
0000
;

//---------------dance-single - ----------------
#NOTES:
     dance-single:
     :
     Medium:
     7:
     :
0000
0000
0000
0000
,
0000
0000
0000
0000
,
0000
0000
0000
0000
,
0000
0000
0000
0000
,
0000
0000
0000
0000
,
1000
0002
0000
0000
0000
0000
0003
0000
,
0100
0010
2000
3000
,
0001
0000
1000
0000
0100
0010
0100
0000
,
1000
0000
0010
0100
0010
0000
1000
0000
,
1100
0000
0010
0001
0200
0020
0300
0030
,
0100
0001
1000
0001
1000
0010
1000
0000
,
2001
0000
0000
3000
0010
1000
0010
1000
,
0002
0000
1000
0000
0003
1000
0001
0000
,
0011
0000
0100
1000
0020
0200
0030
0300
,
0010
1000
0001
1000
0001
0100
0001
0000
,
1002
0000
0000
0003
0100
0001
0100
0001
,
2000
0000
0001
0000
3000
0001
1000
0000
,
0002
0023
0230
1300
,
0010
1000
0001
0000
0010
1000
0100
0000
,
0200
0301
0020
1030
,
0002
0100
1003
1100
,
2000
3200
0320
0031
,
0100
0001
1000
0000
0100
0001
0010
0000
,
0020
1030
0200
0301
,
2000
0010
3001
0011
,
0100
1000
0100
0000
0001
0000
1100
0000
,
0001
0100
0010
1000
0001
0000
1100
0000
,
0002
2003
3020
0230
,
0302
0000
0000
0003
0000
0001
0010
0100
,
0010
0001
0010
0000
1000
0000
0011
0000
,
1000
0010
0100
0001
1000
0000
0011
0000
,
2000
3002
0203
0320
,
2030
0000
0000
3000
0000
1000
0100
0010
,
0200
0000
0000
0300
,
1000
0010
1000
0010
,
0020
0130
0110
1001
,
1000
0001
0010
0100
1000
0001
0100
0000
,
0002
0000
0000
1003
,
2000
3020
0230
0302
,
0023
0000
0000
1030
,
0001
0010
0001
1000
0010
0000
1001
0000
,
0002
0023
0230
1300
,
0010
1000
0001
0000
0010
0100
0010
0000
,
0200
0301
0020
1030
,
0002
0100
1003
1100
,
2000
3200
0320
0031
,
0100
0001
1000
0000
0100
0010
0100
0000
,
0020
1030
0200
0301
,
2000
0010
3001
0011
,
0002
0000
0003
0000
;

//---------------dance-single - ----------------
#NOTES:
     dance-single:
     :
     Hard:
     10:
     :
0000
0000
0000
0000
,
0000
0000
0000
0000
,
0000
0000
0000
0000
,
0000
0000
0000
0000
,
0000
0000
0000
0000
,
0100
2000
0001
0000
0001
3010
0100
1000
,
0000
0010
0100
0002
0000
1000
0103
0100
,
0011
0000
1100
0000
0010
0000
0100
0100
,
1010
0000
0100
0100
0001
0000
1000
1000
,
0010
0011
1000
1100
0020
0230
0001
0300
,
0010
0001
1000
0001
0000
0001
0100
1000
,
0100
0002
0000
0103
1000
0001
0100
0100
,
2000
0000
0000
0010
3001
0001
1000
0010
,
0100
1100
0001
0011
0200
0320
1000
0030
,
0100
1000
0001
1000
0000
1000
0010
0001
,
0010
2000
0000
3010
0001
1000
0010
0010
,
0002
0000
0000
0100
1003
1000
0001
0010
,
2000
3010
0200
0301
0020
1030
0001
0001
,
1000
0100
0000
0001
0100
0010
0100
0000
,
1000
0020
0000
0130
1000
0002
0103
0020
,
2030
0100
0001
0100
3001
1000
0011
0000
,
0002
0103
0020
1030
0200
0301
1000
1000
,
0001
0010
0000
1000
0010
0100
0010
0000
,
0001
0200
0000
0310
0001
2000
0000
3100
,
0002
0100
0103
1100
,
0010
0010
1001
0000
0100
0100
0011
0000
,
1000
0010
1000
1000
0011
0011
1100
0000
,
2000
3200
2300
3002
0203
0320
2030
0000
,
0100
0000
0100
3000
0000
0001
0101
0000
,
0100
0100
1001
0000
0010
0010
1100
0000
,
0001
0100
0001
0001
1100
1100
0011
0000
,
0002
0023
0032
2003
3020
0230
0302
0000
,
0010
0000
0010
0003
0000
1000
1100
0000
,
0120
1000
0001
1030
,
0001
0100
0010
1000
,
0201
0000
0310
0000
1100
0010
0011
0000
,
0100
1000
0100
0010
1000
0100
0010
0001
,
2000
0000
0100
0000
0010
0010
3010
0000
,
0002
0000
0200
0003
0320
2030
3002
0203
,
0000
0000
0000
0010
0000
0010
0300
0000
,
1000
1000
1000
0100
0001
0001
0001
0000
,
2000
3010
0200
0301
0020
1030
0001
0001
,
1000
0100
0000
0001
0100
0010
0100
0000
,
1000
0020
0000
0130
1000
0002
0103
0020
,
2030
0100
0001
0100
3001
1000
0011
0000
,
0002
0103
0020
1030
0200
0301
1000
1000
,
0001
0010
0000
1000
0010
0100
0010
0000
,
0001
0200
0000
0310
0001
2000
0000
3100
,
0001
0001
1000
1000
0010
0010
0001
0001
,
2200
0000
3300
0000
;

//---------------dance-single - ----------------
#NOTES:
     dance-single:
     :
     Challenge:
     10:
     :
0000
0000
0000
0000
,
0000
0000
0000
0000
,
0000
0000
0000
0000
,
0000
0000
0000
0000
,
0000
0000
0000
0000
,
0100
2000
0001
0000
0001
3010
0100
1000
,
MMMM
0010
0100
0002
0000
1000
0103
0100
,
0011
0000
MMMM
0000
0010
0000
0100
0100
,
1010
0000
0100
0100
0001
0000
1000
1000
,
0010
0011
1000
1100
0020
0230
0001
0300
,
0010
0001
1000
0001
MMMM
0001
0100
1000
,
0100
0002
0000
0103
1000
0001
0100
0100
,
2000
0000
0000
0010
3001
0001
MMMM
0010
,
0100
1100
0001
0011
0200
0320
1000
0030
,
0100
1000
0001
1000
MMMM
1000
0010
0001
,
0010
2000
0000
3010
0001
1000
0010
0010
,
0002
0000
0000
0100
1003
1000
0001
0010
,
2000
3010
0200
0301
0020
1030
0001
0001
,
1000
0100
0000
0001
0100
0010
MMMM
0000
,
1000
0020
0000
0130
1000
0002
0103
0020
,
2030
0100
0001
0100
3001
1000
MMMM
0000
,
0002
0103
0020
1030
0200
0301
1000
1000
,
0001
0010
0000
1000
0010
0100
MMMM
0000
,
0001
0200
0000
0310
0001
2000
0000
3100
,
0002
0100
0103
1100
,
0010
0010
MMMM
0000
0100
0100
MMMM
0000
,
1000
0010
1000
1000
0011
0011
1100
0000
,
2000
3200
2300
3002
0203
0320
2030
0000
,
0100
0000
0100
3000
0000
0001
MMMM
0000
,
0100
0100
MMMM
0000
0010
0010
MMMM
0000
,
0001
0100
0001
0001
1100
1100
0011
0000
,
0002
0023
0032
2003
3020
0230
0302
0000
,
0010
0000
0010
0003
0000
1000
MMMM
0000
,
0120
1000
0001
1030
,
0001
MMMM
0010
MMMM
,
0201
0000
0310
0000
1100
0010
0011
0000
,
0100
1000
0100
0010
1000
0100
0010
0001
,
2000
0000
0100
0000
0010
0010
3010
0000
,
0002
0000
0200
0003
0320
2030
3002
0203
,
0000
0000
0000
0010
0000
0010
0300
0000
,
MMMM
1000
1000
0100
0001
0001
0001
0000
,
2000
3010
0200
0301
0020
1030
0001
0001
,
1000
0100
MMMM
0001
0100
0010
0100
0000
,
1000
0020
0000
0130
1000
0002
0103
0020
,
2030
0100
0001
0100
3001
1000
MMMM
0000
,
0002
0103
0020
1030
0200
0301
1000
1000
,
0001
0010
MMMM
1000
0010
0100
0010
0000
,
0001
0200
0000
0310
0001
2000
0000
3100
,
0001
0001
1000
1000
0010
0010
0001
0001
,
2200
0000
3300
0000
;

//---------------dance-double - ----------------
#NOTES:
     dance-double:
     :
     Easy:
     4:
     :
00000000
00000000
00000000
00000000
,
00000000
00000000
00000000
00000000
,
00000000
00000000
00000000
00000000
,
00000000
00000000
00000000
00000000
,
00000000
00000000
00000000
00000000
,
20000000
00000000
01000000
31000000
,
00020000
00030000
00200000
00300000
,
00002000
00003000
00000200
00000300
,
00000001
00000100
00000010
00001000
,
00000100
00000000
00010000
00001000
,
02000000
03100000
02000000
03100000
,
00000000
10000000
01000000
00010000
,
00001000
00010000
01000000
00000000
,
00100000
00000000
00001000
00010000
,
00000200
00000310
00000002
00000013
,
00000000
00000001
00000100
00000010
,
00010000
00001000
00000100
00000110
,
00000002
00001000
00002003
00000000
,
00003100
00000100
00010000
00010000
,
00002000
00000000
01003000
00100000
,
10000000
00010000
10000000
00000000
,
00200000
00010000
00320000
00000000
,
01030000
01000000
00001000
00010000
,
00020000
00000000
00030100
00001000
,
00000001
00001000
00001001
00000000
,
00000100
00000000
00000100
00000000
,
00000010
00010000
00002000
00003000
,
01000000
00000000
00100000
10000000
,
00010000
00100000
00002000
00003000
,
00010000
00000000
00010000
00000000
,
00000100
00000010
00000200
00000300
,
00010000
00000000
00001000
01000000
,
00001000
00010000
00002000
00003000
,
00000020
00000000
00000230
00000000
,
00020300
00000000
00032000
00000000
,
02003000
00000000
03200000
00000000
,
20300000
01000000
31000000
00000000
,
00200000
00000000
00302000
00000000
,
00023000
00030020
00000230
00000302
,
00002000
00000000
00000000
00003003
,
00000000
00000000
00000000
00000000
,
00000002
00001000
00002003
00000000
,
00003100
00000100
00010000
00010000
,
00002000
00000000
01003000
00100000
,
10000000
00010000
10000000
00000000
,
00200000
00010000
00320000
00000000
,
01030000
01000000
00001000
00010000
,
00020000
00000000
00030100
00001000
,
00000001
00001000
00001001
00000000
,
00000220
00000000
00000330
00000000
;

//---------------dance-double - ----------------
#NOTES:
     dance-double:
     :
     Medium:
     7:
     :
00000000
00000000
00000000
00000000
,
00000000
00000000
00000000
00000000
,
00000000
00000000
00000000
00000000
,
00000000
00000000
00000000
00000000
,
00000000
00000000
00000000
00000000
,
00000010
00000002
00000000
00000000
00000000
00000100
00000003
00000100
,
00002000
00000000
00010000
00000000
00010000
00003000
01000000
00000000
,
00200000
00000000
00000000
00000000
00001000
00300000
00010000
00000000
,
00000020
00000230
00002300
00103000
,
01000000
00100000
01000000
00000000
00020000
00000000
00001000
00000000
,
00030010
00000101
00000010
00000101
,
00001000
00000100
00001000
00000000
00020000
00000000
00001000
00000000
,
00030010
00000100
00000010
00000000
00010000
00000000
00000100
00000000
,
00000100
00000010
00001000
00000000
00002000
00000000
00010000
00000000
,
00103000
11000000
00010000
11000000
,
00010000
01000000
00010000
00000000
00002000
00000000
01000000
00000000
,
00103000
01000000
00100000
00000000
00001000
00000000
01010000
00000000
,
20000000
32000000
03020000
00031000
,
00000010
00000000
00000001
00000100
00000001
00000000
00001000
00000000
,
00000200
00010300
00200000
00310000
,
00000200
00000000
00000010
00001300
,
00000002
00000203
00002300
01003000
,
00100000
00000000
10000000
01000000
00100000
00000000
00010000
00000000
,
02000000
03001000
00000020
00010030
,
00002000
00000000
00100000
00013000
,
00000100
00000000
00000010
00000000
00000000
00001000
00010000
00000000
,
00001000
00000100
00001000
00000000
00010000
00000000
01010000
00000000
,
10000000
00000000
00100000
00010000
00001000
00000000
00010000
00001000
,
00000020
00000000
00000000
00000000
00000000
00000100
00000130
00000000
,
00001000
00000000
00000001
00000000
00000000
00000100
00001000
00000000
,
00010000
00001000
00010000
00000000
01000000
00000000
01100000
00000000
,
00010000
00000000
00000010
00000100
00001000
00000000
00000100
00001000
,
00020000
00000000
00000000
00000000
00000000
01000000
01030000
00000000
,
20000000
00000000
30100000
00010000
,
00002000
00000010
00003010
00001000
,
00020000
00000000
01030000
00010000
,
00002000
00010000
00013000
00000000
,
00000020
00000000
00001030
00000001
,
00020000
00000000
00032000
00000000
01003000
00100000
01000000
00100000
,
00000000
10000000
00000000
01000000
00000000
00010000
00000000
00001000
,
00000000
00000100
00000000
00000010
00000100
00000000
00001001
00000000
,
00000002
00000203
00002300
00013000
,
00100000
00000000
10000000
01000000
10000000
00000000
00010000
00000000
,
02000000
03001000
00000020
00001030
,
02000000
00000000
00100000
03010000
,
20000000
32000000
03020000
00030100
,
00000010
00000000
00000001
00000100
00000010
00000000
00001000
00000000
,
00000200
00010300
00200000
00301000
,
00020000
00000000
00000010
00031000
,
00022000
00000000
00033000
00000000
;

//---------------dance-double - ----------------
#NOTES:
     dance-double:
     :
     Hard:
     10:
     :
00000000
00000000
00000000
00000000
,
00000000
00000000
00000000
00000000
,
00000000
00000000
00000000
00000000
,
00000000
00000000
00000000
00000000
,
00000000
00000000
00000000
00000000
,
10000000
02000000
00000000
00000000
03010000
00001000
00000000
00001000
,
00020000
00000000
00030010
00000100
00000000
00000001
00000100
00000010
,
00002000
00000000
00000100
00000000
00003010
00010000
00001000
00010000
,
02000000
03020000
00032000
00003010
,
00000001
00000100
00000010
00000010
00002000
00000000
00003100
00010000
,
00012000
00000000
00003010
00001000
00021000
00000000
00130000
00010000
,
00002000
00000000
00000000
00003100
00000001
00000010
00001000
00010000
,
01000000
01000000
00100000
00110000
00000000
10000000
10010000
00000000
,
00001000
01000000
00100000
00100000
00020000
00000000
01030000
00001000
,
00021000
00000000
00130000
00010000
00012000
00000000
00003100
00001000
,
00020000
01000000
00000000
01030000
10000000
00100000
00010000
00001000
,
00000100
00000100
00000010
00000010
00000000
00000001
00001001
00000000
,
00000200
00010300
00002000
00103000
00002000
00013000
00000020
00000130
,
00000001
00001000
00000000
00001000
00000100
00010000
00001000
01000000
,
00200000
00000000
10300000
01000000
00200000
00001000
00301000
00010000
,
02000000
00000000
10000000
00000000
03100000
01000000
11000000
00000000
,
00200000
00301000
00020000
00030010
00020000
00031000
00200000
01300000
,
10000000
00010000
00000000
00010000
01000000
00001000
00010000
00001000
,
00000020
00000000
00000031
00000100
00000020
00000000
00010030
00001000
,
00000200
00000000
00000001
00000000
00000310
00000100
00000110
00000000
,
00000001
00001000
00001100
00000000
00000010
00000001
00000011
00000000
,
00000010
00001000
00000100
00010000
00001000
00100000
00110000
00000000
,
01000000
20000000
00000000
30100000
00020000
00001000
00000000
00031000
,
00000010
00000100
00010000
00001000
01000000
00100000
01100000
00000000
,
10000000
00010000
00110000
00000000
00001000
00010000
01100000
00000000
,
00100000
00010000
00001000
00000010
00000001
00000010
00000110
00000000
,
00000100
00020000
00000000
00030100
00002000
00000010
00000000
00003010
,
00000100
00000001
00001000
00000010
00010000
00001000
00011000
00000000
,
00100000
01000000
00000000
00100000
00000000
00010000
00001000
00020000
,
00000000
00001000
00000000
01000000
00000000
00031000
00010000
00000100
,
00000002
00001000
00000000
00000100
00000000
00001003
00010000
00100000
,
02000000
10000000
00000000
00010000
00000000
03100000
10000000
00100000
,
01000000
00020000
00000000
00001000
00000000
00100000
00000000
00031000
,
00000010
00000000
00001100
00000000
00000001
00000100
00001000
00020000
,
00000000
00000000
00000000
00100000
00000000
00100000
00000000
00130000
,
10000000
01000000
00010000
00001000
00000010
00000100
00000110
00000000
,
00000200
00010300
00002000
00103000
00002000
00013000
00000020
00000130
,
00000001
00001000
00000000
00001000
00000100
00010000
00001000
01000000
,
00200000
00000000
10300000
01000000
00200000
00001000
00301000
00010000
,
02000000
00000000
10000000
00000000
03100000
01000000
11000000
00000000
,
00200000
00301000
00020000
00030010
00020000
00031000
00200000
01300000
,
10000000
00010000
00000000
00010000
01000000
00001000
00010000
00001000
,
00000020
00000000
00000031
00000100
00000020
00000000
00010030
00001000
,
00000200
00000000
00000001
00000000
00000310
00000100
00000110
00000000
,
00002002
00000000
00003003
00000000
;

//---------------dance-double - ----------------
#NOTES:
     dance-double:
     :
     Challenge:
     10:
     :
00000000
00000000
00000000
00000000
,
00000000
00000000
00000000
00000000
,
00000000
00000000
00000000
00000000
,
00000000
00000000
00000000
00000000
,
00000000
00000000
00000000
00000000
,
10000000
02000000
00000000
00000000
03010000
00001000
MMMMMMMM
00001000
,
00020000
00000000
00030010
00000100
00000000
00000001
MMMMMMMM
00000010
,
00002000
00000000
00000100
00000000
00003010
00010000
MMMMMMMM
00010000
,
02000000
03020000
00032000
00003010
,
00000001
00000100
00000010
00000010
00002000
00000000
00003100
00010000
,
00012000
00000000
00003010
00001000
00021000
00000000
00130000
00010000
,
00002000
00000000
00000000
00003100
00000001
00000010
00001000
00010000
,
MMMMMMMM
01000000
00100000
00110000
MMMMMMMM
10000000
10010000
00000000
,
00001000
01000000
00100000
00100000
00020000
00000000
01030000
00001000
,
00021000
00000000
00130000
00010000
00012000
00000000
00003100
00001000
,
00020000
01000000
00000000
01030000
10000000
00100000
00010000
00001000
,
MMMMMMMM
00000100
MMMMMMMM
00000010
MMMMMMMM
00000001
00001001
00000000
,
00000200
00010300
00002000
00103000
00002000
00013000
00000020
00000130
,
00000001
00001000
00000000
00001000
00000100
00010000
MMMMMMMM
01000000
,
00200000
00000000
10300000
01000000
00200000
00001000
00301000
00010000
,
02000000
00000000
10000000
00000000
03100000
01000000
MMMMMMMM
00000000
,
00200000
00301000
00020000
00030010
00020000
00031000
00200000
01300000
,
10000000
00010000
00000000
00010000
01000000
00001000
MMMMMMMM
00001000
,
00000020
00000000
00000031
00000100
00000020
00000000
00010030
00001000
,
00000200
00000000
00000001
00000000
00000310
00000100
00000110
00000000
,
00000001
00001000
MMMMMMMM
00000000
00000010
00000001
MMMMMMMM
00000000
,
00000010
00001000
00000100
00010000
00001000
00100000
00110000
00000000
,
01000000
20000000
00000000
30100000
00020000
00001000
00000000
00031000
,
00000010
00000100
00010000
00001000
01000000
00100000
MMMMMMMM
00000000
,
10000000
00010000
MMMMMMMM
00000000
00001000
00010000
MMMMMMMM
00000000
,
00100000
00010000
00001000
00000010
00000001
00000010
00000110
00000000
,
00000100
00020000
00000000
00030100
00002000
00000010
00000000
00003010
,
00000100
00000001
00001000
00000010
00010000
00001000
MMMMMMMM
00000000
,
00100000
01000000
00000000
00100000
00000000
00010000
00001000
00020000
,
00000000
00001000
00000000
01000000
00000000
00031000
00010000
00000100
,
00000002
00001000
00000000
00000100
00000000
00001003
00010000
00100000
,
02000000
10000000
00000000
00010000
00000000
03100000
MMMMMMMM
00100000
,
01000000
00020000
00000000
00001000
00000000
00100000
00000000
00031000
,
00000010
00000000
00001100
00000000
00000001
00000100
00001000
00020000
,
00000000
00000000
00000000
00100000
00000000
00100000
00000000
00130000
,
10000000
01000000
00010000
00001000
00000010
00000100
MMMMMMMM
00000000
,
00000200
00010300
00002000
00103000
00002000
00013000
00000020
00000130
,
00000001
00001000
00000000
00001000
00000100
00010000
MMMMMMMM
01000000
,
00200000
00000000
10300000
01000000
00200000
00001000
00301000
00010000
,
02000000
00000000
10000000
00000000
03100000
01000000
MMMMMMMM
00000000
,
00200000
00301000
00020000
00030010
00020000
00031000
00200000
01300000
,
10000000
00010000
00000000
00010000
01000000
00001000
MMMMMMMM
00001000
,
00000020
00000000
00000031
00000100
00000020
00000000
00010030
00001000
,
00000200
00000000
00000001
00000000
00000310
00000100
MMMMMMMM
00000000
,
00002002
00000000
00003003
00000000
;
