#TITLE:HOUSE NATION;
#ARTIST:ravex;
#BANNER:HOUSE NATION.png;
#BACKGROUND:HOUSE NATION-bg.png;
#CDTITLE:./CDTITLES/DanceDanceRevolution Full-Full Party.png;
#MUSIC:HOUSE NATION.ogg;
#SAMPLESTART:54.338;
#SAMPLELENGTH:15;
#BPMS:0=128;

//---------------dance-single - ----------------
#NOTES:
     dance-single:
     :
     Beginner:
     2:
     :
0000
0000
0000
0000
,
0000
0000
0000
0000
,
0000
0000
0000
0000
,
0000
0000
0000
0000
,
0000
0000
0000
0000
,
0000
1000
0000
1000
,
0000
1000
0000
0100
,
0100
0000
0100
0000
,
0100
0000
0100
0000
,
0000
0001
0000
0001
,
0000
0001
0000
0010
,
0010
0000
0010
0000
,
0010
0000
0010
0000
,
1000
0000
0100
0000
,
0001
0000
0010
0000
,
1000
1000
1000
0000
,
0001
0001
0001
0000
,
1000
0000
0010
0000
,
0001
0000
0000
0100
,
0100
0100
0100
0100
,
0000
0000
0000
0000
,
1000
0000
0001
0000
,
0001
0000
1000
0000
,
0001
0000
1000
0000
,
1000
0000
0001
0000
,
0010
0000
0100
0000
,
0100
0000
0010
0000
,
0100
0000
0010
0000
,
1001
0000
1001
0000
,
1000
0000
0000
0000
,
1000
1000
1000
0000
,
0001
0000
0000
0000
,
0001
0000
1000
1000
,
1000
0000
0000
0000
,
0001
0001
0001
0000
,
0000
0000
0000
0000
,
1000
0000
1000
0000
,
1000
0000
0000
0000
,
0100
0100
0100
0000
,
0001
0000
0000
0000
,
0100
0100
0100
0000
,
1000
0000
0000
0000
,
0010
0010
0010
0000
,
0000
0000
0000
0000
,
0001
0000
0001
0000
,
1000
0000
0100
0000
,
0100
0000
0000
0000
,
0001
0000
0100
0000
,
0100
0000
0000
0000
,
1000
1000
0000
0000
,
0001
0001
0000
0000
,
0100
0100
0000
0000
,
0100
0100
0100
0000
;

//---------------dance-single - ----------------
#NOTES:
     dance-single:
     :
     Easy:
     4:
     :
0000
0000
0000
0000
,
0000
0000
0000
0000
,
0000
0000
0000
0000
,
0000
0000
0000
0000
,
0000
0000
0000
0000
,
1000
0000
1000
0000
,
1000
0100
1000
0000
,
1000
0001
0010
0000
,
1000
0001
0010
0000
,
0001
0000
0001
0000
,
0001
0010
0001
0000
,
0001
1000
0100
0000
,
0001
1000
0100
0000
,
2000
0000
3001
0010
,
1000
1000
0200
0300
,
0002
0000
1003
0100
,
0001
0001
0020
0030
,
2000
3000
1000
0001
,
0002
0003
0100
0100
,
2000
3000
0002
0003
0200
0300
2000
3000
,
0001
0000
0000
1000
,
1000
0100
0001
0010
,
2000
3000
0200
0300
,
1000
0100
1000
0001
,
0002
0003
0020
0030
,
0001
0010
1000
0100
,
2000
3000
0200
0300
,
0110
0000
1001
0000
,
1001
0110
1001
0000
,
1000
0000
0000
1001
,
1000
0010
1000
0000
,
0001
0000
0000
1001
,
0001
0000
1000
1000
,
1000
0000
0000
1001
,
1000
0010
1000
0000
,
0000
0000
0000
0000
,
1000
0001
1000
0000
,
1001
0000
1000
0100
,
1000
0001
1000
0100
,
1001
0000
0001
0100
,
0001
1000
0001
0010
,
1001
0000
1000
0010
,
1000
0001
1000
0100
,
0000
0000
0000
0000
,
0001
1000
0001
0000
,
1000
0000
0100
0000
,
0110
1000
1000
0100
,
0001
0000
0100
0000
,
0110
0001
0001
0010
,
1000
1000
0100
0100
,
0001
0001
0010
0010
,
0100
0100
1000
0100
,
0001
0000
0010
0000
2002
0000
0000
3003
;

//---------------dance-single - ----------------
#NOTES:
     dance-single:
     :
     Medium:
     6:
     :
0000
0000
0000
0000
,
0000
0000
0000
0000
,
0000
0000
0000
0000
,
0000
0000
0000
0000
,
0000
0000
0000
0000
,
0000
1000
0000
0100
0000
1000
0000
0000
,
0000
1000
0000
0100
0000
1000
0000
0000
,
0000
1000
0000
0010
0000
0010
0000
0000
,
0000
1000
0000
0010
0000
0010
0000
0000
,
0000
0001
0000
0010
0000
0001
0000
0000
,
0000
0001
0000
0010
0000
0001
0000
0000
,
0000
0001
0000
0100
0000
0100
0000
0000
,
0000
0001
0000
0100
0000
0100
0000
0000
,
2000
3200
0301
0010
,
0002
0203
0301
0010
,
0002
0023
1030
0100
,
2000
3020
1030
0100
,
2000
3200
1300
0001
,
0002
0000
0023
0000
0031
0000
1000
1000
,
1000
0001
0001
0100
0100
1000
1000
0010
,
0001
0100
0010
1000
,
1000
0200
1000
0300
0001
0020
0001
0030
,
2000
3001
0200
1300
,
1000
0100
2000
0000
3001
0010
0002
0000
,
2003
0000
3001
0000
0200
1000
1300
0000
,
0001
0200
0001
0300
1000
0020
1000
0030
,
0002
1003
0200
0301
,
0110
1000
0110
0001
,
0110
1001
0110
0000
,
1000
0100
0001
1001
,
1000
0010
1000
0001
,
0001
0100
1000
1001
,
0001
0000
1000
0100
,
1000
0010
0001
1001
,
1000
0010
1000
0001
,
0000
0000
0000
0000
,
1000
0000
0001
0000
1000
0100
1000
0100
,
1001
0110
1000
0100
,
1000
0000
0001
0000
1000
0100
1000
0000
,
1001
0110
0001
0100
,
0001
0000
1000
0000
0001
0100
0001
0000
,
1001
0110
1000
0010
,
1000
0000
0001
0000
1000
0010
1000
0000
,
1000
0000
0100
0100
0000
0010
0010
0000
,
0001
0000
1000
0000
0001
0100
0001
0100
,
1000
0000
1000
0100
0000
0010
0000
0000
,
1100
0011
1000
0100
,
0001
0000
0001
0010
0000
0100
0000
0000
,
0011
1100
0001
0100
,
1000
0100
1000
0000
0100
1000
0100
0000
,
0001
0010
0001
0000
0010
0001
0010
0000
,
0100
0000
0100
0000
1000
0100
0100
0000
,
0001
0000
0010
0100
2002
0000
3003
0110
;

//---------------dance-single - ----------------
#NOTES:
     dance-single:
     :
     Hard:
     7:
     :
0000
0000
0000
0000
,
0000
0000
0000
0000
,
0000
0000
0000
0000
,
0000
0000
0000
0000
,
0000
0000
0000
0000
,
0000
1000
0000
0100
0000
0010
0000
0100
,
0000
1000
0000
0100
0000
0001
0001
0000
,
0000
1000
0000
0010
0000
0100
0010
0000
,
0000
1000
0000
0010
0000
0100
0010
0000
,
0000
0001
0000
0010
0000
0100
0000
0010
,
0000
0001
0000
0010
0000
1000
1000
0000
,
0000
0001
0000
0100
0000
0010
0100
0000
,
0000
0001
0000
0100
0000
0010
0100
0000
,
1000
0000
0100
1000
0002
0000
0103
0000
,
0001
0000
0010
0000
0200
1000
0310
0000
,
0001
0000
0010
0001
2000
0000
3010
0000
,
1000
0000
0100
0000
0020
0001
0130
0000
,
1000
0000
0100
0010
0020
0000
0031
0000
,
0002
0000
0103
0010
0020
1000
0130
1000
,
1000
0010
0001
0001
0100
1000
1000
0010
,
0001
0100
0000
0010
0000
0100
1000
0000
,
1000
0100
2000
0000
3100
0010
0002
0000
,
0103
0010
2000
0000
3002
0000
0103
0000
,
0001
0010
0002
0000
0013
0100
2000
0000
,
3010
0100
0002
0000
2003
0010
3010
0000
,
2000
0000
3100
0100
0020
0000
0031
0001
,
0002
0000
0203
0010
0320
0000
1030
1000
,
0110
0000
2200
3300
0110
0000
0022
0033
,
0110
0000
0000
0000
1001
0000
1001
0000
0110
0000
0000
1100
0000
0000
0101
0000
,
1000
1100
0001
0101
,
1000
0000
0010
0000
1000
0100
0001
0000
,
0001
0101
1000
1100
,
0001
0010
1000
0100
,
1000
1010
0001
0011
,
1000
0000
0010
0000
1000
0100
0001
0000
,
0000
0000
0000
0000
,
1000
0001
1000
0001
1000
0100
1000
0100
,
1001
0000
0110
0000
1000
0100
1000
0000
,
1000
0100
0010
0001
0100
1000
0100
0000
,
1001
0000
0110
0000
0001
0010
0001
0000
,
0001
0000
0010
0000
0010
0001
0010
0100
,
1001
0000
0110
0000
1000
0100
1000
0000
,
1000
0010
0001
0100
0010
1000
0001
0000
,
2000
0000
3100
0100
0000
0010
0001
0000
,
0001
1000
0001
1000
0001
0100
0001
0100
,
1000
1000
0000
0100
0000
0010
0000
1000
,
1100
0000
0011
0000
1000
0001
0100
0000
,
0001
0001
0000
0010
0000
0100
0000
0001
,
0011
0000
1100
0000
0001
1000
0100
0000
,
1000
0100
1000
0000
0010
0100
0010
0000
,
0100
1000
0100
0000
0001
0010
0001
0000
,
0100
0100
0000
1000
0100
0100
0000
0001
,
0100
0000
0100
0000
1000
0000
0100
0000
0110
0000
0000
0101
0000
0000
1100
0000
;
