#TITLE:炎神戦隊ゴーオンジャー;
#ARTIST:EG-PROJECT;
#TITLETRANSLIT:Engine Sentai Go-onger;
#BANNER:Engine Sentai Go-onger.png;
#BACKGROUND:Engine Sentai Go-onger-bg.png;
#CDTITLE:./CDTITLES/DanceDanceRevolution Full-Full Party.png;
#MUSIC:Engine Sentai Go-onger.ogg;
#SAMPLESTART:18.317;
#SAMPLELENGTH:15;
#BPMS:0=170;

//---------------dance-single - ----------------
#NOTES:
     dance-single:
     :
     Beginner:
     1:
     :
0000
0000
0000
0000
,
0000
0000
0000
0000
,
0000
0000
0000
0000
,
0000
0000
0000
0000
,
0000
0000
0000
0000
,
0000
0000
0000
0000
,
0000
0000
0000
0000
,
0000
0000
0000
0000
,
0000
0000
0000
0000
,
1000
0000
0000
0000
,
0001
0000
0000
0000
,
1001
0000
0000
0000
,
0000
0000
0000
0000
,
1000
0000
0000
0000
,
1000
0000
0001
0000
,
0001
0000
0000
0000
,
0001
0000
1000
0000
,
0100
0000
0100
0000
,
0100
0000
1001
0000
,
0000
0000
0000
0000
,
0000
0010
0010
0000
,
0000
0000
0000
0000
,
0000
0000
0000
0000
,
0001
0000
0000
0000
,
1000
0000
0000
1000
,
1000
0000
0000
0000
,
0001
0000
0000
0001
,
0001
0000
0000
0000
,
0100
0000
0000
0000
,
0001
0000
0000
0000
,
1000
0000
0000
0000
,
0001
0000
0000
0000
,
0100
0100
0000
0000
,
1000
0000
0000
0000
,
0010
0010
0000
0000
,
0001
0000
0000
0000
,
0010
0000
0000
0000
,
1000
1000
0000
0000
,
0001
0001
0000
0000
,
0001
0000
0000
0000
,
0000
0000
0000
0000
,
0100
0000
0000
0000
,
0000
0000
0000
0000
,
1000
0000
0000
0000
,
0100
0000
0000
0000
,
0010
0000
0000
0000
,
0010
0000
0000
0000
,
1000
0000
0000
1001
,
0000
1000
0000
0001
,
0001
0000
0010
0000
,
0000
0001
0000
1000
,
1000
0000
0100
0000
,
0001
0000
0000
0000
,
0001
0000
1000
0000
,
1000
0000
0000
0000
,
0001
0000
0000
1001
,
0000
0001
0000
1000
,
1000
0000
0100
0100
,
0000
1000
0000
0001
,
0001
0000
0010
0010
,
0010
0000
0010
0000
,
0010
0000
1001
0000
,
0000
0000
0000
0000
,
0000
0010
0010
0000
;

//---------------dance-single - ----------------
#NOTES:
     dance-single:
     :
     Easy:
     3:
     :
0000
0000
0000
0000
,
0000
0000
0000
0000
,
0000
0000
0000
0000
,
0000
0000
0000
0000
,
0000
0000
0000
0000
,
0000
0000
0000
0000
,
0000
0000
0000
0000
,
0000
0000
0000
0000
,
0000
0000
0000
0000
,
1001
0000
0000
0000
,
0110
0000
0000
0000
,
2002
0000
0000
3003
,
0000
0000
0000
0000
,
0001
0000
0001
0000
,
0001
0010
0001
0000
,
1000
0000
1000
0000
,
1000
0100
1000
0000
,
0010
0010
0010
0010
,
1001
0000
2002
3003
,
0010
0000
0000
0000
,
0000
0110
1001
0000
,
0000
0000
0000
0000
,
0000
0000
0000
0000
,
2000
0000
0000
3000
,
0000
0001
0000
0001
,
0002
0000
0000
0003
,
0000
1000
0000
1000
,
1000
0000
0010
0000
,
0001
0000
0010
0000
,
1000
0000
0000
0000
,
0001
0000
0000
0000
,
0200
0000
0000
0300
,
0000
1000
0000
1000
,
0020
0000
0000
0030
,
0000
0001
0000
0001
,
0001
0000
0010
0000
,
1000
0000
0010
0000
,
0002
0003
0000
0000
,
2000
3000
0000
0000
,
1000
0000
0000
0000
,
1000
0001
0000
0000
,
1000
0100
0100
0000
,
1000
0000
0010
0000
,
0001
0000
0100
0000
,
0001
1000
1000
0000
,
0001
0010
0010
0010
,
0200
0000
0000
0300
,
0001
0001
0001
1001
,
1000
0000
0001
0000
,
1000
0100
1000
0000
,
0001
0000
1000
0000
,
0001
0010
0001
0000
,
2000
0000
0000
3000
,
1000
1000
0001
0001
,
0002
0000
0000
0003
,
1000
1000
1000
1001
,
0001
0000
1000
0000
,
0001
0010
1000
0000
,
1000
0000
0001
0000
,
1000
0100
0001
0000
,
0100
0100
0100
0100
,
1001
0000
2002
3003
,
0100
0000
0000
0000
,
0000
0110
2002
0000
,
3003
0000
0000
0000
;

//---------------dance-single - ----------------
#NOTES:
     dance-single:
     :
     Medium:
     5:
     :
0000
0000
0000
0000
,
0000
0000
0000
0000
,
0000
0000
0000
0000
,
0000
0000
0000
0000
,
0000
0000
0000
0000
,
0000
0000
0000
0000
,
0000
0000
0000
0000
,
0000
0000
0000
0000
,
0000
0000
0000
0000
,
1100
0000
0000
0000
,
0011
0000
0000
0000
,
2002
0000
0000
3003
,
1001
0000
0001
0100
,
1000
0001
1000
0001
,
1000
0100
1000
0000
0001
0000
0000
0000
,
0001
1000
0001
1000
,
0001
0010
0001
0000
1000
0000
0000
0000
,
0100
0100
0110
0100
,
1001
0000
2002
3003
,
0100
0000
0000
0000
0000
0001
0000
1000
,
0000
0110
1001
0000
,
0000
0000
0000
0000
,
0000
0000
0000
0000
,
0002
0000
0000
0003
,
1000
1000
1000
0000
,
2000
0000
0000
3000
,
0001
0001
0001
0000
,
0001
0000
0001
0100
,
1000
0000
1000
0100
,
0001
0100
0000
0000
,
0001
0100
0000
0000
,
0002
0100
0000
0103
,
1000
1000
0001
0000
,
2000
0100
0000
3100
,
0001
0001
1000
0000
,
1000
0000
1000
0100
,
0001
0000
0001
0100
,
1000
1000
1000
0000
,
0002
0003
0000
0000
,
0001
0100
0000
0100
,
0001
0000
0001
0000
0000
0010
0001
0000
,
0001
0000
0100
0000
0001
0010
0001
0000
,
0001
0100
0100
0100
,
1000
0010
0000
0010
,
1000
0000
1000
0000
0000
0100
1000
0000
,
1000
0000
0010
0000
1000
0100
1000
0000
,
0200
0000
0000
0300
,
0001
1000
0001
1001
,
0001
1000
0001
1000
,
0001
0010
0001
0000
1000
0000
0000
0000
,
1000
0001
1000
0001
,
1000
0100
1000
0000
0001
0000
0000
0000
,
0002
0000
0000
0003
,
0100
0100
0010
0010
,
2000
0010
0000
3010
,
0001
1000
0001
1001
,
1000
0000
0001
0000
1000
0100
0001
0000
,
1000
0100
1000
0000
0001
0000
0000
0000
,
0001
0000
1000
0000
0001
0010
1000
0000
,
0001
0010
0001
0000
1000
0000
0000
0000
,
0010
0010
0110
0010
,
1001
0000
2002
3003
,
0010
0000
0000
0000
0000
1000
0000
0001
,
0000
0110
2002
0000
,
3003
0000
0000
0000
;

//---------------dance-single - ----------------
#NOTES:
     dance-single:
     :
     Hard:
     6:
     :
0000
0000
0000
0000
,
0000
0000
0000
0000
,
0000
0000
0000
0000
,
0000
0000
0000
0000
,
0000
0000
0000
0000
,
0000
0000
0000
0000
,
0000
0000
0000
0000
,
0000
0000
0000
0000
,
0000
0000
0000
0000
,
1000
0000
0000
0010
0001
0000
0000
0000
0000
0000
0000
0000
0000
0000
0000
0000
,
0001
0000
0000
0100
1000
0000
0000
0000
0000
0000
0000
0000
0000
0000
0000
0000
,
2002
0000
0000
3003
,
1001
0000
1000
0100
,
1000
1000
0001
0000
1000
1000
0001
0000
,
1000
0100
0010
0001
1000
0000
0000
0000
,
0001
0001
1000
0000
0001
0001
1000
0000
,
0001
0010
0100
1000
0001
0000
0000
0000
,
0001
0010
1100
0010
,
1001
0000
2002
3003
,
0100
0010
1000
0001
0000
1000
0000
0001
,
0000
0110
1001
0000
,
0000
0000
0000
0000
,
0000
0000
0000
0000
,
2000
0100
0000
3100
,
0001
0001
1000
0000
,
0002
0100
0000
0103
,
1000
1000
0001
0000
,
1000
1000
1000
0101
,
0001
0001
0001
1100
,
0001
0000
1000
0100
0000
0000
0000
0000
,
0001
0000
1000
0100
0000
2002
3003
0000
,
2000
0000
0100
0100
0000
0000
3100
0000
,
1000
0000
0100
0010
0000
0001
0100
0000
,
0002
0000
0100
0100
0000
0000
0103
0000
,
0001
0000
0100
0010
0000
1000
0100
0000
,
0001
1000
0001
1010
,
1000
0001
1000
0011
,
0002
0103
0100
0100
,
0100
0001
1000
0001
,
1000
0000
0100
0000
0000
0010
0100
0000
,
1000
0000
1000
0100
0000
0100
1000
0000
,
1000
0000
0010
1000
0010
1000
0010
0000
,
1000
0100
0010
0001
,
0001
0000
0010
0000
0000
0100
0010
0000
,
0001
0000
0001
0010
0000
0010
0001
0000
,
0001
0000
0100
0001
0100
0001
0100
0000
,
0200
0000
0000
0300
,
1000
0001
1000
0001
1000
0000
1001
0000
,
1000
1000
0001
0000
1000
1000
0001
0000
,
1000
0100
0010
0001
1000
0000
0000
0000
,
0001
0001
1000
0000
0001
0001
1000
0000
,
0001
0010
0100
1000
0001
0000
0000
0000
,
2000
0100
0100
3100
,
0001
0010
0100
1000
,
0002
0100
0000
0103
,
1000
0001
1000
0001
1000
0000
1001
0000
,
1000
0100
0001
0000
1000
0100
0001
0000
,
1000
0001
0010
0001
1000
0000
0000
0000
,
0001
0010
1000
0000
0001
0010
1000
0000
,
0001
1000
0100
1000
0001
0000
0000
0000
,
1000
0010
0101
0010
,
1001
0000
2002
3003
,
0010
0100
0001
1000
0000
0001
0000
1000
,
0000
0110
2002
0000
,
3003
0000
0000
0000
;
