#TITLE:CRAZY GONNA CRAZY;
#ARTIST:TRF;
#BANNER:CRAZY GONNA CRAZY.png;
#BACKGROUND:CRAZY GONNA CRAZY-bg.png;
#CDTITLE:./CDTITLES/DanceDanceRevolution Full-Full Party.png;
#MUSIC:CRAZY GONNA CRAZY.ogg;
#SAMPLESTART:32.692;
#SAMPLELENGTH:15;
#BPMS:0=132;

//---------------dance-single - ----------------
#NOTES:
     dance-single:
     :
     Beginner:
     1:
     :
0000
0000
0000
0000
,
0000
0000
0000
0000
,
0000
0000
0000
0000
,
0000
0000
0000
0000
,
0000
0000
0000
0000
,
1000
0000
0000
0000
,
0000
0000
0000
0000
,
0001
0000
0000
0000
,
0000
0000
0000
1001
,
0000
0000
0000
0100
,
0000
0000
0000
0010
,
0000
0000
0000
1000
,
0000
0000
1000
1000
,
0000
0000
0000
0010
,
0000
0000
0000
0100
,
0000
0000
0000
0001
,
0000
0000
0001
0001
,
0000
0000
0000
1001
,
0000
0000
1000
1000
,
0000
0000
0100
0100
,
0000
0000
0000
1000
,
0000
0000
0000
0001
,
0000
0000
0001
0001
,
0000
0000
0100
0100
,
0000
0000
0000
0001
,
0000
0000
0000
1000
,
0000
0000
1000
1000
,
0000
0000
0100
0100
,
0000
0000
0000
1000
,
0000
0000
0000
0001
,
0000
0000
0001
0001
,
0000
0000
0010
0010
,
0000
0000
0000
0001
,
0000
0000
0000
1000
,
1000
0000
0100
0000
,
0001
0000
0100
0000
,
1000
0000
0000
0000
,
1000
1000
1000
0000
,
0001
0000
0010
0000
,
1000
0000
0010
0000
,
0001
0000
0000
0000
,
0001
0001
0001
0000
,
1000
0000
0000
0000
,
0100
0000
0000
0000
,
0001
0000
0000
0000
,
0100
0000
0000
0000
,
1000
0000
0000
0000
,
0100
0100
0000
0000
,
0001
0000
0000
0000
,
0100
0100
0000
0000
;

//---------------dance-single - ----------------
#NOTES:
     dance-single:
     :
     Easy:
     3:
     :
0000
0000
0000
0000
,
0000
0000
0000
0000
,
0000
0000
0000
0000
,
0000
0000
0000
0000
,
0000
0000
0000
0000
,
0000
0000
0000
0100
,
0000
0000
0000
1000
,
0000
0000
0000
0010
,
0000
0000
0001
1001
,
0000
0000
0100
1000
,
1000
0000
0001
0001
,
0100
0000
0000
1000
,
0000
0000
0000
0001
,
0000
0000
1000
1000
,
0010
0000
0001
0001
,
0100
0000
0100
0000
,
0010
0100
0010
0000
,
0100
0000
0100
1001
,
0100
1000
0100
0000
,
0100
1000
0100
0000
,
1000
0000
0100
0000
,
0010
0000
0001
0000
,
0001
0100
0001
0000
,
0001
0100
0001
0000
,
0001
0000
0100
0000
,
0010
0000
1000
0000
,
1000
0100
0000
0000
,
1000
0100
0100
0000
,
1000
0000
0010
0000
,
0100
0000
0001
0000
,
0001
0010
0010
0000
,
0001
0010
0010
0000
,
0001
0000
0010
0000
,
0100
0000
1000
0000
,
2000
3000
1000
0000
,
1000
0100
0001
0100
,
0020
0030
0001
0000
,
0001
1000
0001
0100
,
2000
3000
1000
0000
,
1000
0001
1000
0100
,
0200
0300
0001
0000
,
0001
0100
1000
0100
,
1000
0000
0000
0000
,
0100
0200
0300
0000
,
0001
0000
0000
0000
,
0100
0200
0300
0000
,
1000
0000
1000
0000
,
0100
0100
0100
0000
,
0001
0000
0001
0000
,
0100
0100
0100
0000
;

//---------------dance-single - ----------------
#NOTES:
     dance-single:
     :
     Medium:
     4:
     :
0000
0000
0000
0000
,
0000
0000
0000
0000
,
0000
0000
0000
0000
,
0000
0000
0000
0000
,
0000
0000
0000
0000
,
0000
0100
0000
0100
,
0000
0000
1000
1000
,
0000
0010
0000
0001
,
0100
0000
0100
1001
,
0001
0000
0010
0000
,
1000
0000
0100
0010
,
0001
0010
0001
0000
,
1000
0000
0000
0000
0000
1000
1000
0000
,
1000
0000
0100
0000
,
0001
0000
0010
0100
,
1000
0000
1000
0100
,
1000
0000
0001
0010
,
0001
1000
0010
1001
,
1000
0100
2000
3000
,
0001
0010
0200
0300
,
1000
0010
0100
0000
0001
0010
0100
0000
,
0010
0100
0001
1000
,
0001
0010
0002
0003
,
1000
0100
0020
0030
,
0001
0000
0100
0010
0100
0000
1000
0000
,
1000
0000
0010
0100
0010
0100
0001
0000
,
2000
3100
2000
3000
,
0002
0013
0200
0300
,
1000
0000
0100
0000
0010
0001
0010
0000
,
0001
0010
0001
0000
0100
0000
1000
0000
,
0002
0013
0002
0003
,
2000
3100
0020
0030
,
0001
0000
0010
0000
0100
1000
0100
0000
,
1000
0100
1000
0000
0010
0000
0001
0000
,
1000
1000
1000
0000
,
1000
0000
0100
0000
0010
0001
0100
0000
,
0001
1000
0001
0000
,
0001
0000
1000
0000
0001
1000
0100
0000
,
1000
1000
1000
0000
,
1000
0000
0001
0000
1000
0001
0100
0000
,
0001
1000
0001
0000
,
0001
0000
0010
0000
0100
1000
0010
0000
,
0000
1000
0000
1000
,
0100
0200
0000
0310
,
0000
0001
0000
0001
,
0100
0200
0000
0310
,
1000
0010
1000
0010
,
0100
0100
0100
0100
,
0001
0100
0001
0100
,
0100
0100
0100
0100
;

//---------------dance-single - ----------------
#NOTES:
     dance-single:
     :
     Hard:
     6:
     :
0000
0000
0000
0000
,
0000
0000
0000
0000
,
0000
0000
0000
0000
,
0000
0000
0000
0000
,
0000
0000
0000
0000
,
0000
0010
0000
0100
,
0000
0000
0000
0000
1000
0100
0001
0000
,
0000
0001
0001
0010
,
1000
0000
0100
0000
0001
1000
1001
0000
,
1000
0000
0000
1000
0100
0000
0000
0000
,
0001
0000
0000
0001
0010
0000
0100
0000
,
0001
0100
0000
0010
1000
0000
0100
0000
,
0001
0010
0100
0010
1000
0000
0011
0000
,
1000
0000
0000
0010
0100
0000
0000
0000
,
0001
0000
0000
0010
0100
0000
0010
0000
,
0010
0000
0000
0100
1000
0000
0000
0000
0100
0000
0000
0000
1000
0000
0000
0000
,
0010
0000
0100
0000
0001
0000
0000
0000
0100
0000
0000
0010
0001
0000
0000
0000
,
1000
0100
0000
0010
0001
0000
1001
0000
,
1000
0000
0010
0100
2000
0000
3000
0100
,
0001
0000
1000
0100
0020
0000
0031
0001
,
1000
0000
0000
0100
0000
0000
0010
0000
0100
0000
0000
0010
0000
0000
0001
0000
,
1000
0000
0001
0000
1000
0001
0100
0000
,
0001
0000
0010
0100
0002
0000
0003
0100
,
1000
0000
0001
0010
0200
0000
1300
1000
,
0001
0000
0000
0100
0000
0000
0010
0000
0100
0000
0000
0010
0000
0000
1000
0000
,
0001
0000
1000
0000
0001
1000
0100
0000
,
2000
0000
3100
2000
0001
3000
0100
0000
,
0002
0000
0013
0200
1000
0300
0010
0000
,
1000
0000
0000
0010
0100
0000
0000
0001
,
0010
0000
0100
0000
1000
0100
1000
0000
,
0002
0000
0013
0002
1000
0003
0010
0000
,
2000
0000
3100
0020
0001
0030
0100
0000
,
0001
0000
0000
0100
0010
0000
0000
1000
,
0100
0000
0010
0000
0001
0010
0001
0000
,
1000
0000
0000
1000
0000
0000
1000
0000
0001
0000
0000
0000
0010
0000
0000
0000
,
1000
0100
1000
0010
1000
0100
1000
0000
,
0001
0000
0000
0010
0000
0000
0010
0000
1000
0000
0000
0000
0100
0000
0000
0000
,
0001
0010
0100
0010
1000
0010
0001
0000
,
1000
0000
0000
1000
0000
0000
1000
0000
0001
0000
0000
0000
0100
0000
0000
0000
,
1000
0100
0010
0100
0001
0100
1000
0000
,
0001
0000
0000
0010
0000
0000
0010
0000
1000
0000
0000
0000
0100
0000
0000
0000
,
0001
0010
0001
0100
0001
0010
0001
0000
,
0200
0010
0000
0310
,
0100
0000
2000
0000
0000
0001
3001
0000
,
0200
0010
0000
0310
,
0100
0000
0102
0000
0000
1000
1003
0000
,
1000
0100
0010
0000
1000
0100
0010
0000
,
0100
0100
0100
0100
,
0001
0010
0100
0000
0001
0010
0100
0000
,
0100
0100
0100
0100
;
