#TITLE:Break the Chain;
#ARTIST:Tourbillon;
#BANNER:Break the Chain.png;
#BACKGROUND:Break the Chain-bg.png;
#CDTITLE:./CDTITLES/DanceDanceRevolution Full-Full Party.png;
#MUSIC:Break the Chain.ogg;
#SAMPLESTART:52.334;
#SAMPLELENGTH:15;
#BPMS:0=110;

//---------------dance-single - ----------------
#NOTES:
     dance-single:
     :
     Beginner:
     1:
     :
0000
0000
0000
0000
,
0000
0000
0000
0000
,
0000
0000
0000
0000
,
0000
0000
0000
0000
,
0000
0000
0000
0000
,
0001
0000
0010
0000
,
1000
0000
0000
0000
,
1000
0000
1000
0000
,
0001
0000
0000
0000
,
0001
0000
0001
0000
,
1001
0000
0000
0000
,
0100
0000
0000
0000
,
0100
0000
0010
0000
,
0001
0000
0000
0000
,
0001
0001
0000
0000
,
0010
0000
0000
0000
,
0100
0000
0010
0000
,
1000
0000
0000
0000
,
1000
1000
0000
0000
,
1001
0000
0000
0000
,
0010
0000
0000
0000
,
1000
0000
0001
0000
,
1000
1000
0001
0001
,
0000
0000
0000
0000
,
1000
0000
0001
0001
,
0001
0000
0000
0000
,
0010
0000
0000
0000
,
1000
1000
1000
0000
,
0001
0000
1000
1000
,
1000
0000
0000
0000
,
0100
0000
0000
0000
,
0001
0001
0001
0000
,
1000
1000
1000
0000
,
0001
0001
0001
0000
,
1000
0000
0100
0000
,
0001
0000
0000
0000
,
0001
0000
0001
0000
,
1001
0000
0000
0000
,
0200
0000
0000
0000
,
0000
0000
0300
0000
,
1001
0000
0000
0000
;

//---------------dance-single - ----------------
#NOTES:
     dance-single:
     :
     Easy:
     3:
     :
0000
0000
0000
0000
,
0000
0000
0000
0000
,
0000
0000
0000
0000
,
0000
0000
0000
0000
,
0000
0000
0000
0000
,
0001
0000
0010
0000
,
1000
0001
1000
0000
,
0100
0000
0010
0000
,
0001
0100
1001
0000
,
0010
0000
0100
0000
,
1000
0010
1001
0000
,
1000
0000
1000
0000
,
0100
0000
0010
0000
,
0001
0010
0001
0000
,
0100
0100
1000
0000
,
0001
0000
0001
0000
,
0100
0000
0010
0000
,
1000
0010
1000
0000
,
0010
0010
0001
0000
,
0100
0000
0110
0000
,
1000
0001
2002
3003
,
0001
0000
1000
0000
,
0100
0100
0100
0100
,
0010
0000
0000
0000
,
1000
0000
0001
0001
,
2000
3000
0002
0003
,
0100
0000
0100
0000
,
0001
0001
1000
1000
,
0001
0000
1000
1000
,
0002
0003
2000
3000
,
0010
0000
0010
0000
,
1000
1000
0001
0001
,
1000
1000
0001
0001
,
1000
1000
0001
0001
,
1000
0001
0100
0000
,
0001
1000
0001
0010
,
0010
0000
0100
0000
,
1000
0010
1001
0000
,
0020
0000
0000
0000
,
0000
0000
0030
0100
,
1001
0000
0000
0000
;

//---------------dance-single - ----------------
#NOTES:
     dance-single:
     :
     Medium:
     4:
     :
0000
0000
0000
0000
,
0000
0000
0000
0000
,
0000
0000
0000
0000
,
0000
0000
0000
0000
,
0000
0000
0000
0000
,
0001
0100
0010
1000
,
0100
0000
1001
0000
0100
0010
0100
0000
,
1000
0000
0100
0000
0010
0001
0010
0000
,
0001
0110
1001
0100
,
0001
0000
0010
0000
0100
1000
0100
0000
,
1000
0110
1001
0110
,
0100
0100
1000
0000
0100
0100
0010
0000
,
0001
0000
0010
0000
1000
0100
0010
0000
,
0001
0001
0100
0110
,
1000
1001
0010
0110
,
0010
0010
0001
0000
0010
0010
0100
0000
,
1000
0000
0100
0000
0001
0010
0100
0000
,
1000
1000
0010
0110
,
0001
1001
0100
0110
,
1000
0100
0010
0100
,
0001
1000
2002
3003
,
0001
1000
0100
0010
,
1000
0100
1000
0000
0010
0001
0010
0000
,
0200
0020
0000
0330
,
1000
0000
0010
0000
,
1000
0000
0001
0000
0020
0100
0130
0000
,
0001
0010
0000
0100
1000
0000
0001
0000
,
1000
0001
0100
0000
0010
0000
0010
0000
,
0001
0000
0100
0000
,
0001
0000
1000
0000
0200
0010
0310
0000
,
1000
0100
0000
0010
0001
0000
1000
0000
,
0001
1000
0010
0000
0100
0000
0100
0000
,
1000
0001
0010
0000
0100
0000
0100
0000
,
0001
1000
0100
0000
0010
0000
0010
0000
,
0001
0100
0110
1000
,
0110
0000
1001
0000
0100
0010
0100
0000
,
1000
0000
0010
0000
0100
0001
0100
0010
,
0001
0000
0110
0000
1001
0000
0010
0200
,
0000
0000
0000
0000
,
0000
0000
0000
0000
0300
0000
0100
0010
,
1001
0000
0000
0000
;

//---------------dance-single - ----------------
#NOTES:
     dance-single:
     :
     Hard:
     6:
     :
0000
0000
0000
0000
,
0000
0000
0000
0000
,
0000
0000
0000
0000
,
0000
0000
0000
0000
,
0000
0000
0000
0000
,
0100
0000
0010
0000
1100
0100
0010
0000
,
0001
0100
1000
0000
0100
0010
0100
0010
,
1000
0000
0110
0000
0001
0011
0010
0000
,
0100
1100
0100
0000
0010
0011
0010
0001
,
1000
0000
0110
0000
0001
0101
0100
0000
,
0010
1010
0010
0000
0100
0101
1100
0000
,
0001
0010
0000
0010
0001
0000
0001
0100
0000
0100
0010
0000
1000
0000
0100
0000
,
0001
0100
0000
1000
0100
0000
0001
1000
0000
0000
0100
0000
0110
0000
0000
0000
,
1000
0000
1000
0000
0010
0000
0000
0100
0000
0000
0100
0000
0010
0000
0000
0000
,
1000
0000
1000
0000
0100
0000
0000
0010
0000
0000
0010
0000
0100
0000
0001
0000
,
1000
0100
0000
0100
1000
0000
1000
0010
0000
0010
0100
0000
0001
0000
0010
0000
,
1000
0010
0000
0001
0010
0000
1000
0001
0000
0000
0010
0000
0110
0000
0000
0000
,
0001
0000
0001
0000
0010
0000
0000
0100
0000
0000
0100
0000
0010
0000
0000
0000
,
0001
0000
0001
0000
0010
0000
0000
0100
0000
0000
0100
0000
0010
0000
1000
0000
,
0100
0000
0000
1000
0000
0000
0202
0000
0000
0000
0000
0000
0303
0000
0000
0000
,
0011
0000
0000
1100
0000
0000
0220
0000
0000
0000
0000
0000
0330
0000
0000
0000
,
0001
0000
0000
0100
0000
0000
2200
0000
0000
0000
0000
0000
3300
0000
0000
0000
,
0010
0000
0001
0000
1000
0200
0000
0000
0310
0000
1000
0000
0001
0200
0000
0000
,
0301
2000
0020
0000
0000
0000
3030
0000
,
0100
0000
1000
0100
,
0020
0100
0031
0100
2000
0100
3010
0000
,
0001
0011
0000
1100
1000
0000
1000
0001
,
1000
0100
0000
0100
1000
0000
0001
0000
0010
0100
0000
0100
1000
0000
0001
0000
,
0010
0000
0001
0010
,
0200
0010
1300
0010
0002
0010
0103
0000
,
1000
1100
0000
0011
0001
0000
1001
1000
,
0001
0010
0000
0010
0001
0000
1000
0000
0100
0010
0000
0010
0001
0000
1000
0000
,
0001
0100
0000
0100
0001
0000
1000
0000
0010
0100
0000
0100
0001
0000
1000
0000
,
1000
0100
0000
0100
1000
0000
0001
0000
0010
0100
0000
0100
1000
0000
0001
0000
,
0100
0000
1010
0000
0101
0100
0010
0000
,
1000
0100
0001
0000
0100
0010
0100
0010
,
0001
0000
0110
0000
1000
1010
0010
1000
,
0100
0101
0100
0000
0010
1010
0010
0200
,
0000
0000
0000
0000
,
0000
0000
0000
0000
0000
0000
0000
0000
0300
0000
0000
0000
0010
1000
0100
0010
,
0001
0000
0000
0000
;
