#TITLE:アナタボシ;
#ARTIST:EG-PROJECT;
#TITLETRANSLIT:Anata Boshi;
#BANNER:Anata Boshi.png;
#BACKGROUND:Anata Boshi-bg.png;
#CDTITLE:./CDTITLES/DanceDanceRevolution Full-Full Party.png;
#MUSIC:Anata Boshi.ogg;
#SAMPLESTART:55.521;
#SAMPLELENGTH:15;
#BPMS:0=189;

//---------------dance-single - ----------------
#NOTES:
     dance-single:
     :
     Beginner:
     2:
     :
0000
0000
0000
0000
,
0000
0000
0000
0000
,
0000
0000
0000
0000
,
0000
0000
0000
0000
,
0000
0000
0000
0000
,
0000
0000
0000
0000
,
1000
0000
0000
0000
,
0010
0000
0000
0000
,
0001
0000
0000
0000
,
1001
0000
0000
0000
,
1000
0000
0100
0000
,
0010
0000
0000
0000
,
0010
0000
1000
0000
,
0001
0000
0000
0000
,
0001
0000
0100
0000
,
0010
0000
0000
0000
,
0010
0000
0001
0000
,
0100
0000
1001
0000
,
0000
0000
1000
0000
,
0000
0000
0001
0000
,
0000
0000
0010
0000
,
0000
0000
0100
0000
,
1000
1000
1000
0000
,
0000
0000
0000
0000
,
0001
0001
0001
0000
,
0000
0000
0000
0000
,
0000
0000
0001
0000
,
0000
0000
1000
0000
,
0000
0000
0010
0000
,
0000
0000
0100
0000
,
0001
0001
0001
0000
,
0000
0000
0000
0000
,
1000
1000
1000
0000
,
0000
0000
0000
0000
,
1000
0000
0000
0000
,
0100
0000
0000
0000
,
0001
0000
0000
0000
,
0010
0000
0000
0000
,
1000
0000
0000
0000
,
0100
0000
0000
0000
,
1001
0000
1001
0000
,
0000
0000
0010
0010
,
0000
0000
0000
0000
,
0000
0000
0000
0000
,
1000
0000
0001
0000
,
1000
0000
0001
0000
,
0100
0000
0001
0000
,
0010
0000
0000
0000
,
0001
0000
1000
0000
,
0001
0000
1000
0000
,
0010
0000
1000
0000
,
1001
0000
0000
0000
,
1000
0000
0001
0000
,
1000
0000
0001
0000
,
0100
0000
0001
0000
,
0010
0000
0000
0000
,
0001
0000
1000
0000
,
0001
0000
1000
0000
,
0010
0000
1000
0000
,
1001
0000
0000
0000
,
1000
0000
0001
0000
,
1001
0000
0000
0000
,
1000
0000
0100
0000
,
0010
0000
0000
0000
,
0010
0000
1000
0000
,
0001
0000
0000
0000
,
0001
0000
0100
0000
,
0010
0000
0000
0000
,
0010
0000
0001
0000
,
0100
0000
1001
0000
;

//---------------dance-single - ----------------
#NOTES:
     dance-single:
     :
     Easy:
     3:
     :
0000
0000
0000
0000
,
0000
0000
0000
0000
,
0000
0000
0000
0000
,
0000
0000
0000
0000
,
0000
0000
0000
0000
,
0000
0000
0000
0000
,
0001
0000
0000
0000
,
0010
0000
0000
0000
,
1000
0000
0100
0000
,
0010
0010
0000
0000
,
0001
0001
0010
0000
,
0100
0000
0010
0000
,
1000
0000
1000
0000
,
0001
0000
1000
0000
,
1000
1000
0100
0000
,
0010
0000
0100
0000
,
0001
0000
0001
0000
,
1000
0000
1001
0000
,
2000
3000
0200
0300
,
0020
0030
0002
0003
,
1000
0000
1000
0000
,
0010
0000
0010
0000
,
1000
1000
1000
1000
,
1000
0000
0010
0000
,
0001
0001
0001
0001
,
0001
0000
0100
0000
,
0002
0003
0200
0300
,
0020
0030
2000
3000
,
0001
0000
0001
0000
,
0010
0000
0010
0000
,
0001
0001
0001
0001
,
0001
0000
0010
0000
,
1000
1000
1000
1000
,
1000
0000
0100
0000
,
0001
1000
0001
0000
,
0100
0000
0000
0000
,
1000
0001
1000
0000
,
0000
0100
0100
0000
,
0001
1000
0001
0000
,
0010
0000
0000
0000
,
0110
0000
1001
0000
,
1000
0001
1000
0001
,
0000
0000
0000
0000
,
0000
0000
0000
0000
,
0100
0000
0000
0001
,
0100
0100
0000
0001
,
1000
0000
0001
0000
,
0010
0000
0000
0000
,
0100
0000
0000
1000
,
0010
0010
0000
1000
,
0001
0000
1000
0000
,
0010
0010
0010
0000
,
0100
0100
0000
0001
,
0100
0000
0000
0001
,
1000
0000
1001
0000
,
0010
0000
0000
0000
,
0100
0100
0000
1000
,
0010
0000
0000
1000
,
0001
0000
1000
0000
,
0010
0000
0010
0000
,
0001
0000
1000
0000
,
0010
0010
0000
0000
,
1000
1000
0100
0000
,
0010
0000
0100
0000
,
0001
0000
0001
0000
,
1000
0000
0001
0000
,
0001
0001
0010
0000
,
0100
0000
0010
0000
,
1000
0000
1000
0000
,
0001
0000
2002
0000
,
0000
0000
0000
0000
,
0000
3003
0000
0000
;

//---------------dance-single - ----------------
#NOTES:
     dance-single:
     :
     Medium:
     6:
     :
0000
0000
0000
0000
,
0000
0000
0000
0000
,
0000
0000
0000
0000
,
0000
0000
0000
0000
,
0000
0000
0000
0000
,
0000
0000
0000
0000
,
0010
0000
0000
0000
,
1000
0000
0000
0000
,
0001
0000
0100
0000
,
1001
1001
0100
0010
,
0001
0100
0001
1000
,
0001
0010
0100
0010
,
0010
0000
0100
0000
1000
0001
1000
0000
,
0010
0100
0100
0010
,
1000
0100
1000
0001
,
1000
0010
0100
0010
,
0010
0000
0100
0000
0001
1000
0001
0000
,
0010
0100
1001
0000
,
0002
0103
0020
0130
,
2000
3100
0002
0013
,
0001
0100
1000
0100
,
0010
1000
0100
0000
,
0001
1001
0001
1001
,
0001
0010
0100
1000
,
0100
1001
0100
1001
,
0100
0010
0100
0000
,
2000
3010
0200
0310
,
0002
0013
2000
3100
,
1000
0010
0001
0010
,
0100
0001
0010
0000
,
1000
1001
1000
1001
,
1000
0100
0010
0001
,
0100
1001
0100
1001
,
0001
1000
0010
0000
,
1000
0100
0010
0000
0001
0000
1000
0000
,
0100
0100
0010
0010
,
0001
0100
0010
0000
1000
0000
0001
0000
,
1000
0000
0100
0000
0010
0001
1000
0000
,
0001
0010
0100
0000
1000
0000
0001
0000
,
0010
0010
0100
0100
,
1000
0100
0001
0100
,
1000
0001
1001
0220
,
0000
0000
0000
0330
,
0000
0000
0000
1001
,
0100
0000
1000
0000
1000
0000
0001
0010
,
0100
0001
0001
1000
,
0010
0100
0001
1000
,
0100
0010
0110
1001
,
0010
0000
0001
0000
0001
0000
1000
0100
,
0010
1000
1000
0001
,
0100
0010
1000
0001
,
1000
1000
1000
0000
,
0100
1000
1000
0011
,
0100
0001
0001
1100
,
0001
1000
0010
0100
,
1000
0001
1001
0110
,
0010
0001
0001
1100
,
0010
1000
1000
0011
,
1000
0001
0100
0010
,
0100
0110
1000
0001
,
0110
0000
1001
0000
,
0110
1001
0010
0100
,
1000
0010
1000
0001
,
1000
0100
0010
0100
,
0100
0000
0010
0000
0001
1000
0001
0000
,
0100
0010
0010
0100
,
0001
0010
0001
1000
,
0001
0100
0010
0100
,
0100
0000
0010
0000
1000
0001
1000
0000
,
0100
0010
2002
0000
,
0000
0000
0000
0000
,
0000
3003
0000
0000
;

//---------------dance-single - ----------------
#NOTES:
     dance-single:
     :
     Hard:
     8:
     :
0000
0000
0000
0000
,
0000
0000
0000
0000
,
0000
0000
0000
0000
,
0000
0000
0000
0000
,
0000
0000
0000
0000
,
0000
0000
0000
0000
,
0001
0000
0000
0000
,
1000
0000
0100
0000
,
0010
0000
0100
0000
,
1001
0000
1001
0000
1000
0100
0010
0001
,
1000
0000
1001
0000
1000
0100
0001
0000
,
0001
0100
1000
0000
1000
0010
0100
0001
,
1000
0100
1000
0100
0010
0001
0010
0001
,
0100
0000
0100
0000
0001
0100
0010
1000
,
0001
0000
1001
0000
0001
0100
1000
0000
,
1000
0100
0001
0000
0001
0010
0100
1000
,
0001
0100
0001
0100
0010
1000
0010
1000
,
0100
0100
1001
0000
,
0200
0000
1300
1000
0020
0000
0130
0100
,
0002
0000
0103
0100
0020
0000
1030
0100
,
0020
0000
0001
0000
0130
0000
1000
0100
,
2000
0010
3100
0000
,
0010
1001
0100
1001
,
0020
0100
0130
0001
0020
0100
0130
1000
,
0100
1001
0100
1001
,
0100
1010
0100
0000
,
0020
0000
0031
0001
0200
0000
0310
0010
,
2000
0000
3010
0010
0200
0000
0301
0010
,
0200
0000
1000
0000
0310
0000
0001
0010
,
0002
0100
0013
0000
,
0100
1001
0010
1001
,
0200
0010
0310
1000
0200
0010
0310
0001
,
0010
1001
0010
1001
,
0010
0101
0010
0000
,
0001
0100
1000
0000
0001
0100
1000
0000
,
0200
0000
0301
1000
0020
0000
1030
0100
,
1000
0100
0001
0000
1000
0100
0001
0000
,
1000
0010
1000
0100
0010
0001
0100
0000
,
0001
0010
1000
0000
0001
0010
1000
0000
,
0020
0000
0031
1000
0200
0000
1300
0010
,
1000
0010
0001
0010
1000
0100
0001
0100
,
1000
0001
1000
0001
0010
0000
0110
0000
,
0001
0101
1000
1100
,
0100
0010
0001
0010
0100
0000
1001
0000
,
0011
0000
0200
0000
1300
0001
0010
0000
,
1010
0000
0200
0000
0301
1000
0100
1000
,
0200
0000
1300
0010
0002
0000
0013
1000
,
0200
0310
0100
0110
,
1100
0000
0020
0000
0031
1000
0100
0000
,
0101
0000
0020
0000
1030
0001
0010
0001
,
0020
0000
0031
0100
2000
0000
3100
0001
,
0010
0000
0100
0010
0100
0000
1001
0000
,
0101
0120
1030
0010
,
1100
0000
0120
0000
0031
0000
0010
1000
,
0002
0000
1003
0100
0020
0000
0130
1000
,
0200
1300
0110
1001
,
1100
0120
0031
0010
,
0101
0000
0120
0000
1030
0000
0010
0001
,
2000
0000
3001
0100
0020
0000
0130
0001
,
0200
0000
0301
0000
0110
0000
0010
1000
,
1100
0000
0011
0000
,
0101
0000
1010
0000
0001
0100
0010
1000
,
0001
0000
1001
0000
0001
0100
1000
0000
,
1000
0100
0001
0000
0001
0010
0100
1000
,
0001
0100
0001
0100
0010
1000
0010
1000
,
0100
0000
0100
0000
1000
0100
0010
0001
,
1000
0000
1001
0000
1000
0100
0001
0000
,
0001
0100
1000
0000
1000
0010
0100
0001
,
1000
0100
1000
0100
0010
0001
0010
0001
,
0100
0100
2002
0000
,
0000
0000
0000
0000
,
0000
3003
0000
0000
;
