#TITLE:Turkey In The Straw;
#SUBTITLE:;
#ARTIST:Disney Grooves;
#TITLETRANSLIT:;
#SUBTITLETRANSLIT:;
#ARTISTTRANSLIT:;
#CREDIT:;
#BANNER:;
#BACKGROUND:;
#LYRICSPATH:;
#CDTITLE:./CDTITLES/DanceDanceRevolution Disney Grooves.png;
#MUSIC:Turkey In The Straw.mp3;
#OFFSET:-0.068;
#SAMPLESTART:56.100;
#SAMPLELENGTH:15.000;
#SELECTABLE:YES;
#BPMS:0.000=170.000,144.000=85.000,152.000=170.000;
#STOPS:;
#BGCHANGES:;

//---------------dance-single - ----------------
#NOTES:
     dance-single:
     :
     Beginner:
     3:
     0.191,0.232,0.000,0.000,0.000:
0000
0000
0000
0000
,
0000
0000
0000
0000
,
0000
0000
0000
0001
,
0000
0000
0000
0001
,
0000
0000
0000
0000
,
1000
0000
0000
0000
,
1000
0000
0000
0000
,
1000
0000
0000
0000
,
0001
0000
0000
0000
,
0001
0000
0000
0000
,
1000
0000
0000
0000
,
1000
0000
0000
0000
,
0001
0000
0000
0000
,
0001
0000
0000
0000
,
0010
0000
0010
0000
,
0010
0000
0000
0000
,
0100
0000
0100
0000
,
0100
0000
0000
0000
,
1000
0000
1000
0000
,
1000
0000
0000
0000
,
0001
0000
0001
0000
,
0001
0000
0000
0000
,
1000
0000
0001
0001
,
0001
0000
1000
1000
,
1000
0000
0010
0010
,
0010
0000
0001
0001
,
0001
0000
1000
1000
,
1000
0000
0100
0100
,
0100
0000
1000
1000
,
1000
0000
0001
0001
,
0001
0000
0100
0000
,
1000
0000
0100
0000
,
0001
0000
0010
0000
,
1000
0000
0010
0000
,
1000
1000
1000
0000
,
0001
0001
0001
0000
,
0000
0001
0000
1000
,
0000
1000
0000
0001
,
0001
0000
1000
1000
,
1000
0000
0001
0001
,
0001
0000
0100
0100
,
0100
0000
1000
1000
,
1000
0000
0001
0001
,
0001
0000
0010
0010
,
0010
0000
0001
0001
,
0001
0000
1000
1000
,
1000
0000
0010
0000
,
0001
0000
0010
0000
,
1000
0000
0100
0000
,
0001
0000
0100
0000
,
0001
0001
0001
0000
,
1000
1000
1000
0000
,
0100
0100
0100
0000
,
0010
0010
0010
0000
,
1000
0000
0000
0000
,
0001
0000
0000
0000
,
1000
0000
0001
0001
,
0000
0100
0100
0000
;

//---------------dance-single - ----------------
#NOTES:
     dance-single:
     :
     Easy:
     5:
     0.281,0.298,0.046,0.000,0.000:
0000
0000
0000
0000
,
0000
0000
0000
0000
,
0000
0000
0000
0001
,
0000
0000
0000
1000
,
0000
0000
0000
0000
,
0110
0000
1001
0000
,
1000
0000
0000
0000
,
1000
0000
0100
0000
,
0001
0000
0000
0000
,
0001
0000
0100
0000
,
1000
0000
0000
0000
,
0010
0000
0001
0000
,
0001
0000
0000
0000
,
0100
0000
1000
0000
,
0000
1000
0000
1000
,
0000
1000
0000
0000
,
0000
0001
0000
0001
,
0000
0001
0000
0000
,
1000
0000
0100
0000
,
0010
0000
0001
0000
,
1000
0000
0001
0000
,
0100
0000
0010
0000
,
1000
1000
0100
1000
,
0001
0001
0010
0001
,
1000
0100
1000
1000
,
0001
0010
0001
0001
,
0100
1000
0100
0001
,
0010
0001
0010
1000
,
0001
0100
1000
0100
,
0001
0010
1000
0010
,
1000
0100
0010
0001
,
0001
0010
0100
1000
,
1000
0010
0100
0001
,
0001
0100
0010
1000
,
1000
1000
1000
0100
,
0001
0001
0001
0100
,
1000
0001
1000
0100
,
0001
1000
0001
0100
,
0001
0001
0010
0001
,
1000
1000
0100
1000
,
0001
0010
0001
0001
,
1000
0100
1000
1000
,
0010
0001
0010
1000
,
0100
1000
0100
0001
,
1000
0010
0001
0010
,
1000
0100
0001
0100
,
0001
0010
0100
1000
,
1000
0100
0010
0001
,
0001
0100
0010
1000
,
1000
0010
0100
0001
,
0001
0001
0001
0010
,
1000
1000
1000
0010
,
1000
0100
0001
0100
,
1000
0010
0001
0010
,
1000
0000
1000
0000
,
0001
0000
0001
0000
,
1000
0000
0001
0001
,
0000
0110
1001
0000
;

//---------------dance-single - ----------------
#NOTES:
     dance-single:
     :
     Medium:
     7:
     0.398,0.464,0.196,0.000,0.000:
0000
0000
0000
0000
,
0000
0000
0000
0000
,
0000
0001
0000
0001
,
0000
1000
0000
1000
,
0000
0001
0000
0001
,
0011
0000
1010
0011
,
1000
0000
0001
0000
,
0010
0000
0001
1000
,
0001
0000
1000
0000
,
0100
0000
1000
0001
,
1000
0000
0001
0000
,
0010
0000
0001
1000
,
0001
0000
1000
0000
,
0100
0000
1000
0001
,
1000
0100
0000
0001
,
0010
0001
0000
1000
,
0010
1000
0000
0001
,
0100
0001
0000
1000
,
1000
0100
0100
0010
,
0010
0001
0001
1000
,
1000
0100
0010
0001
,
1000
0100
1000
0000
,
0001
1000
0100
0100
,
1000
0001
0010
0010
,
1000
0000
1000
0000
0001
0010
0001
0000
,
0001
0000
0001
0000
1000
0010
1000
0000
,
0001
0000
1000
0100
1000
0000
0001
0000
,
1000
0000
0001
0100
0001
0000
1000
0000
,
0001
0010
0001
0000
1000
0100
1000
0000
,
1000
0010
1000
0000
0001
0100
0001
0000
,
1000
0000
0100
0000
0010
0000
0100
0010
,
0001
0000
0100
0000
0010
0000
0100
0010
,
1000
0000
0001
0000
0010
0000
0010
0100
,
1000
0000
1000
0000
0100
0000
0100
0010
,
0001
0001
0010
0010
,
0100
0100
1000
1000
,
1000
0000
0001
0000
1000
0001
0100
0010
,
0100
0001
1000
0001
0010
0100
1000
0000
,
1000
0001
0010
0010
,
0001
1000
0100
0100
,
0001
0000
0001
0000
1000
0100
1000
0000
,
1000
0000
1000
0000
0001
0100
0001
0000
,
1000
0000
0001
0010
0001
0000
1000
0000
,
0001
0000
1000
0010
1000
0000
0001
0000
,
1000
0100
1000
0000
0001
0010
0001
0000
,
0001
0100
0001
0000
1000
0010
1000
0000
,
0011
0010
0100
1001
,
1100
0100
0010
0110
,
0011
0010
0100
1001
,
1100
0100
0010
0110
,
1000
1100
0001
0011
,
0001
1010
1000
0101
,
1000
0100
0001
0000
0001
0100
1000
0000
,
0001
0100
1000
0000
1000
0100
0001
0000
,
1000
0010
1000
0000
,
0001
0010
0001
0000
,
1000
0000
0000
1000
0001
0000
0001
0000
,
0000
0110
1001
0000
;

//---------------dance-single - ----------------
#NOTES:
     dance-single:
     :
     Hard:
     10:
     0.504,0.729,0.276,0.000,0.086:
0000
0000
0000
0000
,
0000
0000
0000
0000
,
0000
0000
0000
0000
0000
1000
1000
0000
,
0000
0000
0000
0000
0000
0001
0001
0000
,
0000
0000
0000
0000
0000
1000
1000
0000
,
1100
0110
0011
1100
,
0001
0000
1000
0000
,
0100
0010
0001
0000
,
1000
0000
0001
0000
,
0010
0100
1000
0000
,
0001
0000
1000
0000
,
1000
0010
0100
0000
,
1000
0000
0001
0000
,
0001
0100
0010
0000
,
1000
0000
0100
0000
0000
0010
0001
0000
,
1000
0000
0010
0000
0000
0100
0001
0000
,
0010
0000
0001
0000
0000
1000
0100
0000
,
0001
0000
0100
0000
0000
0010
1000
0000
,
0100
1000
0100
0000
0010
0001
0010
0000
,
1000
0010
1000
0000
0001
0100
0001
0000
,
1000
0000
0100
0000
0010
0001
0010
0000
,
0010
1000
0010
0000
0100
0000
0000
0000
,
1000
0100
1000
0000
0001
0100
0001
0000
,
1000
0100
1000
0000
0001
1000
0001
0000
,
1000
0010
1000
0100
1000
0010
1000
0000
,
0001
0100
0001
0010
0001
0100
0001
0000
,
1000
0000
1000
0100
0010
0000
0001
0100
,
1000
0100
0001
0000
0001
0100
0001
0000
,
0001
0000
0001
0010
0100
0000
0001
0010
,
1000
0010
0001
0000
1000
0010
1000
0000
,
1000
0000
0000
0000
0100
0000
0000
0000
0010
0001
0000
0000
0100
0000
0000
0000
,
1000
0000
0000
0000
0100
0010
0000
0000
0010
0000
0000
0000
0010
0000
0100
0000
,
1000
0000
0000
0000
0001
0010
0000
0000
0010
0000
0000
0000
0010
0000
0000
0000
,
1000
0000
0000
0000
0001
0000
0000
0000
0010
0100
0000
0000
0010
0000
0100
0000
,
1000
0000
0000
1000
0100
0000
0000
0000
0010
0000
0000
0010
0001
0000
0000
0000
,
0010
0000
0000
0010
0100
0000
0000
0000
1000
0000
0000
1000
0001
0000
0000
0000
,
1000
0100
1000
0000
0001
0000
1000
0100
0000
0001
0010
0000
0001
0000
1000
0000
,
0001
0100
0001
0000
1000
0000
0001
0100
0000
0010
1000
0000
0001
1000
0001
0000
,
0001
0001
0010
0000
1000
0010
1000
0000
,
0001
0010
0001
0000
1000
0001
1000
0000
,
0001
0100
0001
0010
0001
0100
0001
0000
,
1000
0010
1000
0100
1000
0010
1000
0000
,
0001
0000
0001
0010
0100
0000
1000
0010
,
0001
0010
1000
0000
1000
0010
1000
0000
,
1000
0000
1000
0100
0010
0000
1000
0100
,
0001
0100
1000
0000
0001
0100
0001
0000
,
1100
0000
0101
0000
1010
0000
0001
0010
,
0011
0000
1010
0000
0101
0000
1000
0100
,
1100
0000
0101
0000
1010
0000
0001
0010
,
0011
0000
1010
0000
0101
0000
1000
0100
,
0010
0100
1100
0000
0100
0010
0101
0000
,
1000
0100
1100
0000
0001
0100
0101
0000
,
1000
0100
0001
0100
1000
0010
0001
0010
,
1000
0100
0001
0100
1100
0000
0101
0000
,
1000
0010
1000
0010
,
0001
0010
0001
0010
,
1000
0000
0000
0010
0100
0000
0001
0000
,
0000
0110
1001
0000
;
