#TITLE:The Bare Necessities;
#SUBTITLE:;
#ARTIST:Disney Grooves;
#TITLETRANSLIT:;
#SUBTITLETRANSLIT:;
#ARTISTTRANSLIT:;
#CREDIT:;
#BANNER:;
#BACKGROUND:;
#LYRICSPATH:;
#CDTITLE:./CDTITLES/DanceDanceRevolution Disney Grooves.png;
#MUSIC:The Bare Necessities.mp3;
#OFFSET:0.931;
#SAMPLESTART:0.020;
#SAMPLELENGTH:15.000;
#SELECTABLE:YES;
#BPMS:0.000=108.000;
#STOPS:;
#BGCHANGES:;

//---------------dance-single - ----------------
#NOTES:
     dance-single:
     :
     Beginner:
     1:
     0.079,0.108,0.053,0.000,0.000:
0000
0000
0000
0000
,
1000
0000
0000
0000
,
0000
0000
0000
0000
,
0001
0000
0000
0000
,
0000
0000
0000
0000
,
1000
0000
0000
0000
,
0000
0000
0000
0000
,
0001
0000
1000
0000
,
0000
0000
0000
0000
,
1000
0000
0000
0000
,
0001
0000
0000
0000
,
1000
0000
0000
0000
,
0001
0000
0000
0000
,
1000
1000
0000
0000
,
0001
0001
0000
0000
,
1000
0000
0001
0000
,
1000
0000
1000
0000
,
0001
0000
1000
0000
,
0000
0000
0000
0000
,
1001
0000
0000
0000
,
1001
0000
0000
0000
,
0001
0000
0000
0000
,
1000
0000
0000
0000
,
0001
0000
0000
0000
,
1001
0000
0000
0000
,
1000
0000
1000
0000
,
0001
0000
0001
0000
,
0001
0000
1000
0000
,
0000
0000
0000
0000
,
1000
0000
0000
0000
,
0001
0000
0000
0000
,
1000
0000
0000
0000
,
0001
0000
0000
0000
,
1000
1000
0000
0000
,
0001
0001
0000
0000
,
1000
0000
0001
0000
,
1000
0000
1000
0000
,
0001
0000
1000
0000
,
0000
0000
0000
0000
,
1001
0000
0000
0000
,
0000
0000
1001
0000
;

//---------------dance-single - ----------------
#NOTES:
     dance-single:
     :
     Easy:
     3:
     0.141,0.194,0.074,0.298,0.000:
0000
0000
0000
0000
,
2000
3000
0000
0000
,
0002
0003
0000
0000
,
0200
0300
0000
0000
,
1001
0000
0000
0000
,
0002
0003
0000
0000
,
2000
3000
0000
0000
,
0020
0030
0200
0300
,
0000
0000
0000
0000
,
1000
0000
0000
0000
,
0200
0300
0000
0000
,
0001
0000
0000
0000
,
0200
0300
0000
0000
,
1000
0100
2000
3000
,
0001
0010
0002
0003
,
2000
3000
0002
0003
,
0010
0000
0100
0000
,
0001
0000
2000
0000
,
0000
0000
3000
0000
,
0110
0000
0000
0000
,
1001
0000
0000
0000
,
0002
0003
0100
0000
,
2000
3000
0100
0000
,
0020
0030
0100
0000
,
1001
0000
0000
0000
,
2000
3000
0100
0000
,
0002
0003
0010
0000
,
0200
0300
0020
0030
,
0000
0000
0000
0000
,
0001
0000
0000
0000
,
0020
0030
0000
0000
,
1000
0000
0000
0000
,
0020
0030
0000
0000
,
0001
0010
0002
0003
,
1000
0100
2000
3000
,
0002
0003
2000
3000
,
0100
0000
0010
0000
,
1000
0000
0002
0000
,
0000
0000
0003
0000
,
0110
0000
0000
0000
,
1001
0000
1001
0000
;

//---------------dance-single - ----------------
#NOTES:
     dance-single:
     :
     Medium:
     6:
     0.245,0.280,0.160,0.287,0.000:
0000
0000
0000
0000
,
2000
3000
0100
0100
,
0002
0003
0010
0010
,
2000
3000
0010
0100
,
1001
0000
0000
0000
,
0002
0003
0010
0010
,
2000
3000
0100
0100
,
0002
0003
2000
3000
,
0110
1001
0110
0000
,
1000
0100
0002
0003
,
1000
0000
0001
0000
,
0001
0010
2000
3000
,
0001
0000
1000
0000
,
1000
0100
2000
3000
,
0001
0010
0002
0003
,
2000
3100
0002
0013
,
0001
0100
0010
1000
,
0001
1000
1000
0100
,
0001
0010
1000
0001
,
0110
0000
0110
0000
,
1001
0000
0000
0000
,
2000
3100
0100
0010
,
0002
0013
0010
0100
,
2000
3010
0010
0001
,
1001
0000
0000
0000
,
2000
3001
0100
0010
,
0002
1003
0010
0100
,
2000
3001
0002
1003
,
0110
1001
0110
0000
,
2000
0100
0000
3100
,
0002
0100
0000
0103
,
2000
0010
0000
3010
,
0001
0000
1000
0000
,
2000
3000
0100
1000
,
0002
0003
0010
0001
,
0002
0013
2000
3100
,
1000
0000
0001
0000
,
1000
0001
0001
0010
,
1000
0100
1000
0001
,
0110
0000
0110
0000
,
1001
0000
1001
0000
;

//---------------dance-single - ----------------
#NOTES:
     dance-single:
     :
     Hard:
     8:
     0.339,0.345,0.160,0.372,0.000:
0000
0000
0000
0000
,
2000
0000
3000
0000
0100
0010
0100
0000
,
0002
0000
0003
0000
0010
0100
0010
0000
,
2000
0000
3000
0000
0001
0010
0100
0000
,
0001
0000
0001
0000
1000
0100
1000
0000
,
0002
0000
0003
0000
0010
0100
0010
0000
,
2000
0000
3000
0000
0100
0010
0100
0000
,
0002
0003
2000
3000
,
0011
1100
1001
0000
,
2000
3000
0200
0300
0002
0000
0003
0000
,
2000
3000
0200
0300
0002
0000
0003
0000
,
0002
0003
0020
0030
2000
0000
3000
0000
,
1000
0000
0010
0000
0001
0010
0100
0000
,
0001
0010
0002
0000
1003
0000
1000
0000
,
1000
0100
2000
0000
3001
0000
0001
0000
,
2000
0100
3000
0100
0002
0010
0003
0010
,
0001
1000
0010
0000
0001
1000
0010
0000
,
1000
0000
0001
0000
1000
0100
0001
0000
,
0001
0100
1000
0000
1000
0001
1000
0000
,
0011
0000
1100
0000
,
1001
0000
0000
0000
,
2000
3100
0002
0103
,
1000
0000
0010
0002
1000
0000
1003
0000
,
0001
0000
0100
2000
0001
0000
3001
0000
,
1000
0000
1000
0000
0001
0100
0001
0000
,
2000
3100
0002
0103
,
1000
0000
0010
0002
1000
0000
1003
0000
,
0001
0000
0100
2000
0001
0000
3001
0000
,
0011
1100
1001
0000
,
2000
0100
0100
0000
0100
0000
3100
0000
,
0002
0100
0100
0000
0100
0000
0103
0000
,
2000
0010
0010
0000
0010
0000
3010
0000
,
1000
0100
0010
0000
1000
0000
0010
0000
,
1000
0100
2000
0000
3001
0000
0011
0000
,
0001
0010
0002
0000
1003
0000
1100
0000
,
0002
0010
0003
0010
2000
0100
3000
0100
,
1000
0001
0100
0000
1000
0001
0100
0000
,
0001
0000
1000
0000
0001
0010
1000
0000
,
1000
0010
0001
0000
0001
1000
0001
0000
,
1100
0000
0011
0000
,
1001
0000
1001
0000
;
