#TITLE:Streets Of Gold;
#SUBTITLE:;
#ARTIST:Disney Grooves;
#TITLETRANSLIT:;
#SUBTITLETRANSLIT:;
#ARTISTTRANSLIT:;
#CREDIT:;
#BANNER:;
#BACKGROUND:;
#LYRICSPATH:;
#CDTITLE:./CDTITLES/DanceDanceRevolution Disney Grooves.png;
#MUSIC:Streets Of Gold.mp3;
#OFFSET:-0.084;
#SAMPLESTART:30.600;
#SAMPLELENGTH:15.000;
#SELECTABLE:YES;
#BPMS:0.000=122.620;
#STOPS:;
#BGCHANGES:;

//---------------dance-single - ----------------
#NOTES:
     dance-single:
     :
     Beginner:
     1:
     0.089,0.122,0.085,0.000,0.000:
0000
0000
0000
0000
,
0000
0000
0000
0000
,
0000
0000
0000
0000
,
0000
0000
0000
0000
,
0000
0000
1001
0000
,
1000
0000
0000
0000
,
0001
0000
0000
0000
,
0100
0000
0000
0000
,
0000
0000
1001
0000
,
0001
0000
0000
0000
,
1000
0000
0000
0000
,
0100
0000
0000
0000
,
0001
0000
0000
0000
,
0001
0000
0100
0000
,
1000
0000
0000
0000
,
1000
0001
1000
0000
,
0000
0000
1001
0000
,
0000
0000
0100
0000
,
0000
0000
1001
0000
,
0000
0000
0100
0000
,
0001
0000
0000
0000
,
1000
0000
0000
0000
,
0001
0000
0000
0000
,
1000
0000
0001
0000
,
1000
0000
0000
0000
,
0001
0000
0000
0000
,
0010
0000
0100
0000
,
0000
0000
0000
0000
,
0001
0000
0000
0000
,
1000
0000
0000
0000
,
0010
0000
0100
0000
,
0000
0000
0000
0000
,
0001
0000
0000
0000
,
0001
0000
0100
0000
,
1000
0000
0000
0000
,
1000
0000
1000
0000
,
0000
0000
1001
0000
,
0000
0000
0100
0000
,
0000
0000
1001
0000
,
0000
0000
0100
0000
,
0001
0000
0000
0000
,
1000
0000
0000
0000
,
0001
0000
0000
0000
,
0001
0000
0001
0000
,
0000
0000
1001
0000
,
0000
0000
0010
0000
,
0000
0000
1001
0000
,
0000
0000
0010
0000
,
1000
0000
0000
0000
,
0001
0000
0000
0000
,
1000
0000
0000
0000
,
1000
0000
1000
0000
,
1001
0000
0000
0000
;

//---------------dance-single - ----------------
#NOTES:
     dance-single:
     :
     Easy:
     2:
     0.126,0.147,0.103,0.094,0.000:
0000
0000
0000
0000
,
0000
0000
0000
0000
,
0000
0000
0000
0000
,
0000
0000
0000
0000
,
0100
0000
1001
0000
,
1000
0000
0010
0000
,
0001
0000
0010
0000
,
0100
0000
0000
0000
,
0100
0000
1001
0000
,
0001
0000
0010
0000
,
1000
0000
0010
0000
,
0100
0000
0000
0000
,
0002
0000
0003
0001
,
0001
0000
0100
0000
,
2000
0000
3000
1000
,
1000
0000
1001
0000
,
0000
0000
1001
0000
,
0000
0000
0100
0000
,
0000
0000
1001
0000
,
0000
0000
0100
0000
,
0002
0000
0000
0003
,
2000
0000
0000
3000
,
0001
0000
0000
0000
,
1000
0000
0001
1000
,
0001
0000
0100
0000
,
0010
0000
0000
0000
,
1000
0000
0100
0000
,
0000
0000
0000
0000
,
1000
0000
0100
0000
,
0010
0000
0000
0000
,
0001
0000
0100
0000
,
0001
0000
0010
0000
,
2000
0000
3000
1000
,
1000
0000
0100
0000
,
0002
0000
0003
0001
,
0001
0000
1001
0000
,
0000
0000
1001
0000
,
0000
0000
0100
0000
,
0000
0000
1001
0000
,
0000
0000
0100
0000
,
2000
0000
0000
3000
,
0002
0000
0000
0003
,
1000
0000
0000
0000
,
0001
0000
1000
0001
,
0000
0000
1001
0000
,
0000
0000
0100
0000
,
0000
0000
1001
0000
,
0000
0000
0100
0000
,
2000
0000
0000
3000
,
0002
0000
0000
0003
,
1000
0000
0000
0000
,
0001
0000
1000
0001
,
1001
0000
0000
0000
;

//---------------dance-single - ----------------
#NOTES:
     dance-single:
     :
     Medium:
     4:
     0.191,0.220,0.122,0.094,0.000:
0000
0000
0000
0000
,
0000
0000
0000
0000
,
0000
0000
0000
0000
,
0000
0000
0000
0000
,
1001
0000
1001
0000
,
1000
0010
0010
0000
,
0001
0100
0100
0000
,
0100
0000
0000
0000
,
1001
0000
1001
0000
,
0001
0010
0010
0000
,
1000
0100
0100
0000
,
0100
0000
0000
0000
,
2000
0000
3100
0100
,
0100
0000
0001
0000
,
0002
0000
0103
0100
,
0100
0000
1001
0000
,
0010
0000
1001
0000
,
1000
1000
1000
0000
,
0010
0000
1001
0000
,
0001
0001
0001
0000
,
0200
0000
0010
0310
,
0020
0000
0100
0130
,
0100
0000
0000
0100
0000
0000
0000
0000
,
0001
1000
0001
1000
,
0001
0000
0100
0000
,
1000
0000
0100
0000
,
1000
0000
0100
0000
,
0000
0000
0000
0000
,
0001
0000
0010
0000
,
1000
0000
0010
0000
,
1000
0000
0010
0000
,
0001
0000
0010
0000
,
2000
0000
3010
0010
,
0010
0000
0001
0000
,
0002
0000
0013
0010
,
0010
0000
1001
0000
,
0100
0000
1001
0000
,
1000
1000
1000
0000
,
0010
0000
1001
0000
,
0001
0001
0001
0000
,
0200
0000
0010
0310
,
0020
0000
0100
0100
,
0130
0000
0000
0100
0000
0000
0000
0000
,
0001
1000
0001
1000
,
0100
0000
1001
0000
,
0001
0001
0001
0000
,
0010
0000
1001
0000
,
1000
1000
1000
0000
,
0200
0000
0010
0310
,
0020
0000
0100
0100
,
0130
0000
0000
0100
0000
0000
0000
0000
,
1000
0001
1000
0001
,
1001
0000
0000
0000
;

//---------------dance-single - ----------------
#NOTES:
     dance-single:
     :
     Hard:
     6:
     0.298,0.318,0.235,0.094,0.000:
0000
0000
0000
0000
,
0000
0000
0000
0000
,
0000
0000
0000
0000
,
0000
0000
0000
0000
,
1010
0010
0100
0101
,
0010
1000
0100
0000
0100
0010
0001
0000
,
1000
0100
0010
0100
,
0010
0000
0100
0110
,
0011
0010
0100
1100
,
0010
0001
0100
0000
0100
0010
1000
0000
,
0001
0100
0010
0100
,
0010
0000
0000
0000
0001
0100
0010
1000
,
0200
0000
0310
0001
,
1000
0100
0001
0100
,
0200
0000
0310
1000
,
0011
0000
0000
1001
0000
0000
0000
0000
,
1001
0100
1001
0000
,
0001
0000
0100
0000
0001
1000
0010
0000
,
1001
0100
1001
0000
,
1000
0000
0100
0000
1000
0001
0010
0000
,
0200
1000
0001
1300
,
0020
0001
1000
0031
,
1000
0000
0000
0110
0000
0000
0001
0000
,
1000
0100
0010
1001
,
0001
0000
0100
0010
,
1000
0000
0100
0010
,
1000
0100
0001
0010
,
0001
0000
0010
0100
0010
0000
1000
1000
,
0001
0000
0010
0100
,
1000
0000
0010
0100
,
1000
0010
0001
0100
,
0001
0000
0100
0010
0100
0000
1000
1000
,
0200
0000
0310
0001
,
1000
0100
0001
0100
,
0200
0000
0310
1000
,
0100
0100
1001
0000
,
1001
0010
1001
0000
,
0001
0000
0010
0000
0001
1000
0100
0000
,
1001
0010
1001
0000
,
1000
0000
0010
0000
1000
0001
0100
0000
,
0020
1000
0001
1030
,
0200
0001
1000
0301
,
1000
0000
0000
0110
0000
0000
0001
0000
,
1000
0010
0100
0001
,
1001
0100
1001
0000
,
1000
0000
0100
0000
1000
0001
0010
0000
,
1001
0100
1001
0000
,
0001
0000
0100
0000
0001
1000
0010
0000
,
0200
0001
1000
0301
,
0020
1000
0001
1030
,
0001
0000
0000
0110
0000
0000
1000
0000
,
0001
0100
0010
1000
,
1001
0000
0000
0000
;
