#TITLE:It's a Small World;
#SUBTITLE:;
#ARTIST:Disney Grooves;
#TITLETRANSLIT:;
#SUBTITLETRANSLIT:;
#ARTISTTRANSLIT:;
#CREDIT:;
#BANNER:;
#BACKGROUND:;
#LYRICSPATH:;
#CDTITLE:./CDTITLES/DanceDanceRevolution Disney Grooves.png;
#MUSIC:It's a Small World.mp3;
#OFFSET:-0.078;
#SAMPLESTART:5.740;
#SAMPLELENGTH:15.000;
#SELECTABLE:YES;
#BPMS:0.000=160.000;
#STOPS:;
#BGCHANGES:;

//---------------dance-single - ----------------
#NOTES:
     dance-single:
     :
     Beginner:
     1:
     0.124,0.189,0.000,0.000,0.000:
0000
0000
0000
0000
,
0000
0000
0000
0000
,
0000
0000
0000
0000
,
0000
0000
0000
0000
,
1000
0000
0000
0000
,
0000
0000
0000
0000
,
0001
0000
0000
0000
,
0000
0000
0000
0000
,
1000
0000
0000
0000
,
0001
0000
0000
0000
,
1000
0000
1000
0000
,
0001
0000
0000
0000
,
1000
0000
0000
0000
,
0010
0000
0010
0000
,
0001
0000
0000
0000
,
0010
0000
0010
0000
,
1000
0000
0000
0000
,
0010
0000
0010
0000
,
0001
0001
0001
0000
,
1000
0000
0000
0000
,
0001
0000
0001
0000
,
1000
0000
1000
0000
,
0001
0000
0001
0000
,
1000
0000
0000
0000
,
0001
0000
0000
0000
,
0000
0000
0000
0000
,
1000
0000
0000
0000
,
0000
0000
0000
0000
,
0001
0000
0000
0000
,
1000
0000
0000
0000
,
0001
0000
0001
0000
,
1000
0000
0000
0000
,
0001
0000
0000
0000
,
0010
0000
0010
0000
,
1000
0000
0000
0000
,
0010
0000
0010
0000
,
0001
0000
0000
0000
,
0010
0000
0010
0000
,
1000
1000
1000
0000
,
0001
0000
0000
0000
,
0001
0000
1000
0000
,
0001
0001
0001
0000
,
1000
0000
0001
0000
,
1000
1000
1000
0000
,
0001
0000
1000
0000
,
0001
0001
0001
0000
,
1000
0000
1000
0000
,
0001
0000
0001
0000
,
0010
0000
0000
0000
,
0010
0000
0000
0000
,
0100
0000
0000
0000
;

//---------------dance-single - ----------------
#NOTES:
     dance-single:
     :
     Easy:
     2:
     0.190,0.220,0.000,0.013,0.000:
0000
0000
0000
0000
,
0000
0000
0000
0000
,
0000
0000
0000
0000
,
0000
0000
0000
0000
,
1000
0000
1000
0000
,
1000
1000
1000
0000
,
0001
0000
0001
0000
,
0001
0001
0001
0000
,
1000
0000
0100
0000
,
0001
0000
0010
0000
,
1000
0000
1000
0000
,
0001
0000
0000
0000
,
1000
0000
1000
1000
,
0010
0000
0010
0000
,
0001
0000
0001
0001
,
0010
0000
0010
0000
,
1000
0000
0100
0100
,
0010
0000
0010
0000
,
0001
0001
0001
0000
,
1000
0000
0000
0000
,
0001
0000
0001
0000
,
1000
0000
1000
0000
,
0001
0000
0001
0000
,
1000
0000
0000
0000
,
0001
0000
0001
0000
,
0001
0001
0001
0000
,
1000
0000
1000
0000
,
1000
1000
1000
0000
,
0001
0000
0010
0000
,
1000
0000
0100
0000
,
0001
0000
0001
0000
,
1000
0000
0000
0000
,
0001
0000
0001
0001
,
0010
0000
0010
0000
,
1000
0000
1000
1000
,
0010
0000
0010
0000
,
0001
0000
0100
0100
,
0010
0000
0010
0000
,
1000
1000
1000
0000
,
0001
0000
0000
0000
,
0001
0000
1000
1000
,
0001
0001
0001
0000
,
1000
0000
0001
0001
,
1000
1000
1000
0000
,
0001
0000
1000
1000
,
0001
0001
0001
0000
,
1000
0000
1000
0000
,
0001
0000
0001
0000
,
0020
0000
0000
0000
,
0000
0030
1000
0001
,
0100
0000
0000
0000
;

//---------------dance-single - ----------------
#NOTES:
     dance-single:
     :
     Medium:
     4:
     0.262,0.287,0.126,0.151,0.000:
0000
0000
0000
0000
,
0000
0000
0000
0000
,
0000
0000
0000
0000
,
0000
0000
0000
0000
,
0100
0000
0010
0000
,
0001
1000
0001
0000
,
0100
0000
0010
0000
,
1000
0001
1000
0000
,
1001
0000
0010
0000
,
1001
0000
0100
0000
,
0001
0001
1000
1000
,
2002
0000
0000
3003
,
1000
0000
0001
0010
,
1000
1000
1000
0000
,
0001
0000
1000
0010
,
0001
0001
0001
0000
,
1000
0000
0001
0010
,
1000
1000
1000
0000
,
0001
0000
1000
0000
,
2002
0000
0000
3003
,
0001
0001
1000
1000
,
0001
1000
0001
1000
,
0001
0001
1000
1000
,
2002
0000
0000
3003
,
0100
0000
0010
0000
,
1000
0001
1000
0000
,
0100
0000
0010
0000
,
0001
1000
0001
0000
,
1001
0000
0010
0000
,
1001
0000
0100
0000
,
1000
1000
0001
0001
,
2002
0000
0000
3003
,
0001
0000
1000
0010
,
0001
0001
0001
0000
,
1000
0000
0001
0010
,
1000
1000
1000
0000
,
0001
0000
1000
0010
,
0001
0001
0001
0000
,
1000
0000
0001
0000
,
2002
0000
0000
3003
,
0001
0000
1000
0010
,
0001
0001
0001
0000
,
1000
0000
0001
0010
,
1000
1000
1000
0000
,
0001
0000
1000
0010
,
0001
0001
0001
0000
,
1000
0000
0001
0000
,
1000
1000
0001
0001
,
0100
0000
0010
0000
,
0100
0100
0010
0010
,
2002
0000
0000
3003
;

//---------------dance-single - ----------------
#NOTES:
     dance-single:
     :
     Hard:
     6:
     0.413,0.415,0.742,0.151,0.000:
0000
0000
0000
0000
,
0000
0000
0000
0000
,
0000
0000
0000
0000
,
0000
0000
0000
0000
,
0010
0001
0100
0001
,
0010
1100
0010
0101
,
0010
1000
0100
1000
,
0010
0101
0010
1100
,
0010
1001
0100
1001
,
0010
1001
0100
1001
,
1000
1000
0001
0001
,
2002
0000
0000
3003
,
0001
0100
1000
0100
,
0011
1001
0101
0000
,
1000
0100
0001
0100
,
1010
1001
1100
0000
,
0001
0100
1000
0100
,
0011
1001
0101
0000
,
0110
0110
1001
1001
,
0220
0000
0000
0330
,
0001
0100
1000
0100
,
0001
0100
1000
0100
,
0001
0100
1000
0100
,
2002
0000
0000
3003
,
0010
1000
0100
1000
,
0010
0101
0010
1100
,
0010
0001
0100
0001
,
0010
1100
0010
0101
,
0010
1001
0100
1001
,
0010
1001
0100
1001
,
0001
0001
1000
1000
,
2002
0000
0000
3003
,
1000
0100
0001
0100
,
1010
1001
1100
0000
,
0001
0100
1000
0100
,
0011
1001
0101
0000
,
1000
0100
0001
0100
,
1010
1001
1100
0000
,
0110
0110
1001
1001
,
0220
0000
0000
0330
,
0001
0100
1000
0100
,
0011
1001
0101
0000
,
1000
0100
0001
0100
,
1010
1001
1100
0000
,
0001
0100
1000
0100
,
0011
1001
0101
0000
,
0110
0000
1001
0000
,
0010
0010
0100
0100
,
0010
1000
0100
1000
,
0010
0001
0100
0001
,
2002
0000
0000
3003
;
