#TITLE:Disney's Carnival;
#SUBTITLE:;
#ARTIST:Disney Grooves;
#TITLETRANSLIT:;
#SUBTITLETRANSLIT:;
#ARTISTTRANSLIT:;
#CREDIT:;
#BANNER:;
#BACKGROUND:;
#LYRICSPATH:;
#CDTITLE:./CDTITLES/DanceDanceRevolution Disney Grooves.png;
#MUSIC:Disney's Carnival.mp3;
#OFFSET:-0.396;
#SAMPLESTART:57.600;
#SAMPLELENGTH:15.000;
#SELECTABLE:YES;
#BPMS:0.000=130.000;
#STOPS:;
#BGCHANGES:;

//---------------dance-single - ----------------
#NOTES:
     dance-single:
     :
     Beginner:
     2:
     0.119,0.152,0.010,0.000,0.000:
0000
0000
0000
0000
,
0000
0000
0000
0000
,
0000
0000
0000
0000
,
0000
0000
0000
0000
,
0000
0000
0000
0000
,
0001
0000
0000
0000
,
1000
0000
0000
0000
,
0001
0000
0000
0000
,
1000
0000
0000
0000
,
0100
0000
0000
0000
,
0001
0000
0001
0000
,
0010
0000
0000
0000
,
1000
0000
1000
0000
,
0100
0000
0000
0000
,
0001
0000
0001
0000
,
0010
0000
0000
0000
,
1000
0000
0001
0000
,
0001
0000
0001
0000
,
1000
1000
1000
0000
,
1000
0000
1000
0000
,
0001
0001
0001
0000
,
0001
0000
0001
0000
,
1000
1000
1000
0000
,
1000
0000
0001
0000
,
1000
0000
0000
0000
,
0001
0000
0000
0000
,
0100
0000
0000
0000
,
0001
0000
0001
0000
,
0100
0000
0000
0000
,
1000
0000
1000
0000
,
0010
0010
0010
0000
,
1000
0000
0000
0000
,
0001
0000
0001
0000
,
0001
0000
0000
0000
,
1000
0000
1000
0000
,
1000
0000
0000
0000
,
0001
0000
0001
0000
,
1000
0000
0001
0000
,
0010
0010
0010
0000
,
0001
0000
0001
0000
,
1000
1000
1000
0000
,
1000
0000
1000
0000
,
0001
0001
0001
0000
,
0001
0000
0001
0000
,
1000
1000
1000
0000
,
1000
0000
0001
0000
,
0010
0000
0100
0000
,
0001
0000
1000
0000
,
0001
0000
0000
0000
,
1000
0000
0000
0000
,
0001
0000
0000
0000
,
1000
0000
1001
0000
;

//---------------dance-single - ----------------
#NOTES:
     dance-single:
     :
     Easy:
     3:
     0.149,0.177,0.010,0.000,0.000:
0000
0000
0000
0000
,
0000
0000
0000
0000
,
0000
0000
0000
0000
,
0000
0000
0000
0000
,
0000
0000
0000
0000
,
0001
0000
0000
0000
,
1000
0000
0000
0000
,
0001
0000
0001
0000
,
1000
0000
1000
0000
,
0100
0100
0000
0000
,
0001
0000
0001
0000
,
0010
0010
0000
0000
,
1000
0000
1000
0000
,
0100
0100
0000
0000
,
0001
0000
0001
0000
,
0010
0010
0000
0000
,
1000
0000
0001
0000
,
0001
0001
0001
0000
,
1000
1000
1000
0000
,
1000
1000
1000
0000
,
0001
0001
0001
0000
,
0001
0001
0001
0000
,
1000
1000
1000
0000
,
1000
0000
0001
0000
,
1000
0000
0000
0000
,
0001
0000
0000
0000
,
0100
0100
0000
0000
,
0001
0001
0000
0000
,
0100
0100
0000
0000
,
1000
0000
1000
0000
,
0010
0010
0010
0010
,
1000
0000
0000
0001
,
0001
0000
0001
0000
,
0001
0000
0000
1000
,
1000
0000
1000
0000
,
1000
0000
0000
0001
,
0001
0000
0001
0000
,
1000
0000
0001
0000
,
0010
0010
0010
0000
,
0001
0001
0001
0000
,
1000
1000
1000
0000
,
1000
1000
1000
0000
,
0001
0001
0001
0000
,
0001
0001
0001
0000
,
1000
1000
1000
0000
,
1000
0000
0001
0000
,
0010
0000
0100
0100
,
0001
0000
1000
0000
,
0001
0000
0000
0000
,
1000
0000
0000
0000
,
0001
0000
0010
0010
,
1000
0000
1001
0000
;

//---------------dance-single - ----------------
#NOTES:
     dance-single:
     :
     Medium:
     4:
     0.196,0.253,0.049,0.049,0.000:
0000
0000
0000
0000
,
0000
0000
0000
0000
,
0000
0000
0000
0000
,
0000
0000
0000
0000
,
0000
0000
0000
0000
,
0001
0000
0000
0000
,
1000
0000
0000
0010
,
1001
0000
0100
0001
,
0010
0100
1001
0000
,
0001
0001
1000
1000
,
0001
0100
1000
0000
,
0001
1000
0001
0001
,
1000
0000
1000
0000
,
1000
1000
0001
0001
,
1000
0100
0001
0000
,
1000
0001
1000
1000
,
0010
1000
0001
0001
,
0001
0000
1000
0000
,
0010
0010
0100
0100
,
1000
0000
0001
0000
,
0010
1000
0100
1000
,
0001
0000
1000
0000
,
0010
0010
0100
0100
,
0001
0000
1000
0001
,
1000
0000
0000
0000
,
0001
0000
0010
0000
,
0100
0001
1000
0000
,
0001
0100
1000
0000
,
0100
1000
0001
0000
,
0001
0001
1000
1000
,
0001
1000
0001
1000
,
2000
0000
0000
0000
,
0001
0001
0001
3000
,
0002
0000
0000
0000
,
1000
1000
1000
0003
,
2000
0000
0000
0000
,
0001
0001
0001
3000
,
0002
0000
2000
3003
,
0010
0010
0100
0100
,
0001
0000
1000
0000
,
0010
0010
0100
0100
,
1000
0000
0001
0000
,
0010
1000
0100
1000
,
0001
0000
1000
0000
,
0010
0010
0100
0100
,
0001
0001
1000
1000
,
1001
0000
0000
0000
,
0001
1000
0001
1000
,
0001
0000
0000
0000
,
1000
0000
0000
0010
,
1001
0000
0100
0000
,
0010
0000
1001
0000
;

//---------------dance-single - ----------------
#NOTES:
     dance-single:
     :
     Hard:
     6:
     0.262,0.329,0.226,0.069,0.000:
0000
0000
0000
0000
,
0000
0000
0000
0000
,
0000
0000
0000
0000
,
0000
0000
0000
0000
,
0000
0000
0000
0000
,
1001
0000
0000
0000
,
1001
0000
0000
0010
,
1001
0000
0100
0001
,
1000
0010
0100
1001
,
0100
0001
1000
0100
,
0001
0100
1000
0100
,
0010
1000
0001
0100
,
1000
1000
0001
0001
,
0010
1000
0001
0100
,
1000
0100
0001
0100
,
0010
0100
1000
0100
,
0010
1000
0001
1001
,
0001
0001
1000
1000
,
0010
0001
0100
0001
,
1000
1000
0001
0001
,
0110
1001
0110
1001
,
1000
1000
0001
0001
,
0010
1000
0100
1000
,
0001
1000
0001
1000
,
1001
0000
0000
0000
,
1001
0000
0010
0010
,
0100
0001
1000
1000
,
0001
0100
1000
0010
,
0100
1000
0001
0001
,
0010
0100
1000
0100
,
0001
1000
0001
1000
,
2001
0000
0000
0000
,
0001
0001
0001
3000
,
0002
0000
0000
0000
,
1000
1000
1000
0003
,
2001
0000
0000
0000
,
0001
0001
0001
3000
,
0220
0330
2002
3003
,
0010
1000
0100
0010
,
0001
0001
1000
1000
,
0010
0001
0100
0001
,
1000
1000
0001
0001
,
0110
1001
0110
1001
,
1000
1000
0001
0001
,
0010
1000
0100
1000
,
0001
0001
1000
1000
,
1000
0001
0100
0010
,
0001
1000
0001
1000
,
1001
0000
0000
0000
,
1001
0000
0000
0010
,
1001
0000
0010
1000
,
0100
0010
1001
0000
;
