#TITLE:Crazy 'Bout The Mouse;
#SUBTITLE:;
#ARTIST:Disney Grooves;
#TITLETRANSLIT:;
#SUBTITLETRANSLIT:;
#ARTISTTRANSLIT:;
#CREDIT:;
#BANNER:;
#BACKGROUND:;
#LYRICSPATH:;
#CDTITLE:./CDTITLES/DanceDanceRevolution Disney Grooves.png;
#MUSIC:Crazy 'Bout The Mouse.mp3;
#OFFSET:-0.081;
#SAMPLESTART:36.100;
#SAMPLELENGTH:15.000;
#SELECTABLE:YES;
#BPMS:0.000=118.000;
#STOPS:;
#BGCHANGES:;

//---------------dance-single - ----------------
#NOTES:
     dance-single:
     :
     Beginner:
     1:
     0.099,0.118,0.000,0.000,0.000:
0000
0000
0000
0000
,
0000
0000
0000
0000
,
0001
0000
0001
0000
,
0001
0000
0000
0000
,
1000
0000
1000
0000
,
1000
0000
0000
0000
,
0001
0000
0001
0000
,
0001
0000
0000
0000
,
1000
0000
1000
0000
,
1000
0000
0000
0000
,
0010
0000
0000
0000
,
0010
0000
0000
0000
,
0001
0000
0000
0000
,
0000
0000
0000
0000
,
0010
0000
0000
0000
,
0010
0000
0000
0000
,
1000
0000
0000
0000
,
0001
0000
0000
0000
,
1000
0000
1000
0000
,
1000
0000
0000
0000
,
0001
0000
0001
0000
,
0001
0000
0000
0000
,
0010
0000
0010
0000
,
0010
0000
0000
0000
,
1000
0000
1000
0000
,
1000
0000
0000
0000
,
0001
0000
0001
0000
,
0001
0000
0000
0000
,
1000
1000
0000
0000
,
0100
0000
0100
0000
,
0001
0001
0000
0000
,
0010
0000
0010
0000
,
1000
1000
0000
0000
,
0100
0000
0100
0000
,
0001
0000
0000
0000
,
0001
0000
0000
0000
,
0010
0000
0000
0000
,
0001
0000
0000
0000
,
1000
0000
0000
0000
,
0001
0001
0001
0000
,
0010
0000
0000
0000
,
1000
0000
0000
0000
,
0001
0000
0000
0000
,
0010
0010
0010
0000
,
0001
0001
0000
0000
,
0100
0000
0100
0000
,
1000
1000
0000
0000
,
0010
0000
0010
0000
,
0001
0001
0000
0000
,
0100
0000
0100
0000
,
0001
0000
0000
0000
,
1000
0000
0000
0000
,
0001
0001
0001
0000
;

//---------------dance-single - ----------------
#NOTES:
     dance-single:
     :
     Easy:
     3:
     0.127,0.141,0.000,0.000,0.000:
0000
0000
0000
0000
,
0000
0000
0000
0000
,
0001
0000
0001
0000
,
0001
0000
0001
0000
,
1000
0000
1000
0000
,
1000
0000
1000
0000
,
0001
0000
0001
0000
,
0001
0000
0001
0000
,
1000
0000
1000
0000
,
1000
0000
1000
0000
,
0010
0000
0010
0000
,
0010
0000
0000
0000
,
0001
0000
0001
0000
,
0000
0000
0000
0000
,
0010
0000
0010
0000
,
0010
0000
0000
0000
,
1000
0000
1000
0000
,
0001
0000
0000
0000
,
1000
0000
1000
0000
,
1000
0000
1000
0000
,
0001
0000
0001
0000
,
0001
0000
0001
0000
,
0010
0000
0010
0000
,
0010
0000
0010
0000
,
1000
0000
1000
0000
,
1000
0000
1000
0000
,
0001
0000
0001
0000
,
0001
0000
0000
0000
,
1000
1000
1000
0000
,
0100
0000
0100
0000
,
0001
0001
0001
0000
,
0010
0000
0010
0000
,
1000
1000
1000
0000
,
0100
0000
0100
0000
,
0001
0000
1000
0000
,
0001
0000
1000
0000
,
0010
0000
0000
0000
,
0001
0000
0000
0000
,
1000
0000
0000
0000
,
0001
0001
0001
0000
,
0010
0000
0000
0000
,
1000
0000
0000
0000
,
0001
0000
0000
0000
,
0010
0010
0010
0000
,
0001
0001
0001
0000
,
0100
0000
0100
0000
,
1000
1000
1000
0000
,
0010
0000
0010
0000
,
0001
0001
0001
0000
,
0100
0000
0100
0000
,
0001
0000
1000
0000
,
1000
0000
0001
0000
,
0001
0001
0001
0000
;

//---------------dance-single - ----------------
#NOTES:
     dance-single:
     :
     Medium:
     5:
     0.210,0.235,0.108,0.000,0.000:
0000
0000
0000
0000
,
0000
0000
0000
0000
,
0010
0000
0100
0000
,
1000
0001
0100
0000
,
0010
0000
0100
0000
,
0001
0010
0100
1000
,
0010
0000
0100
0000
,
0001
1000
0100
0000
,
0010
0000
0100
0000
,
1000
0010
0100
0001
,
0010
1000
0001
0000
,
0010
0000
0100
1000
,
0010
1000
0100
1000
,
1001
0000
0100
0100
,
0010
0001
1000
0000
,
0010
0000
0100
0001
,
0010
0001
0100
0001
,
1000
0001
0100
0000
,
0010
0000
0100
0000
,
1000
0001
0100
0000
,
0010
0000
0100
0000
,
0001
0010
0100
1000
,
0001
0000
1000
0000
,
0010
1000
0100
0000
,
1000
0000
0001
0000
,
0100
0001
0010
1000
,
0001
0100
0001
0100
,
0010
0000
0000
0000
,
1000
0000
1000
0000
1000
0000
0000
0100
,
0100
0000
0000
0010
0010
0000
0000
0000
,
0001
0001
0001
0000
,
0010
1001
0100
1001
,
1000
0000
1000
0000
1000
0000
0000
0010
,
0010
0000
0000
0100
0100
0000
0000
0000
,
1000
0001
0010
0001
,
1000
0010
0100
0000
,
0010
0000
0000
0010
0000
0000
0000
0000
,
0001
0000
0000
0001
0000
0000
0000
0000
,
1000
0000
0000
1000
0000
0000
0000
0000
,
0110
1001
0110
0000
,
0010
0000
0000
0010
0000
0000
0000
0000
,
1000
0000
0000
1000
0000
0000
0000
0000
,
0001
0000
0000
0001
0000
0000
0000
0000
,
0110
1001
0110
0000
,
0001
0000
0001
0000
0001
0000
0000
0100
,
0100
0000
0000
0010
0010
0000
0000
0000
,
1000
1000
1000
0000
,
0010
1001
0100
1001
,
0001
0000
0001
0000
0001
0000
0000
0010
,
0010
0000
0000
0100
0100
0000
0000
0000
,
0001
1000
0010
1000
,
0001
0010
0100
0000
,
1000
0001
1001
0000
;

//---------------dance-single - ----------------
#NOTES:
     dance-single:
     :
     Hard:
     7:
     0.284,0.305,0.296,0.000,0.040:
0000
0000
0000
0000
,
0000
0000
0000
0000
,
0010
0010
0100
0100
,
0001
1000
1100
0000
,
0010
0010
0100
0100
,
1000
0010
0100
0001
,
0010
0010
0100
0100
,
1000
0001
0101
0000
,
0010
0010
0100
0100
,
0001
0010
0100
1000
,
0010
0000
0001
0000
1000
0001
0100
0000
,
0010
0000
1000
0100
,
0010
1100
0010
0101
,
1000
0000
0000
0000
0001
0100
1000
0000
,
0010
0000
1000
0000
0001
1000
0100
0000
,
0010
0000
0001
0100
,
0010
0101
0010
1100
,
0010
0100
1001
0000
,
0010
0010
0100
0100
,
0001
1000
1100
0000
,
0010
0010
0100
0100
,
1000
0010
0100
0001
,
1000
1000
0001
0001
,
0010
0001
1000
0000
,
0001
0001
1000
1000
,
0100
1000
0010
0001
,
1000
0100
1000
0100
,
0010
0000
0000
0010
0000
0000
0010
0000
0000
0010
0000
0000
0000
0000
0000
0000
,
0001
0000
0000
0001
0000
0000
0001
0000
0100
0000
0000
0000
0010
0000
1000
0000
,
0010
0000
0000
0001
0010
0000
0000
0000
,
1000
0000
0000
1000
0000
0000
1000
0000
0100
0000
0000
0000
0000
0000
0000
0000
,
0010
1001
0110
1001
,
0001
0000
0000
0001
0000
0000
0001
0000
0100
0000
0000
0000
0000
0000
1000
0000
,
0010
0000
0000
0001
0010
0000
0000
0000
,
0001
1000
0010
1000
,
0001
0010
0100
0000
,
1010
0000
0000
1010
0000
0000
0001
0000
,
1100
0000
0000
1100
0000
0000
0100
0000
,
0011
0000
0000
0011
0000
0000
1000
0000
,
0110
1001
0110
0000
,
0011
0000
0000
0011
0000
0000
1000
0000
,
0101
0000
0000
0101
0000
0000
0100
0000
,
1010
0000
0000
1010
0000
0000
0001
0000
,
0110
1001
0110
0000
,
1000
0000
0000
1000
0000
0000
1000
0000
0100
0000
0000
0000
0000
0000
0001
0000
,
0010
0000
0000
1000
0010
0000
0000
0000
,
0001
0000
0000
0001
0000
0000
0001
0000
0100
0000
0000
0000
0000
0000
0000
0000
,
0010
1001
0110
1001
,
1000
0000
0000
1000
0000
0000
1000
0000
0100
0000
0000
0000
0000
0000
0001
0000
,
0010
0000
0000
1000
0010
0000
0000
0000
,
1000
0001
0010
0001
,
1000
0010
0100
0000
,
0001
0000
0000
1000
0000
0000
1001
0000
0000
0000
0000
0000
0000
0000
0000
0000
;
