#TITLE:WHO SAID;
#SUBTITLE:;
#ARTIST:HANNAH MONTANA;
#TITLETRANSLIT:;
#SUBTITLETRANSLIT:;
#ARTISTTRANSLIT:;
#CREDIT:;
#BANNER:WHO SAID.png;
#BACKGROUND:WHO SAID-bg.png;
#LYRICSPATH:;
#CDTITLE:./CDTITLES/Dance Dance Revolution Disney Channel Edition.png;
#MUSIC:WHO SAID.mp3;
#OFFSET:-0.107;
#SAMPLESTART:48.785;
#SAMPLELENGTH:15.000;
#SELECTABLE:YES;
#BPMS:0.000=133.000;
#STOPS:;
#BGCHANGES:;

//---------------dance-single - ----------------
#NOTES:
     dance-single:
     :
     Beginner:
     1:
     0.102,0.162,0.068,0.000,0.000:
0000
0000
0000
0000
,
0000
0000
0000
0000
,
0000
0000
0000
0000
,
0000
0000
0000
0000
,
0100
0000
0000
0000
,
0001
0000
0000
0000
,
0010
0000
0000
0000
,
1000
0000
1000
0000
,
0100
0000
0000
0000
,
1000
0000
0000
0000
,
0001
0000
0000
0000
,
0010
0000
1000
0000
,
0010
0000
0000
0000
,
0100
0000
0000
0000
,
0001
0000
0000
0000
,
1000
0000
0000
0000
,
0010
0000
0000
0000
,
0100
0000
0000
0000
,
0010
0000
0000
0000
,
0001
0000
0000
0000
,
1000
0000
0000
0000
,
0010
0000
0000
0000
,
0100
0000
0000
0000
,
0001
0000
0000
0000
,
0010
0000
0000
0000
,
0100
0000
0000
0000
,
1000
0000
1000
0000
,
0110
0000
0000
0000
,
1000
0000
0000
0000
,
0001
0000
0000
0000
,
0100
0000
0000
0000
,
0110
0000
0000
0000
,
0001
0000
0000
0000
,
1000
0000
0000
0000
,
0100
0000
0000
0000
,
0010
0000
0010
0000
,
0100
0000
0000
0000
,
1000
0000
1000
0000
,
0001
0000
0000
0000
,
1001
0000
0000
0000
,
0001
0000
0000
0000
,
1000
0000
0000
0000
,
0100
0000
0000
0000
,
1001
0000
0000
0000
,
1001
0000
0000
0000
,
0110
0000
0000
0000
,
0110
0000
0000
0000
,
1000
0000
0100
0000
,
0010
0000
0001
0000
,
0001
0000
0001
0000
,
0010
0000
0010
0000
,
0100
0000
1000
0000
,
0001
0000
1000
0000
,
1000
0000
0100
0000
,
0010
0000
0001
0000
,
0001
0000
1000
0000
;

//---------------dance-single - ----------------
#NOTES:
     dance-single:
     :
     Easy:
     3:
     0.166,0.216,0.127,0.000,0.000:
0000
0000
0000
0000
,
0000
0000
0000
0000
,
0000
0000
0000
0000
,
0000
0000
0000
0000
,
0010
0000
0100
0000
,
1000
0000
0100
0000
,
1000
0000
0010
0000
,
0100
0000
0001
0000
,
1000
0000
0010
0000
,
0001
0000
1000
0000
,
0001
0000
1000
0000
,
0100
0000
0001
0000
,
1001
0000
0010
0000
,
0100
0000
1000
0000
,
1001
0000
0010
0000
,
0100
0000
0001
0000
,
1000
0000
0010
0000
,
0100
0001
0000
0000
,
0010
0000
0100
0000
,
1000
0000
0110
0000
,
0001
0000
1001
0000
,
0100
0000
0010
0000
,
0001
1000
0010
0000
,
0110
0000
1000
0000
,
1001
0000
0100
0000
,
0010
0000
1000
0000
,
0001
0000
0100
0000
,
1001
0000
0010
0000
,
0100
0000
1000
0000
,
1001
0000
0100
0000
,
0001
0000
0010
0000
,
1001
0000
0010
0000
,
0100
0000
1000
0000
,
0110
0000
1000
0000
,
0010
0000
0001
0000
,
0110
0000
0001
0000
,
0010
0000
1000
0000
,
0010
0000
0100
0000
,
0010
0000
0001
0000
,
0100
0000
0010
0000
,
0001
0000
1000
0000
,
0100
0000
0001
0000
,
0010
0000
1000
0000
,
0100
0000
0010
0000
,
0001
0000
1000
0000
,
0100
0000
0010
0000
,
0001
0000
1000
0000
,
0001
0000
0100
0000
,
0010
0000
1000
0000
,
0110
0000
1000
0000
,
0110
0000
0001
0001
,
1000
0000
0010
0000
,
0100
0000
0001
0000
,
0010
0000
0100
0000
,
1000
0000
0001
0000
,
0100
0000
1000
0000
;

//---------------dance-single - ----------------
#NOTES:
     dance-single:
     :
     Medium:
     4:
     0.212,0.245,0.000,0.000,0.000:
0000
0000
0000
0000
,
0000
0000
0000
0000
,
0000
0000
0000
0000
,
0000
0000
0010
0100
,
0010
0000
0001
0000
,
1000
0010
0100
0000
,
1000
0000
0001
0000
,
0100
0010
0001
0000
,
1000
0000
0100
0000
,
0010
0001
1000
0000
,
0010
0000
0100
0000
,
0001
0100
1000
0000
,
0100
0000
0001
0000
,
0010
0100
1000
0000
,
0010
0000
0100
0000
,
0001
0010
1000
0000
,
1000
0000
0010
0000
,
0001
0100
1000
0000
,
1000
0000
0010
0000
,
0100
0000
0001
0000
,
0010
0000
0100
0000
,
1000
0010
0100
0000
,
0001
0010
0100
0000
,
1000
0000
0001
0000
,
0100
0010
1000
0000
,
0100
0010
0001
1000
,
0010
0000
0100
0000
,
0001
0001
1000
0000
,
1000
1000
0010
0000
,
0100
0100
0001
0000
,
0010
0010
0100
0000
,
1000
0010
1000
0000
,
0001
0100
0001
0000
,
0100
0010
1000
0000
,
0100
0010
0001
0000
,
1000
0001
1000
0000
,
0001
1000
0001
0001
,
0010
0000
0100
0000
,
0010
1000
0001
0100
,
0001
0001
1000
0000
,
1000
1000
0100
0000
,
0010
0010
0001
0000
,
0100
0100
0010
0000
,
1000
0010
0100
0001
,
0010
0100
1000
0100
,
0001
0100
1000
0010
,
0001
0010
1000
0100
,
0010
0010
0001
1000
,
0100
0100
1000
0010
,
0100
0000
0001
0000
,
1000
0000
0010
0100
,
0001
0000
0010
0000
,
0100
0000
1000
0010
,
0100
0000
0001
0000
,
0010
1000
0010
0000
,
0001
0100
0010
1000
;

//---------------dance-single - ----------------
#NOTES:
     dance-single:
     :
     Hard:
     7:
     0.398,0.409,0.351,0.000,0.000: // measure 1
0000
0000
0000
0000
,  // measure 2
0000
0000
0000
0000
,  // measure 3
0000
0000
0000
0000
,  // measure 4
0000
0000
0000
0000
0000
0010
0001
0010
,  // measure 5
0001
1000
0010
0100
,  // measure 6
1000
0000
0001
0000
0010
0001
0010
0000
,  // measure 7
0100
1000
0010
0100
,  // measure 8
0001
0000
0010
0000
1000
0100
1000
0000
,  // measure 9
0010
0000
0100
0000
0001
1000
0001
0000
,  // measure 10
0010
0000
0100
0000
1000
0001
1000
0000
,  // measure 11
0010
0000
0100
0000
0001
0010
0001
0000
,  // measure 12
1000
0100
1000
0000
0010
1000
0001
0000
,  // measure 13
0100
1000
0010
0100
,  // measure 14
0001
0000
0010
0000
0100
1000
0100
0000
,  // measure 15
1000
0001
1000
1000
,  // measure 16
0010
0000
0100
0000
0001
0010
0001
0000
,  // measure 17
0010
0100
1000
1000
,  // measure 18
0001
1000
0010
0010
,  // measure 19
0100
0010
0100
0000
1000
0001
1000
0000
,  // measure 20
0001
0010
0001
0000
0010
0000
0100
0000
,  // measure 21
1000
0010
1000
0000
0100
0000
0010
0000
,  // measure 22
0001
0100
0001
0000
1000
0000
0010
0000
,  // measure 23
0100
0010
0100
0000
1000
0000
0100
0000
,  // measure 24
0001
0010
0001
0000
0100
0000
1000
0000
,  // measure 25
0100
0001
0010
0000
0100
0000
1000
0000
,  // measure 26
0010
1000
0010
0000
0001
0100
0001
0000
,  // measure 27
0010
0100
1000
1001
,  // measure 28
1001
0011
0100
1000
,  // measure 29
1010
0100
0110
0100
,  // measure 30
0011
1100
0001
1010
,  // measure 31
0101
0100
0010
1000
,  // measure 32
0110
1001
0100
0110
,  // measure 33
1001
0100
0001
0010
,  // measure 34
1001
0110
1000
1001
,  // measure 35
0110
1000
0010
0100
,  // measure 36
0001
0010
0100
0100
,  // measure 37
1000
0000
0010
0000
0000
1100
0000
1100
,  // measure 38
0010
0000
0100
0000
0001
0010
0001
0000
,  // measure 39
0100
1000
0100
0000
0010
1000
0010
1000
,  // measure 40
1001
1100
0010
0001
,  // measure 41
0101
0010
0110
0010
,  // measure 42
1100
0011
1000
0101
,  // measure 43
1010
0010
0100
0001
,  // measure 44
0110
1001
0010
0110
,  // measure 45
1001
0010
1000
0100
,  // measure 46
1001
0110
0001
1001
,  // measure 47
0110
0000
0001
0000
0100
0000
0010
0010
,  // measure 48
1000
0000
0010
0000
0100
0001
0100
0000
,  // measure 49
1000
0010
1000
0000
0001
0100
0010
1000
,  // measure 50
0100
0000
0010
0000
1000
0001
0100
0000
,  // measure 51
0010
1000
0010
0100
0001
0000
0010
0000
,  // measure 52
0001
0000
0010
0000
0100
1000
0010
0000
,  // measure 53
1000
0010
0100
0001
0010
0000
0100
0000
,  // measure 54
1000
0000
0010
0000
1000
0010
1000
0000
,  // measure 55
0001
0100
0001
0000
0010
0100
1000
0000
,  // measure 56
0010
0000
0110
0000
0001
0010
0100
1000
;

//---------------dance-double - ----------------
#NOTES:
     dance-double:
     :
     Easy:
     3:
     0.170,0.216,0.156,0.000,0.000:
00000000
00000000
00000000
00000000
,
00000000
00000000
00000000
00000000
,
00000000
00000000
00000000
00000000
,
00000000
00000000
00000000
00000000
,
00100000
00000000
00010000
00000000
,
00001000
00000000
00000010
00000000
,
00000001
00000000
00000010
00000000
,
00000100
00000000
00010000
00000000
,
00001000
00000000
00100000
00000000
,
00010000
00000000
10000000
00000000
,
01000000
00000000
00100000
00000000
,
00010000
00000000
00001000
00000000
,
00011000
00000000
00000100
00000000
,
00000010
00000000
00000001
00000000
,
00000110
00000000
00001000
00000000
,
00010000
00000000
00100000
00000000
,
10000000
00000000
01000000
00000000
,
00010000
00000000
00001000
00000000
,
00000010
00000000
00000100
00000000
,
00000001
00000000
00001001
00000000
,
00000100
00000000
00011000
00000000
,
00100000
00000000
01000000
00000000
,
00010000
10000000
00100000
00000000
,
01100000
00000000
00010000
00000000
,
00011000
00000000
00000100
00000000
,
00000010
00000000
00000001
00000000
,
00000100
00000000
00000010
00000000
,
00011000
00000000
00000100
00000000
,
00011000
00000000
01000000
00000000
,
10010000
00000000
01000000
00000000
,
00100000
00000000
00001000
00000000
,
00000110
00000000
00000001
00000000
,
00000100
00000000
00001000
00000000
,
00011000
00000000
01000000
00000000
,
00100000
00000000
10000000
00000000
,
01100000
00000000
00010000
00000000
,
00001000
00000000
00000100
00000000
,
00000001
00000000
00000100
00000000
,
00000010
00000000
00001000
00000000
,
00010000
00000000
00100000
00000000
,
01000000
00000000
10000000
00000000
,
01000000
00000000
00010000
00000000
,
00001000
00000000
00000100
00000000
,
00000010
00000000
00000001
00000000
,
00000010
00000000
00001000
00000000
,
00100000
00000000
01000000
00000000
,
10000000
00000000
01000000
00000000
,
00010000
00000000
00001000
00000000
,
00000010
00000000
00000100
00000000
,
00000110
00000000
00000001
00000000
,
00001001
00000000
00000100
00010000
,
00001000
00000000
00011000
00000000
,
01000000
00000000
00100000
00000000
,
10010000
00000000
01000000
00000000
,
10000000
00000000
00100000
00000000
,
00010000
00000000
00001000
00000000
;

//---------------dance-double - ----------------
#NOTES:
     dance-double:
     :
     Medium:
     5:
     0.212,0.245,0.000,0.000,0.000:
00000000
00000000
00000000
00000000
,
00000000
00000000
00000000
00000000
,
00000000
00000000
00000000
00000000
,
00000000
00000000
10000000
01000000
,
00100000
00000000
00010000
00000000
,
00001000
00000010
00000010
00000000
,
00000010
00000000
00000001
00000000
,
00000100
00001000
00001000
00000000
,
00010000
00000000
01000000
00000000
,
00100000
10000000
10000000
00000000
,
00100000
00000000
01000000
00000000
,
00001000
00010000
00100000
00000000
,
00010000
00000000
00001000
00000000
,
00000100
00000010
00001000
00000000
,
00000001
00000000
00000100
00000000
,
00000010
00000100
00010000
00000000
,
01000000
00000000
00100000
00000000
,
10000000
01000000
00100000
00000000
,
00001000
00000000
00010000
00000000
,
00000100
00000000
00000010
00000000
,
00000001
00000000
00000100
00000000
,
00000010
00000100
00001000
00000000
,
00010000
00100000
01000000
00000000
,
10000000
00000000
00010000
00000000
,
00100000
00001000
00010000
00000000
,
00000010
00010000
00001000
00000000
,
00000100
00001000
00000001
00000000
,
00000010
00000100
00001000
00000000
,
00000100
00010000
00001000
00000000
,
00100000
00100000
00010000
00000000
,
01000000
01000000
10000000
00000000
,
01000000
00010000
01000000
00000000
,
00001000
00010000
00001000
00000000
,
00000010
00000001
00001000
00000000
,
00000100
00000010
00001000
00000000
,
00000100
00010000
00001000
00000000
,
00010000
01000000
00100000
10000000
,
00100000
00000000
01000000
00000000
,
00010000
00001000
00000100
00001000
,
00000010
00000100
00000001
00000000
,
00000010
00000010
00001000
00000000
,
00001000
00001000
00010000
00000000
,
01000000
01000000
00100000
00000000
,
10000000
00100000
01000000
00010000
,
00100000
00001000
00010000
00000100
,
00001000
00000100
00000001
00000100
,
00010000
00001000
00100000
00010000
,
10000000
00100000
01000000
00010000
,
01000000
00001000
00010000
00000010
,
00000100
00000001
00000100
00000000
,
00010000
00000000
00001000
00100000
,
00001000
00000000
01000000
00000000
,
00010000
00000000
10000000
01000000
,
00010000
00000000
00001000
00000000
,
00000100
00000100
00000000
00000000
,
00000010
00000001
00000100
00001000
;

//---------------dance-double - ----------------
#NOTES:
     dance-double:
     :
     Hard:
     7:
     0.396,0.436,0.341,0.000,0.000:
00000000
00000000
00000000
00000000
,
00000000
00000000
00000000
00000000
,
00000000
00000000
00000000
00000000
,
00000000
00000000
00000000
00000000
00000000
00100000
00001000
00100000
,
00001000
00010000
00000010
00000100
,
00001000
00000000
00000010
00000000
00000100
00000001
00000100
00000000
,
00001000
00010000
01000000
00100000
,
10000000
00000000
00100000
00000000
01000000
00010000
01000000
00000000
,
00100000
00000000
01000000
00000000
00001000
00010000
00001000
00000000
,
00000010
00000000
00000100
00000000
00001000
00000001
00001000
00000000
,
00000010
00000000
00000100
00000000
00000001
00000100
00000001
00000000
,
00001000
00000100
00010000
00000000
00001000
01000000
00010000
00000000
,
10000000
00010000
00100000
01000000
,
10000000
00000000
00100000
00000000
01000000
00001000
00010000
00000000
,
00000100
00010000
00001000
00000100
,
00000001
00000000
00000100
00000000
00001000
00000100
00001000
00000000
,
00000010
00010000
00001000
01000000
,
00010000
00000000
10000000
00000000
00100000
01000000
00100000
00000000
,
01000000
00001000
00010000
00000000
00000100
00001000
00000001
00000000
,
00000010
00001000
00000010
00000000
00001000
00000000
00000100
00000000
,
00010000
00001000
00010000
00000000
00001000
00000000
00100000
00000000
,
01000000
10000000
01000000
00000000
00100000
00000000
00001000
00000000
,
00010000
00001000
00010000
00000000
00000100
00000000
00001000
00000000
,
00000010
00000100
00000010
00000000
00000100
00000000
00000001
00000000
,
00000010
00000100
00001000
00000000
00000010
00000000
00010000
00000000
,
00001000
00100000
00010000
00000000
00010000
01000000
10000000
00000000
,
00100000
01000000
00001000
00010000
,
00011000
00001100
00000010
00000001
,
00000110
00010100
00011000
01000000
,
11000000
01010000
00100000
00110000
,
00011000
00000100
00000010
00000001
,
00001001
00000110
00010000
00011000
,
00110000
01000000
10000000
01000000
,
01010000
00011000
00010000
00010010
,
00001100
00000010
00000001
00000100
,
00010000
00001000
01000000
00100000
,
00010000
00000000
10000000
00000000
00000000
00100000
00000000
00010000
,
00001000
00000000
00000100
00000000
00000010
00000001
00000010
00000000
,
00000100
00001000
00000100
00000000
00010000
00001000
00100000
00010000
,
10010000
11000000
00100000
00001000
,
00011000
00010000
00001100
00000010
,
00000101
00000011
00001000
00011000
,
01010000
00100000
10000000
00100000
,
01010000
11000000
00100000
00110000
,
00011000
00000100
00000010
00000001
,
00001001
00000110
00001000
00010000
,
00110000
00000000
01000000
00000000
10000000
00000000
01000000
00100000
,
10000000
00000000
01000000
00000000
00100000
00010000
00100000
00000000
,
00001000
00010000
00001000
00000000
00000010
00000100
00000001
00000100
,
00001000
00000000
00011000
00000000
00010000
01000000
10000000
00000000
,
00100000
10000000
00100000
00000000
00001000
00000000
00010000
00000000
,
00001000
00000000
00000010
00000000
00000100
00000001
00000010
00000000
,
00000100
00001000
00000100
00000000
00000010
00000000
00001100
00000000
,
00010000
00000000
00100000
00000000
10000000
00100000
10000000
00000000
,
00010000
01000000
00001000
00000000
00010000
00001000
00100000
00000000
,
00000100
00000000
00011000
00000000
00000010
00000100
00000001
00001000
;
