#TITLE:VERTICAL;
#SUBTITLE:;
#ARTIST:JUMP IN;
#TITLETRANSLIT:;
#SUBTITLETRANSLIT:;
#ARTISTTRANSLIT:;
#CREDIT:;
#BANNER:VERTICAL.png;
#BACKGROUND:VERTICAL-bg.png;
#LYRICSPATH:;
#CDTITLE:./CDTITLES/Dance Dance Revolution Disney Channel Edition.png;
#MUSIC:VERTICAL.mp3;
#OFFSET:-0.028;
#SAMPLESTART:54.724;
#SAMPLELENGTH:15.000;
#SELECTABLE:YES;
#BPMS:0.000=114.000;
#STOPS:;
#BGCHANGES:;

//---------------dance-single - ----------------
#NOTES:
     dance-single:
     :
     Beginner:
     1:
     0.105,0.140,0.122,0.000,0.000:
0000
0000
0000
0000
,
0000
0000
0000
0000
,
1000
0000
0000
0000
,
0001
0000
0000
0000
,
1001
0000
0000
0000
,
0001
0001
0000
0000
,
1000
1000
0000
0000
,
0010
0010
0000
0000
,
0110
0000
0000
0000
,
0010
0010
0000
0000
,
0100
0100
0000
0000
,
0010
0010
0000
0000
,
0001
0000
0000
0000
,
1000
0000
0000
0000
,
0100
0000
0000
0000
,
0010
0000
0000
0000
,
0001
0000
0000
0000
,
0100
0000
0000
0000
,
0010
0000
0000
0000
,
1000
0000
0000
0000
,
0010
0010
0000
0000
,
0100
0100
0000
0000
,
0001
0000
0000
0000
,
1000
0000
0000
0000
,
0001
0000
0001
0000
,
1000
0000
1000
0000
,
1001
0000
0000
0000
,
0010
0010
0000
0000
,
0110
0000
0000
0000
,
0100
0100
0000
0000
,
0001
0000
0000
0000
,
1000
0000
0000
0000
,
1001
0000
0000
0000
,
0110
0000
0000
0000
,
1001
0000
0000
0000
,
0100
0100
0000
0000
,
0110
0000
0000
0000
,
0010
0010
0000
0000
,
1000
0000
0000
0000
,
0001
0000
0000
0000
,
1001
0000
0000
0000
,
0110
0000
0000
0000
,
0110
0000
0000
0000
;

//---------------dance-single - ----------------
#NOTES:
     dance-single:
     :
     Easy:
     3:
     0.235,0.256,0.266,0.000,0.000:
0000
0000
0000
0000
,
0000
0000
0000
0000
,
0010
0000
1000
0000
,
0001
0000
0100
1001
,
1000
0100
0000
0010
,
0001
0100
0000
0010
,
1000
0001
0010
0000
,
0001
1000
0000
0100
,
0010
0000
0100
1000
,
0010
0000
0100
0001
,
1000
0010
0001
0010
,
0001
0010
1000
0110
,
1001
1000
0000
0001
,
0001
0100
0000
0010
,
0010
1000
0000
0100
,
0100
1000
0001
0110
,
1001
0010
0000
1000
,
1000
0100
0000
0010
,
0010
0001
0000
0100
,
0100
0001
1000
1001
,
0000
1000
0000
0001
,
0000
0010
0000
0100
,
1000
0010
0000
0100
,
0001
0010
0000
0100
,
1000
0010
0001
0100
,
1000
0001
1000
1001
,
0110
0000
0110
0000
,
1000
0100
0001
0100
,
1001
0000
1001
0000
,
0010
0001
0010
1000
,
0010
0010
0100
0100
,
1000
1000
0001
0001
,
0110
0000
0110
0000
,
1001
0000
1001
0000
,
0110
0000
0110
0000
,
0001
0010
1000
0010
,
1001
0000
1001
0000
,
0100
1000
0100
0001
,
0100
0100
0010
0010
,
0001
0001
1000
1000
,
0110
0000
0110
0000
,
1001
0000
1001
0000
,
0110
0000
0000
0000
;

//---------------dance-single - ----------------
#NOTES:
     dance-single:
     :
     Medium:
     4:
     0.323,0.349,0.410,0.000,0.000:
0000
0000
0000
0000
,
0000
0000
0000
0000
,
0010
1000
0001
0100
,
1000
0100
0001
0110
,
0100
1000
0001
0100
,
0010
0010
1000
0001
,
0010
0001
0100
0010
,
1000
0100
0010
1001
,
0010
1000
0001
0010
,
0100
0100
1000
0001
,
0010
0001
1000
0001
,
0100
0001
1000
1001
,
0110
0000
1001
0000
0001
0001
1000
0000
,
1001
0000
0110
0000
0100
0100
0010
0000
,
1000
0100
0001
0100
,
0010
0001
1000
1001
,
0110
0000
0110
0000
1000
1000
0001
0000
,
1001
0000
1001
0000
0010
0010
0100
0000
,
0001
1000
0010
0100
,
0001
1000
0100
1001
,
1000
0100
0010
0001
,
0100
1000
0010
0001
,
1000
0100
1000
1100
,
0001
0100
0001
0101
,
0100
0010
1000
0001
,
1000
1000
0001
0001
1000
0000
1001
0000
,
0110
0110
0010
0100
,
0001
0010
0100
1000
,
1001
1001
0001
1000
,
0010
1000
0100
0001
,
0100
0010
0001
0011
,
0100
0010
1000
1010
,
0101
1010
1000
0100
,
1100
0011
0001
0100
,
0110
0110
0100
0010
,
1000
0100
0010
0001
,
1001
1001
1000
0001
,
0100
0001
0010
1000
,
0010
0100
1000
1100
,
0010
0100
0001
0101
,
1010
0101
0001
0010
,
0011
1100
1000
0010
,
0110
0000
0000
0000
;

//---------------dance-single - ----------------
#NOTES:
     dance-single:
     :
     Hard:
     6:
     0.387,0.349,0.233,0.022,0.000: // measure 1
0000
0000
0000
0000
,  // measure 2
0000
0000
0000
0000
,  // measure 3
1000
0001
0100
0000
0010
1000
0001
0000
,  // measure 4
1000
0100
0010
0000
0001
1000
1001
0000
,  // measure 5
0010
0000
1000
0100
0000
0001
0100
0000
,  // measure 6
0010
1000
0100
0010
0000
0001
1000
0000
,  // measure 7
0100
0000
1000
0010
0000
0001
0010
0000
,  // measure 8
0100
0001
0010
0100
0000
2002
0000
3003
,  // measure 9
1001
0000
0010
0100
0000
0001
1000
0000
,  // measure 10
0001
0001
1000
1000
0000
0010
0100
0000
,  // measure 11
0001
0000
0010
0100
0000
1000
0010
0000
,  // measure 12
0001
0010
0100
0010
0000
1000
1010
0000
,  // measure 13
0101
0000
0010
0000
1000
0100
0001
0000
,  // measure 14
0100
0000
1000
0000
0010
1000
0100
0000
,  // measure 15
0001
0000
0100
0000
1000
0010
0001
0000
,  // measure 16
0010
1000
0001
0100
0000
0010
0001
0000
,  // measure 17
0010
0000
1000
0000
0001
1000
0100
0000
,  // measure 18
0010
0000
0001
0000
1000
0100
0010
0000
,  // measure 19
0100
0000
0001
0000
1000
0001
0010
0000
,  // measure 20
0100
0100
1000
0001
0000
0010
0010
0000
,  // measure 21
0001
0000
0100
1000
0000
0000
0100
0001
,  // measure 22
0000
0010
0000
1000
0000
0100
0000
0001
,  // measure 23
0010
1000
0010
0001
0000
1000
0100
0000
,  // measure 24
0001
0010
0001
0100
0000
0010
1000
0000
,  // measure 25
0001
0000
0100
0100
0010
0010
0100
0000
,  // measure 26
1000
0001
1000
0001
1000
0000
0110
0000
,  // measure 27
1001
0000
0110
0000
0100
1000
0010
0000
,  // measure 28
0010
1000
0100
1000
0000
0001
0100
0000
,  // measure 29
0101
0000
1010
0000
0010
1000
0100
0000
,  // measure 30
0010
0001
0100
0001
0000
1000
0010
0000
,  // measure 31
1000
0100
0000
0001
0010
0000
0001
1000
,  // measure 32
0001
0100
0010
0100
0010
0000
0110
0000
,  // measure 33
1001
0000
0110
0000
0100
0001
0010
0000
,  // measure 34
0100
1000
0010
0000
0010
1000
0001
0000
,  // measure 35
1001
0000
0110
0000
0010
0001
0100
0000
,  // measure 36
0100
0001
0010
0001
0000
1000
0010
0000
,  // measure 37
1010
0000
0101
0000
0100
0001
0010
0000
,  // measure 38
0100
1000
0010
1000
0000
0001
0100
0000
,  // measure 39
0001
0010
0000
1000
0100
0000
1000
0001
,  // measure 40
1000
0010
0100
0010
0100
0000
0110
0000
,  // measure 41
1001
0000
0110
0000
0010
1000
0100
0000
,  // measure 42
0010
0001
0100
0000
0100
0001
1000
0000
,  // measure 43
0110
0000
0000
0000
;

//---------------dance-double - ----------------
#NOTES:
     dance-double:
     :
     Easy:
     3:
     0.222,0.326,0.222,0.067,0.000:
00000000
00000000
00000000
00000000
,
00000000
00000000
00000000
00000000
,
00100000
00000000
00010000
00000000
,
00001000
00000000
00000100
00001001
,
00000001
00001000
00000000
00000100
,
00001000
00001000
00000000
00000010
,
00010000
00001000
00000000
00010000
,
00001000
00100000
00000000
00010000
,
10000000
00010000
00000000
01000000
,
00010000
00010000
00100000
00000000
,
00001000
00010000
00000000
00001000
,
00010000
00000010
00000000
00000110
,
00000000
00000001
00000000
00000010
,
00000000
00000010
00000000
00000100
,
00000000
00000100
00000000
00001000
,
00001000
00000001
00000100
00000010
,
00000000
00010000
00000000
00001000
,
00000000
00001000
00000000
01000000
,
00000000
01000000
00000000
00100000
,
00100000
10000000
00010000
01000000
,
00020000
00000000
02030000
00000000
,
03002000
00000000
00023000
00000000
,
00031000
00000100
00000010
00000000
,
00000001
00000010
00000100
00000000
,
00000002
00000000
00002003
00000000
,
00003001
00001000
00000001
00000110
,
00001001
00001001
00000001
00001000
,
00000010
00000000
00010000
00000000
,
00011000
00011000
00001000
00010000
,
00100000
00000000
10000000
00000000
,
00010000
00000000
10000000
00000000
,
01000000
00000000
00100000
00000000
,
01100000
01100000
00010000
10000000
,
10010000
10010000
00100000
01000000
,
10010000
10010000
10000000
00010000
,
01000000
00000000
00001000
00000000
,
00011000
00011000
00010000
00001000
,
00000100
00000000
00000001
00000000
,
00001000
00000000
00000001
00000000
,
00000010
00000000
00000100
00000000
,
00000110
00000110
00001000
00000001
,
00001001
00001001
00000100
00000010
,
00000110
00000000
00000000
00000000
;

//---------------dance-double - ----------------
#NOTES:
     dance-double:
     :
     Medium:
     4:
     0.314,0.326,0.277,0.000,0.000:
00000000
00000000
00000000
00000000
,
00000000
00000000
00000000
00000000
,
00100000
10000000
00010000
01000000
,
00001000
00010000
00001000
00011000
,
00001000
00000100
00000001
00000010
,
00000001
00000000
00001000
00000000
00000000
00000001
00001000
00000000
,
00000010
00000000
00000100
00000000
00001000
00010000
00001000
00000000
,
00010000
01000000
10000000
01100000
,
10010000
00010000
01000000
00100000
,
10000000
00000000
00010000
00000000
00000000
10000000
00010000
00000000
,
01000000
00000000
00100000
00000000
00010000
00001000
00010000
00000000
,
00001000
00000100
00000110
00001001
,
00000110
00000000
00000010
00000000
00000100
00000100
00000001
00000000
,
00000010
00000000
00001000
00000000
00010000
00010000
00001000
00000000
,
00010000
00000000
00100000
00000000
01000000
01000000
10000000
00000000
,
01000000
00000000
00010000
00000000
00000000
00010000
01000000
00000000
,
00100000
00000000
10000000
00000000
01000000
00010000
01000000
00000000
,
00010000
00000000
00001000
00000000
00000100
00000001
00000100
00000000
,
00000010
00000000
00000100
00000000
00000010
00000100
00000010
00000000
,
00001000
00000000
00000001
00000000
00000000
00000001
00001000
00000000
,
00000010
00010000
00001000
00100000
,
00010000
01000000
00001000
00010000
,
00000100
00000000
00001000
00000000
00000010
00000010
00000100
00000000
,
00001000
00000000
00010000
00000000
01000000
01000000
00100000
00000000
,
00010000
10000000
00100000
01000000
,
00010000
10000000
00010000
10000000
00010000
00000000
00100000
00000000
,
10010000
10010000
00100000
01000000
,
00010000
10000000
01000000
00100000
,
00001000
00011000
00010000
00011000
,
00000100
00000010
00000100
00000110
,
00000001
00000010
00001000
00000010
,
00000100
00010000
00001000
01000000
,
01100000
01100000
10000000
00010000
,
00110000
00110000
01000000
10000000
,
10010000
10010000
01000000
00100000
,
00010000
10000000
00100000
01000000
,
00001000
00011000
00010000
00011000
,
00000010
00000100
00000010
00000110
,
00000001
00000100
00001000
00000100
,
00000010
00010000
00001000
00100000
,
01100000
01100000
10000000
00010000
,
01010000
01010000
00100000
10000000
,
10010000
00000000
00000000
00000000
;

//---------------dance-double - ----------------
#NOTES:
     dance-double:
     :
     Hard:
     6:
     0.387,0.349,0.200,0.067,0.000:
00000000
00000000
00000000
00000000
,
00000000
00000000
00000000
00000000
,
10000000
01000000
00100000
00000000
00010000
01000000
00100000
00000000
,
10000000
01000000
00010000
00000000
00001000
00000100
00000001
00000000
,
00000010
00000000
00000001
00000200
00000000
00000300
00001001
00000000
,
00000001
00000001
00000100
00000010
00000000
00000010
00001000
00000000
,
00000100
00000000
00010000
00002000
00000000
00000000
00013000
00000000
,
00100000
00100000
10000000
00020000
00000000
20000000
00000000
30030000
,
10010000
00000000
00100000
02000000
00000000
03000000
10010000
00000000
,
10000000
10000000
00010000
01000000
00000000
01000000
00100000
00000000
,
00010000
00000000
00001000
00010000
00000000
00000000
00000010
00000000
,
00001000
00001000
00000001
00000001
00000000
00000020
00000000
00000030
,
00001001
00000000
00000100
00000010
00000000
00000001
00001000
00000000
,
00000010
00000100
00000001
00001000
00000000
00000001
00001000
00000000
,
00000100
00000000
00010000
00001000
00000000
00100000
00010000
00000000
,
10000000
01000000
00100000
00010000
00000000
10000000
01000000
00000000
,
00100000
00010000
01000000
00000000
00100000
10000000
01000000
00000000
,
00010000
00001000
00000100
00000000
00001000
00010000
01000000
00000000
,
00010000
00000000
00001000
00000000
00000010
00000100
00000010
00000000
,
00000001
00000100
00000010
00001000
00000000
00000001
00001000
00000000
,
00000100
00000000
00001000
00000010
00000000
00000000
00010000
00001000
,
00000000
01000000
00000000
00010000
00000000
00100000
00000000
01000000
,
10000000
00100000
00000000
00010000
00000000
00100000
10000000
01000000
,
00100000
00000000
00010000
00000000
10000000
00010000
00100000
00000000
,
01000000
00000000
10000000
00010000
00000000
00100000
01000000
10000000
,
00010000
10000000
00010000
10000000
00010000
00000000
01100000
00000000
,
10010000
00000000
01100000
00000000
10000000
01000000
00010000
00000000
,
00010000
00001000
00010000
00001000
00000000
00001000
00000100
00000001
,
00000010
00001001
00000100
00001001
,
00000010
00001000
00000100
00001000
00000000
00000001
00001000
00000100
,
00000010
00000000
00000010
00000100
00001000
00000000
00000001
00000100
,
00001000
00010000
00001000
00010000
00100000
00000000
10000000
00000000
,
10100000
00000000
01010000
00000000
00010000
01000000
10000000
00000000
,
01000000
00010000
00100000
00000000
10000000
00100000
00010000
00000000
,
01100000
00000000
10010000
00000000
10000000
01000000
00010000
00000000
,
00010000
00001000
00010000
00001000
00000000
00001000
00000010
00000001
,
00000100
00001001
00000010
00001001
,
00001000
00000010
00001000
00000100
00000000
00001000
00000001
00000100
,
00000010
00000000
00000010
00000100
00000001
00000000
00000001
00000100
,
00001000
00010000
00001000
00010000
01000000
00000000
10000000
00000000
,
00110000
00000000
11000000
00000000
00100000
00010000
01000000
00000000
,
10000000
01000000
00010000
00000000
00010000
00100000
10000000
00000000
,
01100000
00000000
00000000
00000000
;
