#TITLE:PUSH IT TO THE LIMIT;
#SUBTITLE:;
#ARTIST:JUMP IN;
#TITLETRANSLIT:;
#SUBTITLETRANSLIT:;
#ARTISTTRANSLIT:;
#CREDIT:;
#BANNER:PUSH IT TO THE LIMIT.png;
#BACKGROUND:PUSH IT TO THE LIMIT-bg.png;
#LYRICSPATH:;
#CDTITLE:./CDTITLES/Dance Dance Revolution Disney Channel Edition.png;
#MUSIC:PUSH IT TO THE LIMIT.mp3;
#OFFSET:-0.022;
#SAMPLESTART:22.851;
#SAMPLELENGTH:15.000;
#SELECTABLE:YES;
#DISPLAYBPM:126.000:130.000;
#BPMS:0.000=126.000;
#STOPS:;
#BGCHANGES:;

//---------------dance-single - ----------------
#NOTES:
     dance-single:
     :
     Beginner:
     1:
     0.076,0.128,0.000,0.000,0.000:
0000
0000
0000
0000
,
0000
0000
0000
0000
,
0000
0000
0000
0000
,
1000
0000
0000
0000
,
0100
0000
0000
0000
,
0010
0000
0000
0000
,
0001
0000
0000
0000
,
1000
0000
0000
0000
,
0010
0000
0000
0000
,
0100
0000
0000
0000
,
1000
0000
0000
0000
,
0001
0000
0000
0000
,
0010
0000
0000
0000
,
1000
0000
0000
0000
,
0100
0000
0000
0000
,
0001
0000
0000
0000
,
0010
0000
0000
0000
,
0100
0000
0000
0000
,
0001
0000
0000
0000
,
1000
0000
0000
0000
,
0010
0000
0000
0000
,
0100
0000
0000
0000
,
1000
0000
0000
0000
,
0001
0000
0000
0000
,
1000
0000
0000
0000
,
0001
0000
0000
0000
,
0100
0000
0000
0000
,
0010
0000
0000
0000
,
0100
0000
0000
0000
,
0010
0000
0000
0000
,
1000
0000
0000
0000
,
0001
0000
0000
0000
,
0010
0000
0100
0000
,
1000
0000
0000
0000
,
0010
0000
0100
0000
,
0001
0000
0000
0000
,
1000
0000
0000
0000
,
0001
0000
0000
0000
,
0010
0000
0100
0000
,
1000
0000
0100
0000
,
0010
0000
0000
0000
,
0001
0000
0000
0000
,
1000
0000
0000
0000
,
0100
0000
0000
0000
,
0010
0000
0000
0000
,
0100
0000
0000
0000
,
0001
0000
0000
0000
,
1000
0000
0000
0000
,
0010
0000
0000
0000
;

//---------------dance-single - ----------------
#NOTES:
     dance-single:
     :
     Easy:
     3:
     0.164,0.230,0.053,0.053,0.000:
0000
0000
0000
0000
,
0000
0000
0000
0000
,
0000
0000
0000
0000
,
0200
0000
0000
0300
,
2000
0000
0000
3000
,
0002
0000
0000
0003
,
0020
0000
0000
0030
,
0200
0000
0000
0300
,
1000
0000
0000
0010
,
0100
0000
0000
0000
,
0001
0000
0000
0010
,
0100
0000
0000
0000
,
1000
0000
0010
0000
,
0100
0000
0001
0000
,
0010
0000
0001
0000
,
1000
0000
0100
0100
,
1000
0000
0000
1000
,
0010
0000
0000
0010
,
0100
0000
0000
0100
,
0001
0000
0010
0010
,
1000
0000
0010
0000
,
0100
0000
0001
0000
,
0010
0000
0001
0000
,
1000
0000
0100
0100
,
0001
0000
1000
0000
,
0010
0000
0100
0000
,
0001
0000
0010
0000
,
0100
0000
1000
0000
,
0010
0000
0100
0000
,
0100
0000
0010
0000
,
1000
0000
0001
0000
,
1000
0010
0100
0001
,
1000
0000
0100
0000
,
0010
0000
0001
0000
,
0010
0100
0110
0000
,
1000
0001
1001
0000
,
0001
0000
0010
0000
,
0100
0000
1000
0000
,
0100
0010
0110
0000
,
0001
1000
1001
0000
,
0010
0010
0000
1000
,
0100
0000
1000
0000
,
0001
0001
0000
1000
,
0010
0000
0100
0000
,
0100
0100
0000
0001
,
0010
0000
0001
0000
,
1000
1000
0000
0010
,
0100
0000
0001
1000
,
1001
0000
0000
0000
;

//---------------dance-single - ----------------
#NOTES:
     dance-single:
     :
     Medium:
     5:
     0.374,0.383,0.320,0.000,0.000:
0000
0000
0000
0000
,
0000
0000
0000
0000
,
0000
0000
0000
0000
,
0001
0000
0010
0000
,
1000
0100
0010
0000
,
1000
0000
0100
0000
,
0010
0001
1000
0000
,
0010
1000
0001
1001
,
0100
0010
0001
1000
,
0010
0000
0100
0000
0001
1000
0100
1000
,
0010
1000
0001
0100
,
0010
0000
1000
0000
0001
0010
0001
0000
,
1001
0000
0010
0000
1000
0100
0001
0000
,
0110
0000
0100
0000
0001
0100
1000
0000
,
0010
0000
1000
0000
0001
0100
0001
0000
,
1010
0100
0001
0010
,
1000
0000
0010
0000
0100
0001
0010
0000
,
0100
0000
1000
0000
0010
1000
0100
0000
,
0011
0000
0100
0000
1000
0010
0100
0000
,
0001
0010
0100
0000
1000
0100
0010
0000
,
0001
0000
0100
0000
0010
1000
0100
0000
,
0010
0000
0001
0000
0100
0001
0010
0000
,
1100
0000
0010
0000
0001
0100
0010
0000
,
1000
0100
0010
0000
0001
0010
0100
0000
,
1000
0010
0000
0010
1000
0000
0101
0000
,
0010
0001
0000
0001
0010
0000
1100
0000
,
0010
0100
0000
0100
0010
0000
1001
0000
,
0100
0000
0011
0000
0001
1000
0100
0000
,
0001
0100
0000
0100
0001
0000
1010
0000
,
0100
1000
0000
1000
0100
0000
0011
0000
,
0100
0010
0000
0010
0100
0000
1001
0000
,
0010
0000
1100
0000
1000
0001
0010
0000
,
1001
0000
0010
0000
1000
0100
0001
0000
,
0110
0000
0100
0000
0001
0100
1000
0000
,
0010
0000
1000
0000
0001
0100
0001
0000
,
1010
0100
0001
0010
,
1001
0000
0100
0000
0001
0010
1000
0000
,
0110
0000
0010
0000
1000
0010
0001
0000
,
0100
0000
0001
0000
1000
0010
1000
0000
,
0101
0010
1000
0100
,
0001
0100
1000
0000
1000
0100
0001
0000
,
1000
0010
0001
0000
0001
0010
1000
0100
,
0010
0001
0100
0000
0100
1000
0010
0000
,
0010
1000
0100
0000
0011
0000
1100
0000
,
1001
0000
0110
0000
0001
0100
1000
0000
,
0110
0000
1001
0000
1000
0100
0001
0000
,
0010
0000
1000
0000
0010
0100
0001
0000
,
0011
0100
1100
0011
,
1001
0000
0000
0000
;

//---------------dance-single - ----------------
#NOTES:
     dance-single:
     :
     Hard:
     7:
     0.408,0.383,0.341,0.032,0.075: // measure 1
0000
0000
0000
0000
,  // measure 2
0000
0000
0000
0000
,  // measure 3
0000
0000
0000
0000
,  // measure 4
0000
1000
0010
0100
,  // measure 5
0002
0000
0000
0000
0000
0000
0000
0013
,  // measure 6
0200
0000
0000
0000
,  // measure 7
2300
0000
0001
0000
,  // measure 8
3001
0000
0100
0000
1000
0001
1000
0001
,  // measure 9
0010
0000
0000
0001
1000
0000
0000
0000
0010
0000
0000
0000
0101
0000
0000
0000
,  // measure 10
1000
0000
0000
0010
1000
0000
0000
0000
0100
0000
0001
0000
0010
0000
0000
0000
,  // measure 11
0100
0000
0000
1000
0001
0000
0000
0000
0100
0000
0000
0000
1010
0000
0000
0000
,  // measure 12
0001
0000
0000
0100
0001
0000
0000
0000
0010
0000
1000
0000
0100
0000
0100
0000
,  // measure 13
1000
0010
1000
0000
0001
0100
0001
0000
,  // measure 14
0100
1000
0100
0000
0010
0001
0010
0000
,  // measure 15
1000
0001
0100
0000
1010
0000
0010
1000
,  // measure 16
0001
1000
0110
1001
,  // measure 17
0100
0000
0000
1000
0001
0000
0000
0000
0100
0000
0000
0000
1010
0000
0000
0000
,  // measure 18
0001
0000
0000
0100
0001
0000
0000
0000
0010
0000
1000
0000
0100
0000
0000
0000
,  // measure 19
0010
0000
0000
0001
1000
0000
0000
0000
0010
0000
0000
0000
0101
0000
0000
0000
,  // measure 20
1000
0000
0000
0010
1000
0000
0000
0000
0100
0000
0001
0000
0010
0000
0010
0000
,  // measure 21
0100
0000
0000
0001
1000
0000
0000
0000
0100
0000
0000
0000
0011
0000
0000
0000
,  // measure 22
1000
0000
0000
0100
1000
0000
0000
0000
0010
0000
0001
0000
0100
0000
0000
0000
,  // measure 23
0010
0000
0000
1000
0001
0000
0000
0000
0010
0000
0000
0000
1100
0000
0000
0000
,  // measure 24
0001
0000
0000
0010
0001
0000
0000
0000
0100
0000
1000
0000
0010
0000
0010
0000
,  // measure 25
0000
1100
0000
1100
0000
0010
0001
0100
,  // measure 26
0000
1010
0000
1010
0000
0100
1000
0010
,  // measure 27
0000
0101
0000
0101
0000
0010
1000
0100
,  // measure 28
0010
0000
0000
0000
0001
0000
0000
1000
0010
0000
0000
0000
0110
0000
0000
0000
,  // measure 29
0000
0011
0000
0011
0000
0100
1000
0010
,  // measure 30
0000
0101
0000
0101
0000
0010
0001
0100
,  // measure 31
0000
1010
0000
1010
0000
0100
0001
0010
,  // measure 32
0100
0000
0000
0000
1000
0000
0000
0010
0100
0000
0001
0000
1000
0000
0000
0000
,  // measure 33
0001
0100
0001
0000
1000
0010
1000
0000
,  // measure 34
0010
0001
0010
0000
0100
1000
0100
0000
,  // measure 35
0001
1000
0010
0000
0101
0000
0100
0001
,  // measure 36
1000
0001
0110
1001
,  // measure 37
0001
0010
0001
0000
1000
0100
1000
0000
,  // measure 38
0100
0001
0100
0000
0010
1000
0010
0000
,  // measure 39
0001
1000
0100
0000
0011
0000
0010
0001
,  // measure 40
1000
0001
0110
1001
,  // measure 41
0100
0010
0001
0000
1000
0000
0010
0000
,  // measure 42
0100
0010
1000
0000
0001
0000
0100
0000
,  // measure 43
0100
1000
0001
0000
0010
0001
1000
0000
,  // measure 44
0001
0000
1000
0000
0000
0001
0010
0000
,  // measure 45
0001
0010
0001
0000
1000
0100
1000
0000
,  // measure 46
0100
0001
0100
0000
0010
1000
0010
0000
,  // measure 47
0001
1000
0100
0000
0011
0000
0010
0001
,  // measure 48
1000
0001
1100
0011
,  // measure 49
1001
0000
0000
0000
;

//---------------dance-double - ----------------
#NOTES:
     dance-double:
     :
     Easy:
     3:
     0.201,0.256,0.117,0.021,0.000:
00000000
00000000
00000000
00000000
,
00000000
00000000
00000000
00000000
,
00000000
00000000
00000000
00000000
,
00000000
00000000
10000000
10000000
,
00200000
00000000
00000000
00300000
,
00002000
00000000
00000000
00003000
,
00000010
00000000
00000100
00000000
,
00000001
00000001
00000100
00000000
,
00010000
00000000
10000000
00000000
,
01000000
00000000
00100000
00100000
,
00010000
00000000
00001000
00000000
,
00000010
00000100
00000001
00001000
,
00000010
00000000
00000100
00000000
,
00001000
00000000
00010000
00000000
,
01000000
00000000
00100000
00000000
,
10000000
00000000
01000000
01000000
,
00010000
00000100
00001000
00000000
,
00000010
00000000
00000001
00000001
,
00000100
00000000
00001000
00000000
,
00010000
00010000
01000000
00000000
,
10000000
00000000
00010000
01000000
,
00100000
00000000
00001000
00000000
,
00010000
00000000
00001000
00000010
,
00000100
00000100
00000000
00000010
,
00000001
00000100
00000000
00000000
,
00001000
00001000
00000000
00000000
,
00010000
00100000
00000000
00000000
,
10000000
01000000
01000000
00000000
,
00010000
00010000
00000000
00000000
,
00001000
00010000
00000000
00000000
,
00000010
00000010
00000000
00000000
,
00001000
00000100
00000010
00000001
,
00001001
00000100
00000000
00000000
,
00000110
00001000
00010000
00000000
,
00011000
00001000
00100000
00000000
,
10000000
10000000
00100000
01000000
,
01100000
00100000
00000000
00000000
,
10010000
00010000
00001000
00000000
,
00011000
00010000
00000100
00000000
,
00000001
00000001
00000100
00000010
,
00000101
00001000
00000010
00010000
,
00001000
00000000
00010000
00000000
,
01000000
10000000
00100000
00000000
,
01000000
00000000
00010000
00000000
,
00000110
00000100
00000001
00000000
,
00001001
00000100
00010000
00000000
,
00011000
00001000
00100000
00000000
,
10000000
10000000
00100000
01000000
,
01100000
00000000
00000000
00000000
;

//---------------dance-double - ----------------
#NOTES:
     dance-double:
     :
     Medium:
     5:
     0.356,0.332,0.170,0.021,0.000:
00000000
00000000
00000000
00000000
,
00000000
00000000
00000000
00000000
,
00000000
00000000
00000000
00000000
,
00000000
01000000
00100000
00010000
,
00011000
00000000
00000010
00000000
,
00000100
00000010
00000001
00001000
,
00001100
00000000
00011000
00000000
,
00100000
00000000
00010000
00000000
10000000
00100000
01000000
00000000
,
00100000
00000000
01000000
00000000
00001000
00100000
00010000
00000000
,
01000000
00001000
00010000
00011000
,
00000010
00000000
00000100
00000000
00001000
00000100
00000010
00000000
,
00001000
00000001
00000010
00001100
,
00000010
00000001
00000010
00000000
00000100
00000000
00001000
00000000
,
00000100
00010000
00001000
00000000
00010000
00001000
00100000
00000000
,
01000000
10000000
01000000
00000000
00100000
00000000
00001000
00010000
,
00001000
00010000
00001100
00000011
,
00000010
00000001
00001000
00000000
00000100
00000000
00010000
00000000
,
00001000
00010000
00001000
00000000
01000000
00000000
00010000
00000000
,
00100000
00000000
00010000
00000000
10000000
00100000
01000000
00000000
,
00010000
10000000
00100000
00000000
01000000
00001000
00010000
00000000
,
00000010
00000000
00001000
00000000
00000100
00000010
00000100
00000000
,
00000001
00000000
00000100
00000000
00001000
00000100
00010000
00000000
,
00001000
01000000
00010000
00100000
,
01000000
10000000
01000000
10000000
01000000
00000000
00110000
00000000
,
00000000
01000000
00000000
00100000
00000000
00010000
01000000
00010000
,
00000000
00001000
00000000
00010000
00000000
00000010
00001000
00000100
,
00000000
00000010
00000000
00000001
00000000
00001000
00000010
00000000
,
00000100
00000001
00000010
00000100
00001000
00000000
00000101
00000000
,
00000000
00000010
00000000
00000100
00000000
00001000
00000010
00001000
,
00000000
00010000
00000000
00001000
00000000
01000000
00010000
00100000
,
00000000
01000000
00000000
10000000
00000000
00010000
01000000
00000000
,
00100000
10000000
01000000
00100000
00010000
00000000
10100000
00000000
,
01000000
10000000
01000000
00000000
00100000
00000000
00010000
00000000
,
00100000
00000000
00001000
00000000
00010000
00001000
00000100
00000000
,
00000010
00001000
00000010
00000000
00000100
00000000
00000001
00000100
,
00000001
00001000
00000010
00000110
,
00000010
00000001
00000010
00000000
00000100
00000000
00001000
00000000
,
00000100
00000000
00010000
00000000
00001000
00010000
00100000
00000000
,
01000000
00010000
01000000
00000000
00100000
00000000
10000000
00100000
,
10000000
00010000
11000000
00110000
,
02000000
00100000
03010000
00100000
,
00002000
00010000
00013000
00000010
,
00000100
00000001
00000010
00000100
,
00001000
00000100
00001000
00000000
00000100
00010000
00001000
00000000
,
00100000
00010000
01000000
00000000
00100000
10000000
01000000
00000000
,
00010000
01000000
10000000
00000000
10000000
01000000
00010000
00000000
,
00001000
00000000
00010000
00000000
00000100
00001000
00000100
00000000
,
00000010
00001000
00000011
00001100
,
00000110
00000000
00000000
00000000
;

//---------------dance-double - ----------------
#NOTES:
     dance-double:
     :
     Hard:
     7:
     0.434,0.467,0.341,0.053,0.000:
00000000
00000000
00000000
00000000
,
00000000
00000000
00000000
00000000
,
00000000
00000000
00000000
00000000
,
00000000
00000000
00000000
01000000
00010000
00000000
01000000
00001000
,
00020000
00000000
00001000
00030000
,
00000000
00000000
00010000
00000010
00000100
00000000
00000010
00001000
,
00000100
00000000
00000010
00000001
00000100
00000000
00000010
00000000
,
00000100
00000001
00001000
00001001
,
00000100
00010000
00001000
00000000
00010000
00001000
00000100
00000000
,
00010000
00001000
00100000
00010000
01000000
00000000
11000000
00000000
,
00100000
10000000
01000000
00000000
10000000
01000000
00010000
00000000
,
01000000
00010000
00001000
00010000
00000010
00000000
00001001
00000000
,
00000010
00001000
00001010
00000000
00000100
00010000
00001000
00000000
,
00010000
01000000
10000000
00000000
10000000
01000000
00010000
00000000
,
00100000
00110000
00001000
00011000
,
00000010
00000100
00001000
00000100
00000001
00000000
00001100
00000000
,
00000010
00000001
00000100
00001000
00000100
00000000
00000010
00000000
,
00010000
00001000
00010000
00001000
01000000
00000000
00100000
00000000
,
10000000
01000000
00100000
00000000
01010000
00000000
00100000
00000000
,
10000000
01000000
00100000
00000000
00100000
00001000
00010000
00000000
,
00001000
00000100
00000001
00000000
00000001
00000100
00001000
00000000
,
00010000
00001000
01000000
00010000
00100000
00000000
10010000
00000000
,
00100000
01000000
00010000
00000000
00100000
00001000
00010000
00000000
,
00000010
00001000
00000100
00000010
00000001
00000100
00000010
00000000
,
00000000
00000011
00000000
00000110
00000000
00000100
00010000
00001000
,
00000000
00011000
00000000
00110000
00000000
10000000
01000000
00100000
,
00000000
11000000
00000000
01100000
00000000
00100000
00010000
00000000
,
01000000
00001000
00010000
00000000
00001000
00000010
00000100
00000010
,
00000000
00000101
00000000
00000110
00000000
00000010
00010000
00001000
,
00000000
00011000
00000000
01010000
00000000
10000000
00100000
01000000
,
00000000
10100000
00000000
01100000
00000000
01000000
00010000
00000000
,
00100000
00001000
00010000
00000000
00001000
00000100
00000010
00000000
,
00000100
00001000
00001100
00000000
00000010
00010000
00001000
00000000
,
00010000
00100000
10000000
00000000
10000000
00100000
00010000
00000000
,
01000000
01010000
00001000
00011000
,
00000100
00000010
00001000
00000010
00000001
00000000
00000110
00000000
,
00000100
00001000
00001100
00000000
00010000
00001000
00100000
00000000
,
00010000
01000000
10000000
00000000
10000000
01000000
00010000
00000000
,
01000000
00100000
00010000
00000000
00100000
00001000
00010000
00000000
,
00001000
00010000
00000100
00000000
00000010
00000000
00000110
00000000
,
00000002
00000000
00000100
00000000
00001003
00000010
00000100
00000000
,
00000001
00000000
00000010
00000000
00000100
00010000
00001000
00000000
,
01000000
00010000
00100000
01000000
10000000
00000000
00100000
00000000
,
20000000
00000000
01000000
00000000
30100000
01000000
00010000
00000000
,
01000000
00010000
01010000
00000000
00100000
00001000
00010000
00000100
,
00001000
00000010
00000001
00000000
00000001
00000010
00001000
00000000
,
00000100
00001000
00001100
00000000
00010000
00001000
00011000
00000000
,
01000000
00100000
00010000
00100000
10000000
01000000
00110000
00000000
,
22000000
00000000
00000000
33000000
;
