#TITLE:IT'S MY TURN NOW;
#SUBTITLE:;
#ARTIST:JUMP IN;
#TITLETRANSLIT:;
#SUBTITLETRANSLIT:;
#ARTISTTRANSLIT:;
#CREDIT:;
#BANNER:IT'S MY TURN NOW.png;
#BACKGROUND:IT'S MY TURN NOW-bg.png;
#LYRICSPATH:;
#CDTITLE:./CDTITLES/Dance Dance Revolution Disney Channel Edition.png;
#MUSIC:IT'S MY TURN NOW.mp3;
#OFFSET:-0.044;
#SAMPLESTART:54.392;
#SAMPLELENGTH:15.000;
#SELECTABLE:YES;
#BPMS:0.000=123.000;
#STOPS:;
#BGCHANGES:;

//---------------dance-single - ----------------
#NOTES:
     dance-single:
     :
     Beginner:
     1:
     0.083,0.127,0.018,0.000,0.000:
0000
0000
0000
0000
,
0000
0000
0000
0000
,
0000
0000
0000
0000
,
0000
0000
0000
0000
,
0010
0000
0000
0000
,
0100
0000
0000
0000
,
0001
0000
0000
0000
,
1000
0000
0100
0000
,
0010
0000
0000
0000
,
0001
0000
0000
0000
,
1000
0000
0000
0000
,
0100
0000
0100
0000
,
0010
0000
0000
0000
,
1000
0000
0000
0000
,
0001
0000
0000
0000
,
0010
0000
1000
0000
,
0100
0000
0000
0000
,
0001
0000
0000
0000
,
0100
0000
0000
0000
,
1000
0000
0010
0000
,
0100
0000
0000
0000
,
0001
0000
0000
0000
,
1000
0000
0000
0000
,
0010
0000
0010
0000
,
0100
0000
0000
0000
,
1000
0000
0000
0000
,
0001
0000
0000
0000
,
0000
0000
0000
0000
,
0110
0000
0000
0000
,
1000
0000
0000
0000
,
0001
0000
0000
0000
,
0100
0000
0000
0000
,
1001
0000
0000
0000
,
0010
0000
0000
0000
,
0100
0000
1000
0000
,
1000
0000
0001
0000
,
0010
0000
0000
0000
,
1000
0000
0000
0000
,
0000
0000
0000
0000
,
0000
0000
0000
0010
,
0010
0000
0000
0000
,
1000
0000
0000
0000
,
0001
0000
0000
0000
,
0100
0000
0100
0000
,
1000
0000
0000
0000
,
0001
0000
0000
0000
,
0100
0000
0000
0000
,
0010
0000
1000
0000
,
0100
0000
0000
0000
,
0001
0000
0000
0000
,
1000
0000
0000
0000
,
0010
0000
0010
0000
,
0001
0000
0000
0000
,
1000
0000
0000
0000
,
0010
0000
0000
0000
,
0100
0000
0001
0000
,
1000
0000
0000
0000
;

//---------------dance-single - ----------------
#NOTES:
     dance-single:
     :
     Easy:
     3:
     0.176,0.177,0.091,0.036,0.000:
0000
0000
0000
0000
,
0000
0000
0000
0000
,
0000
0000
0000
0000
,
0010
0000
1000
0000
,
0100
1000
0000
0000
,
0100
0001
0000
0000
,
0010
0100
0000
0000
,
0110
0000
1001
0000
,
0001
0100
0000
0000
,
0010
1000
0000
0000
,
0100
0010
0000
0000
,
0001
0001
0001
0000
,
0001
0000
0100
0000
,
0010
0100
1000
0000
,
0100
0000
0001
0000
,
1000
0010
0100
0000
,
0001
0000
1000
0000
,
0010
0100
0001
0000
,
0001
0000
1000
0000
,
0100
0010
0110
0000
,
0001
0000
1000
0000
,
0010
0000
0100
0001
,
0010
0000
1000
0000
,
0010
0010
0100
0000
,
1000
0000
0001
0000
,
0100
0000
0010
1000
,
0100
0000
0001
0000
,
0220
0000
0000
0330
,
0001
1000
1000
0000
,
0010
0000
0100
0000
,
1000
0001
0001
0000
,
0100
0000
0010
0000
,
0100
0001
0010
0000
,
0100
0000
1001
0000
,
0010
1000
0100
0000
,
0001
0000
1000
0000
,
0110
0000
0000
0000
,
0100
0001
0000
0000
,
2002
0000
0000
0000
,
0000
0000
0000
3003
,
1000
0001
0001
0000
,
0100
0000
0010
0000
,
0001
1000
1000
0000
,
0010
0000
0100
0000
,
0010
1000
0100
0000
,
0010
0000
1001
0000
,
0100
0001
0010
0000
,
1000
0000
0001
0000
,
0001
1000
0100
0000
,
0001
0000
0100
0000
,
1000
0001
1000
0000
,
0100
0000
1001
0000
,
0100
0001
0010
0000
,
0100
0000
0010
0000
,
1000
0100
0001
0000
,
0100
0000
1000
0000
,
1001
0000
0000
0000
;

//---------------dance-single - ----------------
#NOTES:
     dance-single:
     :
     Medium:
     5:
     0.318,0.380,0.308,0.290,0.000:
0000
0000
0000
0000
,
0000
0000
0000
0000
,
0000
0000
0000
0000
,
0100
0000
0000
0000
0010
0000
1000
0001
,
0100
0010
1001
0000
,
0010
1000
0011
0000
,
0100
0010
1100
0000
,
0001
0000
1000
0000
0010
0100
0001
0000
,
1001
0000
0000
0000
0001
0100
0010
0000
,
1001
0000
0000
0000
1000
0100
0010
0000
,
0110
0000
0000
0000
0001
1000
0001
0000
,
0001
0010
0100
1000
,
0010
0000
0100
0000
,
0010
0000
0000
0000
1000
0001
0100
0000
,
0010
0000
1000
0000
,
0100
0000
0000
0000
0010
0001
0100
0000
,
0100
0000
0010
0000
,
0100
0000
0000
0000
0001
1000
0010
0000
,
0100
0000
0001
0000
,
0010
0000
0000
0000
0100
1000
0010
0000
,
2000
0000
0000
0000
3010
0100
0001
0000
,
0020
0000
0000
0000
0130
1000
0001
0000
,
0200
0000
0000
0000
0310
1000
0001
0000
,
0010
1000
0001
0100
,
0002
0000
0000
0000
0103
0010
1000
0000
,
0200
0000
0000
0000
0310
0001
1000
0000
,
0020
0000
0000
0000
0130
0001
1000
0000
,
0100
0001
1000
0010
,
1000
0001
1001
0000
,
0010
0100
0110
0000
,
0202
0303
2020
3030
,
1000
0000
0010
0000
0100
0001
0010
0000
,
0001
1000
1001
0000
,
0100
0010
0110
0000
,
2020
3030
0202
0303
,
0001
0000
0100
0000
0010
1000
0100
0000
,
0100
0010
1001
0000
,
0010
1000
0011
0000
,
2200
0000
0000
0000
,
3300
0000
1000
0000
0010
0100
0001
0000
,
0001
1000
1001
0000
,
0100
0010
0110
0000
,
2020
3030
0202
0303
,
0001
0000
0100
0000
0010
1000
0100
0000
,
1000
0001
1001
0000
,
0010
0100
0110
0000
,
0202
0303
2020
3030
,
1000
0000
0010
0000
0100
0001
0010
0000
,
1000
0001
1001
0000
,
0010
0100
0110
0000
,
0202
0303
2020
3030
,
1000
0000
0010
0000
0100
0001
0010
0000
,
0001
1000
1001
0000
,
0100
0010
0110
0000
,
2020
3030
0202
0303
,
0001
0000
0100
0000
0010
1000
0001
0000
,
1001
0000
0000
0000
;

//---------------dance-single - ----------------
#NOTES:
     dance-single:
     :
     Hard:
     6:
     0.396,0.380,0.435,0.299,0.000: // measure 1
0000
0000
0000
0000
,  // measure 2
0000
0000
0000
0000
,  // measure 3
0000
0000
0000
0000
,  // measure 4
0010
0000
0000
0000
0100
0000
0001
1000
,  // measure 5
0010
0100
1001
0000
,  // measure 6
0100
0001
1100
0000
,  // measure 7
0010
0100
0011
0000
,  // measure 8
1000
0000
0001
0000
0100
0010
1000
0000
,  // measure 9
0010
0000
0102
0000
0000
0000
1003
0010
,  // measure 10
0100
0000
2010
0000
0000
0000
3100
0010
,  // measure 11
0001
0000
0120
0000
0000
0000
1030
0001
,  // measure 12
0100
0101
0010
1100
,  // measure 13
0100
0000
0010
0000
0100
1000
0001
0000
,  // measure 14
0100
0000
0010
0000
0100
0001
1000
0000
,  // measure 15
0100
1010
0100
0011
,  // measure 16
2100
0000
3010
0000
0100
0001
0010
0000
,  // measure 17
0100
0000
1010
0000
1000
0100
0001
0000
,  // measure 18
0100
0000
0011
0000
0001
0100
1000
0000
,  // measure 19
0010
0000
1100
0000
1000
0010
0100
0000
,  // measure 20
0100
0000
0011
0000
0001
0100
0010
0000
,  // measure 21
0201
0000
0310
0000
1000
0100
0010
0000
,  // measure 22
1200
0000
0310
0000
0001
0100
0010
0000
,  // measure 23
1000
0000
0001
0000
0100
0010
0010
0000
,  // measure 24
0200
0302
0023
2030
,  // measure 25
3020
0000
0130
0000
0001
0010
0100
0000
,  // measure 26
0021
0000
0130
0000
1000
0010
0100
0000
,  // measure 27
0001
0000
1000
0000
0010
0100
0100
0000
,  // measure 28
2002
0000
0000
3003
,  // measure 29
0100
0000
0010
0000
1000
0001
1000
0000
,  // measure 30
0100
0000
0010
0000
0001
1000
0001
0000
,  // measure 31
2020
3030
0202
0303
,  // measure 32
0001
0000
0100
0000
1000
0100
0001
0000
,  // measure 33
0010
0000
1100
0000
0100
0010
0001
0000
,  // measure 34
0010
0000
0101
0000
0100
0010
1000
0000
,  // measure 35
0001
0011
1000
1010
,  // measure 36
0100
0101
1010
1001
,  // measure 37
0010
0100
1001
0000
,  // measure 38
0100
0001
1100
0000
,  // measure 39
0022
0000
0000
0000
,  // measure 40
0033
0000
0001
0000
0100
0010
1000
0000
,  // measure 41
0010
0000
0100
0000
0001
1000
0001
0000
,  // measure 42
0010
0000
0100
0000
1000
0001
1000
0000
,  // measure 43
0202
0303
2020
3030
,  // measure 44
1000
0000
0010
0000
0001
0010
1000
0000
,  // measure 45
0100
0000
0011
0000
0010
0100
1000
0000
,  // measure 46
0100
0000
1010
0000
0010
0100
0001
0000
,  // measure 47
1000
1100
0001
0101
,  // measure 48
0010
1010
0101
1001
,  // measure 49
0020
0000
0130
0000
0001
1000
0001
0000
,  // measure 50
0020
0000
0130
0000
1000
0001
1000
0000
,  // measure 51
0202
0303
2020
3030
,  // measure 52
2000
0000
3010
0000
0001
0010
1000
0000
,  // measure 53
0200
0000
0310
0000
0010
0100
1000
0000
,  // measure 54
0200
0000
0310
0000
0010
0100
0001
0000
,  // measure 55
1000
1100
0001
0101
,  // measure 56
0010
1010
0101
1001
,  // measure 57
0110
0000
0000
0000
;

//---------------dance-double - ----------------
#NOTES:
     dance-double:
     :
     Easy:
     3:
     0.175,0.203,0.072,0.018,0.000:
00000000
00000000
00000000
00000000
,
00000000
00000000
00000000
00000000
,
00000000
00000000
00000000
00000000
,
00100000
00000000
01000000
00000000
,
10000000
00100000
00000000
00000000
,
10000000
01000000
00000000
00000000
,
00010000
00001000
00000000
00000000
,
00011000
00000000
00000100
00000000
,
00000010
00001000
00000000
00000000
,
00000001
00000100
00000000
00000000
,
00001000
00010000
00000000
00000000
,
00100000
01000000
01000000
00000000
,
00010000
00000000
01000000
00000000
,
10000000
01000000
00100000
00000000
,
01000000
00000000
00010000
00000000
,
00001000
00000100
00000001
00000000
,
00000010
00000000
00001000
00000000
,
00010000
00100000
10000000
00000000
,
01000000
00000000
00010000
00000000
,
00001000
00000010
00001001
00000000
,
00000010
00000000
00001000
00000000
,
00010000
00000000
00100000
10000000
,
01000000
00000000
00100000
00000000
,
00010000
00000000
00100000
00000000
,
00001000
00000000
00010000
00000000
,
00000100
00000000
00001000
00000001
,
00000100
00000000
00001000
00000000
,
00022000
00000000
00000000
00033000
,
00010000
01000000
10000000
00000000
,
00100000
00000000
01000000
00000000
,
00010000
00100000
01000000
00000000
,
00010000
00000000
00001000
00000000
,
00000100
00000001
00000010
00000000
,
00001000
00000000
00010000
00000000
,
00100000
10000000
01000000
00000000
,
10010000
00000000
00100000
00000000
,
01100000
00000000
00000000
00000000
,
01000000
00010000
00001000
00000000
,
00010000
00000000
00001000
00000000
,
00000100
00000001
00000010
00000000
,
00000010
00001000
00010000
00000000
,
00001000
00010000
00100000
00000000
,
01000000
00000000
10000000
00000000
,
01000000
00000000
00010000
00000000
,
01000000
00001000
00010000
00000000
,
00000010
00000000
00001001
00000000
,
00000100
00000001
00000010
00000000
,
00001000
00000000
00010000
00000000
,
00100000
10000000
01000000
00000000
,
00010000
00000000
00001000
00000000
,
00000100
00000000
00000010
00000000
,
00000100
00000000
00001001
00000000
,
00000010
00000100
00000100
00000000
,
00001000
00000000
00010000
00000000
,
01000000
10000000
00100000
00000000
,
01000000
00000000
00001000
00000000
,
00011000
00000000
00000000
00000000
;

//---------------dance-double - ----------------
#NOTES:
     dance-double:
     :
     Medium:
     5:
     0.317,0.380,0.299,0.281,0.000:
00000000
00000000
00000000
00000000
,
00000000
00000000
00000000
00000000
,
00000000
00000000
00000000
00000000
,
00000010
00000000
00000000
00000000
00000100
00000000
00000001
00001000
,
00000100
00010000
00011000
00000000
,
00100000
01000000
01100000
00000000
,
10000000
00010000
10010000
00000000
,
01000000
00000000
00010000
00000000
00001000
00000100
00000010
00000000
,
00001001
00000000
00000000
00000000
00000010
00000100
00001000
00000000
,
00001100
00000000
00000000
00000000
00010000
00001000
01000000
00000000
,
01010000
00000000
00000000
00000000
00100000
10000000
01000000
00000000
,
00100000
01000000
00010000
00001000
,
00000010
00000000
00000100
00000000
,
00001000
00000000
00000000
00000000
00000001
00000010
00000100
00000000
,
00001000
00000000
00000010
00000000
,
00000100
00000000
00000000
00000000
00001000
00010000
00100000
00000000
,
10000000
00000000
00010000
00000000
,
00100000
00000000
00000000
00000000
01000000
00010000
00001000
00000000
,
00000100
00000000
00000001
00000000
,
00000010
00000000
00000000
00000000
00000100
00010000
00001000
00000000
,
00020000
00000000
00000000
00000000
00031000
01000000
00100000
00000000
,
20000000
00000000
00000000
00000000
31000000
10000000
00010000
00000000
,
00200000
00000000
00000000
00000000
01300000
10000000
01000000
00000000
,
00010000
00001000
00000100
00000001
,
00000020
00000000
00000000
00000000
00000130
00001000
00000001
00000000
,
00000200
00000000
00000000
00000000
00001300
00010000
01000000
00000000
,
20000000
00000000
00000000
00000000
30100000
01000000
00010000
00000000
,
10000000
00010000
00100000
01000000
,
00010000
00001000
00011000
00000000
,
00000100
00000010
00001001
00000000
,
00000202
00000303
00002020
00003030
,
00000100
00000000
00000001
00000000
00000010
00000100
00001000
00000000
,
00000100
00010000
00011000
00000000
,
01000000
00010000
10010000
00000000
,
02020000
03030000
20200000
30300000
,
01000000
00000000
10000000
00000000
00100000
10000000
00010000
00000000
,
00100000
00001000
00011000
00000000
,
00000010
00000100
00001001
00000000
,
00000020
00000000
00000000
00000000
,
00000031
00000000
00000100
00000000
00001000
00010000
01000000
00000000
,
10000000
00100000
10010000
00000000
,
10000000
01000000
00110000
00000000
,
00022000
00033000
00002020
00003030
,
00000001
00000000
00000100
00000000
00000010
00000100
00001000
00000000
,
00010000
00100000
10100000
00000000
,
00100000
10000000
11000000
00000000
,
02020000
03030000
00022000
00033000
,
00000100
00000000
00000001
00000000
00000010
00000100
00001000
00000000
,
00000010
00010000
00011000
00000000
,
01000000
00100000
10010000
00000000
,
02020000
03030000
20200000
30300000
,
01000000
00000000
10000000
00000000
00010000
00100000
01000000
00000000
,
00010000
00001000
00001100
00000000
,
00000010
00000100
00001001
00000000
,
00000220
00000330
00002200
00003300
,
00010000
00000000
01000000
00000000
00100000
00010000
10000000
00000000
,
10010000
00000000
00000000
00000000
;

//---------------dance-double - ----------------
#NOTES:
     dance-double:
     :
     Hard:
     7:
     0.396,0.406,0.426,0.299,0.000:
00000000
00000000
00000000
00000000
,
00000000
00000000
00000000
00000000
,
00000000
00000000
00000000
00000000
,
00100000
00000000
00000000
00000000
01000000
00000000
00010000
10000000
,
00100000
10000000
11000000
00000000
,
01000000
00010000
00011000
00000000
,
00000010
00000001
00000101
00000000
,
00000100
00000000
00001000
00000000
00010000
00100000
10000000
00000000
,
01000000
00000000
02100000
00000000
00000000
00000000
13000000
01000000
,
00010000
00000000
00012000
00000000
00000000
00000000
00013000
00001000
,
00000100
00000000
00000021
00000000
00000000
00000000
00000130
00001000
,
00000001
00000110
00001000
00000101
,
00000010
00000000
00010000
00000000
00001000
00010000
00000100
00000000
,
00010000
00000000
00001000
00000000
01000000
00001000
00010000
00000000
,
00100000
11000000
01000000
00110000
,
21000000
00000000
30100000
00000000
01000000
00010000
00100000
00000000
,
01000000
00000000
00010000
00000000
00001000
00010000
00000100
00000000
,
00001000
00000000
00000011
00000000
00000001
00000100
00001000
00000000
,
00010000
00000000
00011000
00000000
01000000
10000000
00100000
00000000
,
01000000
00000000
00110000
00000000
00001000
00010000
00000010
00000000
,
00000201
00000000
00000310
00000000
00001000
00000100
00000010
00000000
,
00000012
00000000
00000103
00000000
00000100
00001000
00010000
00000000
,
01200000
00000000
10300000
00000000
01000000
00100000
00100000
00000000
,
02000000
03020000
00032000
00003020
,
00000031
00000000
00000100
00000000
00001000
00000100
00000010
00000000
,
00000210
00000000
00001300
00000000
00010000
00100000
10000000
00000000
,
01000000
00000000
10000000
00000000
00100000
01000000
01000000
00000000
,
20020000
00000000
00000000
30030000
,
00100000
00000000
00010000
00000000
01000000
10000000
01000000
00000000
,
00010000
00000000
01000000
00000000
01000000
00010000
00001000
00000000
,
00022000
00033000
00002020
00003030
,
00000001
00000000
00000100
00000000
00001000
00010000
00100000
00000000
,
10000000
00000000
11000000
00000000
00100000
01000000
10000000
00000000
,
00100000
00000000
01100000
00000000
01000000
00010000
00001000
00000000
,
00000010
00000101
00001000
00001010
,
00000100
00011000
01010000
10100000
,
10000000
01000000
10010000
00000000
,
00100000
00000000
00010000
00000000
00001000
00010000
00001000
00000000
,
00022000
00000000
00000000
00000000
,
00033000
00000000
00001000
00000000
00000010
00000000
00000100
00001000
,
00000010
00000000
00000100
00000000
00000001
00000010
00000001
00000000
,
00000010
00000000
00000100
00000000
00010000
00001000
00010000
00000000
,
02020000
03030000
02200000
03300000
,
10000000
00000000
01000000
00000000
01000000
00010000
00001000
00000000
,
00010000
00000000
00011000
00000000
00001000
00000010
00000001
00000000
,
00000100
00000011
00000100
00001100
,
00010000
00110000
01000000
11000000
,
00100000
10100000
01010000
10010000
,
00200000
00000000
01300000
00000000
01000000
00010000
10000000
00000000
,
02000000
00000000
03010000
00000000
00001000
00010000
00001000
00000000
,
00002200
00003300
00002002
00003003
,
00000020
00000000
00000130
00000000
00001000
00010000
00100000
00000000
,
20000000
00000000
31000000
00000000
00100000
01000000
10000000
00000000
,
02000000
00000000
03010000
00000000
00001000
00010000
01000000
00000000
,
00010000
00011000
00000100
00000110
,
00000001
00001010
00000100
00000101
,
00001001
00000000
00000000
00000000
;
