#TITLE:I CAN'T TAKE MY EYES OFF OF YOU;
#SUBTITLE:;
#ARTIST:HIGH SCHOOL MUSICAL;
#TITLETRANSLIT:;
#SUBTITLETRANSLIT:;
#ARTISTTRANSLIT:;
#CREDIT:;
#BANNER:I CAN'T TAKE MY EYES OFF OF YOU.png;
#BACKGROUND:I CAN'T TAKE MY EYES OFF OF YOU-bg.png;
#LYRICSPATH:;
#CDTITLE:./CDTITLES/Dance Dance Revolution Disney Channel Edition.png;
#MUSIC:I CAN'T TAKE MY EYES OFF OF YOU.mp3;
#OFFSET:-0.042;
#SAMPLESTART:25.040;
#SAMPLELENGTH:15.000;
#SELECTABLE:YES;
#BPMS:0.000=115.000;
#STOPS:;
#BGCHANGES:;

//---------------dance-single - ----------------
#NOTES:
     dance-single:
     :
     Beginner:
     1:
     0.133,0.188,0.011,0.000,0.000:
0000
0000
0000
0000
,
0000
0000
0000
0000
,
0010
0000
0000
0000
,
0010
0000
0000
0000
,
0001
0000
0000
0000
,
0001
0000
0000
0000
,
1000
0000
0000
0000
,
1000
0000
0000
0000
,
0100
0000
0000
0000
,
0100
0000
0000
0000
,
0010
0000
0000
0000
,
0010
0000
0000
0000
,
0001
0000
0000
0001
,
0001
0000
0000
0000
,
0000
1000
0000
1000
,
0000
1000
0000
1000
,
1000
0000
0000
1000
,
1000
0000
0000
0000
,
0000
0001
0000
0001
,
0000
0001
0000
0001
,
0010
0010
0010
0000
,
0000
0100
0000
0100
,
0100
0100
0100
0000
,
0000
0010
0000
0010
,
1000
1000
1000
0000
,
0000
0001
0000
0001
,
0001
0001
0001
0000
,
0000
1000
0000
1000
,
0010
0010
0010
0000
,
0000
0100
0000
0100
,
0100
0100
0100
0000
,
0000
0010
0000
0010
,
0001
0001
0001
0000
,
0000
1000
0000
1000
,
1000
1000
1000
0000
,
0000
0001
0000
0001
,
0100
0100
0100
0000
,
0000
0010
0000
0010
,
0010
0010
0010
0000
,
0000
0100
0000
0100
,
0001
0001
0001
0000
,
0000
1000
0000
1000
,
1000
1000
1000
0000
,
0001
0001
0001
0000
,
1001
0000
0000
0000
;

//---------------dance-single - ----------------
#NOTES:
     dance-single:
     :
     Easy:
     3:
     0.211,0.235,0.075,0.000,0.000:
0000
0000
0000
0000
,
0000
0000
0000
0000
,
1000
0000
0001
0000
,
1000
0000
0001
0000
,
0010
0001
0000
0001
,
1000
0010
0000
0010
,
1000
0100
0000
0100
,
1000
0001
0000
0001
,
0001
0100
0000
0100
,
0010
1000
0000
1000
,
0010
0100
0000
0100
,
0001
1000
0000
1000
,
1001
0000
0000
1001
,
0110
0000
0010
0100
,
0001
0000
1000
0000
,
0001
0000
1000
0000
,
1001
0000
0000
1001
,
0110
0000
0010
0100
,
1000
0000
0001
0000
,
1000
0000
0001
0000
,
0010
0001
0001
0001
,
1000
0100
0000
0100
,
1000
0001
0001
0001
,
0010
0100
0000
0100
,
1000
0001
0000
1000
,
0001
1000
0000
0001
,
0010
0010
0100
0100
,
1000
0001
0001
1000
,
0010
1000
1000
1000
,
0001
0100
0000
0100
,
0001
1000
1000
1000
,
0010
0100
0000
0100
,
0001
1000
0000
0001
,
1000
0001
0000
1000
,
0010
0010
0100
0100
,
0001
1000
1000
0001
,
0100
0001
0001
0001
,
1000
0010
0000
0010
,
1000
0001
0001
0001
,
0100
0010
0000
0010
,
1000
0001
0000
1000
,
0001
1000
0000
0001
,
0100
0100
0010
0010
,
1000
0001
1000
0001
,
1001
0000
0000
0000
;

//---------------dance-single - ----------------
#NOTES:
     dance-single:
     :
     Medium:
     5:
     0.293,0.287,0.267,0.075,0.000:
0000
0000
0000
0000
,
0000
0000
0000
0000
,
1000
0000
0001
0000
,
0010
0000
0100
0000
,
1000
0100
0010
0001
,
0010
0100
0010
0001
,
0001
0100
0010
1000
,
0100
0010
0100
1000
,
0010
1000
0100
0001
,
0100
0010
0001
1000
,
0100
1000
0010
0001
,
0010
0100
0001
1000
,
2002
0000
3003
0010
,
0200
0300
0001
1000
,
0010
0010
0100
0100
,
0001
1000
0001
1001
,
0220
0000
0330
0001
,
1000
0100
0010
0100
,
1000
1000
0010
0010
,
0100
0100
0001
0001
,
1000
0100
1000
0010
,
1000
1100
0001
0101
,
0001
0010
0001
0100
,
0010
1010
0001
0011
,
0010
1000
0100
0001
,
0100
1000
0010
0110
,
0001
1001
1000
1001
,
0010
0010
0001
1000
,
0001
0100
0001
0010
,
0001
0101
1000
1100
,
1000
0010
1000
0100
,
0010
0011
1000
1010
,
0010
0001
0100
1000
,
0100
0001
0010
0110
,
1000
1001
0001
1001
,
0010
0010
1000
0001
,
0001
0010
0001
0100
,
0001
0011
1000
1010
,
1000
0100
1000
0010
,
0100
0101
1000
1100
,
0100
0001
0010
1000
,
0010
0001
0100
0110
,
1000
1001
0001
1001
,
0100
0100
1000
0001
,
2002
0000
0000
3003
;

//---------------dance-single - ----------------
#NOTES:
     dance-single:
     :
     Hard:
     7:
     0.379,0.335,0.064,0.299,0.016: // measure 1
0000
0000
0000
0000
,  // measure 2
0000
0000
0000
0000
,  // measure 3
1000
0000
0001
0000
1000
0010
0100
0000
,  // measure 4
0001
0000
1000
0000
0001
0010
0100
0000
,  // measure 5
1000
0100
1000
0000
0001
0000
0100
0000
,  // measure 6
0010
1000
0100
0001
,  // measure 7
0100
1000
0100
0000
0010
0000
0001
0000
,  // measure 8
1000
0010
0100
0001
,  // measure 9
1000
0010
0100
0001
0010
0000
0100
0000
,  // measure 10
1000
0010
0001
0010
,  // measure 11
1000
0001
1000
0000
0010
0000
0100
0000
,  // measure 12
0001
0100
0010
1000
,  // measure 13
2002
0000
3003
0100
,  // measure 14
0220
0000
0330
0000
0010
1000
0100
0010
,  // measure 15
0001
0000
0000
0001
0000
0000
0001
0000
0000
0000
0000
0000
1000
0000
0000
0000
,  // measure 16
0001
0100
1000
0010
,  // measure 17
2002
0000
3003
0100
,  // measure 18
0110
0000
0001
0010
0100
1000
0100
0010
,  // measure 19
0002
1000
1003
1001
,  // measure 20
2000
0000
0001
0000
3001
0000
1001
0100
,  // measure 21
0020
0000
0031
0100
1000
0100
0001
0020
,  // measure 22
0000
0000
0130
0000
1000
0000
0001
0010
,  // measure 23
0100
1000
0001
0010
0200
0000
0310
0001
,  // measure 24
2000
0000
0001
0000
0000
0000
3001
0100
,  // measure 25
0020
0000
1030
0100
0001
0100
1000
0020
,  // measure 26
0000
0000
0130
0000
0100
0001
1000
0010
,  // measure 27
0000
0010
0100
0001
0000
0001
1000
0010
,  // measure 28
0000
0010
0000
0000
0010
0000
0000
0000
0100
0000
0000
0000
0100
0000
0000
0000
,  // measure 29
0020
0000
1030
0100
0001
0100
1000
0020
,  // measure 30
0000
0000
0130
0000
0001
0000
1000
0010
,  // measure 31
0100
0001
1000
0010
0200
0000
0310
1000
,  // measure 32
0002
0000
1000
0000
0000
0000
1003
0100
,  // measure 33
0020
0000
0031
0100
1000
0100
0001
0020
,  // measure 34
0000
0000
0130
0000
0100
1000
0001
0010
,  // measure 35
0000
0010
0100
1000
0000
1000
0001
0010
,  // measure 36
0000
0010
0000
0000
0010
0000
0000
0000
0100
0000
0000
0000
0100
0000
0000
0000
,  // measure 37
0200
0000
1300
0010
0001
0010
1000
0200
,  // measure 38
0000
0000
0310
0000
0001
0000
1000
0100
,  // measure 39
0010
0001
1000
0100
0020
0000
0130
1000
,  // measure 40
0002
0000
1000
0000
0000
0000
1003
0010
,  // measure 41
0200
0000
0301
0010
1000
0010
0001
0200
,  // measure 42
0000
0000
0310
0000
0010
1000
0001
0100
,  // measure 43
0000
0100
0010
1000
0000
1000
0001
0100
,  // measure 44
0000
0100
0010
1000
0001
0000
2000
0000
,  // measure 45
0002
0000
0000
3003
;

//---------------dance-double - ----------------
#NOTES:
     dance-double:
     :
     Easy:
     3:
     0.211,0.235,0.075,0.000,0.000:
00000000
00000000
00000000
00000000
,
00000000
00000000
00000000
00000000
,
10000000
00000000
00010000
00000000
,
10000000
00000000
00010000
00000000
,
00100000
00010000
00000000
00010000
,
10000000
00100000
00000000
00100000
,
10000000
01000000
00000000
01000000
,
00100000
00001000
00000000
00010000
,
00001000
00000010
00000000
00000010
,
00000100
00000001
00000000
00000001
,
00000100
00000010
00000000
00000010
,
00001000
00010000
00000000
00001000
,
00011000
00000000
00000000
00110000
,
01100000
00000000
00100000
01000000
,
00010000
00000000
10000000
00000000
,
01000000
00000000
00010000
00000000
,
00011000
00000000
00000000
00011000
,
00001100
00000000
00000100
00000010
,
00000001
00000000
00001000
00000000
,
00000001
00000000
00001000
00000000
,
00000010
00001000
00001000
00001000
,
00000001
00000100
00000000
00000100
,
00000001
00001000
00000100
00010000
,
00100000
01000000
00000000
01000000
,
00010000
10000000
00000000
00010000
,
10000000
00010000
00000000
10000000
,
00100000
00100000
01000000
01000000
,
00010000
00100000
00100000
00001000
,
00010000
00000010
00000010
00000010
,
00001000
00000100
00000000
00000100
,
00001000
00000001
00000001
00000001
,
00000010
00000100
00000000
00010000
,
00001000
00000100
00000000
00001000
,
00010000
01000000
00000000
00010000
,
01000000
01000000
00100000
00100000
,
00010000
10000000
10000000
00010000
,
01000000
00010000
00010000
00010000
,
10000000
00100000
00000000
00010000
,
00001000
00010000
00010000
00010000
,
00000100
00000010
00000000
00001000
,
00010000
00001000
00000000
00010000
,
00001000
00010000
00000000
00001000
,
01000000
01000000
00100000
00100000
,
10000000
00010000
10000000
00010000
,
10010000
00000000
00000000
00000000
;

//---------------dance-double - ----------------
#NOTES:
     dance-double:
     :
     Medium:
     4:
     0.293,0.287,0.267,0.075,0.000:
00000000
00000000
00000000
00000000
,
00000000
00000000
00000000
00000000
,
10000000
00000000
00010000
00000000
,
00100000
00000000
01000000
00000000
,
10000000
01000000
00100000
00010000
,
00100000
01000000
00100000
00010000
,
00010000
01000000
00100000
10000000
,
01000000
00010000
00001000
00000100
,
00000010
00001000
00000100
00000001
,
00000100
00000010
00000001
00001000
,
00000100
00001000
00000010
00000001
,
00000010
00000100
00000001
00001000
,
00002002
00000000
00003003
00000010
,
00000200
00000300
00001000
00010000
,
00100000
00100000
01000000
01000000
,
00010000
10000000
00010000
10010000
,
02200000
00000000
03300000
00010000
,
10000000
01000000
00010000
00001000
,
00000010
00000010
00000001
00000001
,
00001000
00001000
00000100
00000100
,
00001000
00000100
00001000
00000010
,
00001000
00001100
00000001
00000101
,
00000001
00000010
00000001
00000100
,
00000010
00001010
00000001
00000011
,
00000010
00000001
00000100
00001000
,
00000100
00000001
00000010
00000110
,
00001000
00011000
00010000
01010000
,
00100000
00100000
00010000
10000000
,
00010000
01000000
00010000
00100000
,
00010000
01010000
10000000
11000000
,
10000000
00100000
10000000
01000000
,
00100000
00110000
10000000
10100000
,
00100000
10000000
01000000
00010000
,
01000000
10000000
00100000
01100000
,
00010000
00011000
00001000
00011000
,
00100000
00100000
00001000
00010000
,
00001000
00000010
00001000
00010000
,
00001000
00001100
00010000
00011000
,
00010000
00001000
01000000
00010000
,
00100000
00110000
00001000
00011000
,
00000100
00001000
00000010
00000001
,
00000010
00001000
00000100
00000110
,
00000001
00001001
00001000
00001001
,
00000100
00000100
00000001
00001000
,
00002002
00000000
00000000
00003003
;

//---------------dance-double - ----------------
#NOTES:
     dance-double:
     :
     Hard:
     7:
     0.377,0.335,0.064,0.299,0.021:
00000000
00000000
00000000
00000000
,
00000000
00000000
00000000
00000000
,
00000001
00000000
00001000
00000000
00000010
00001000
00000100
00000000
,
00010000
00000000
00001000
00000000
00010000
01000000
00100000
00000000
,
00010000
01000000
00010000
00000000
10000000
00000000
01000000
00000000
,
00100000
00010000
01000000
10000000
,
01000000
00010000
01000000
00000000
00100000
00000000
00010000
00000000
,
00001000
00000010
00000100
00001000
,
00000001
00000010
00000100
00001000
00000010
00000000
00000100
00000000
,
00000001
00000010
00001000
00000010
,
00000001
00001000
00000001
00000000
00000010
00000000
00000100
00000000
,
00001000
00000010
00010000
00001000
,
00022000
00000000
00033000
01000000
,
02200000
00000000
03300000
00000000
00100000
10000000
01000000
00100000
,
00010000
00000000
00000000
00010000
00000000
00000000
00010000
00000000
00000000
00000000
00000000
00000000
10000000
00000000
00000000
00000000
,
01000000
00010000
00001000
00010000
,
00022000
00000000
00033000
00000100
,
00000110
00000000
00001000
00000010
00000100
00000001
00000100
00001000
,
00020000
00001000
00031000
00011000
,
00002000
00010000
00013000
00011000
,
00200000
00000000
00310000
01000000
10000000
01000000
00010000
00200000
,
00000000
00000000
01300000
00000000
10000000
00000000
00010000
00100000
,
01000000
10000000
00010000
00100000
02000000
00000000
03100000
00010000
,
20000000
00000000
00010000
00000000
00000000
00000000
30010000
01000000
,
00200000
00000000
10300000
01000000
00010000
01000000
10000000
00200000
,
00000000
00000000
01300000
00000000
01000000
00010000
10000000
00100000
,
00000000
00100000
01000000
00010000
00000000
00010000
10000000
00100000
,
00000000
00100000
00000000
00000000
00100000
00000000
00000000
00000000
00010000
00000000
00000000
00000000
00001000
00000000
00000000
00000000
,
00000020
00000000
00000031
00000100
00001000
00000100
00000001
00000020
,
00000000
00000000
00000130
00000000
00001000
00000000
00000001
00000010
,
00000100
00001000
00000001
00000010
00000200
00000000
00000310
00000001
,
00002000
00000000
00000001
00000000
00000000
00000000
00003001
00000100
,
00000020
00000000
00001030
00000100
00000001
00000100
00001000
00000020
,
00000000
00000000
00000130
00000000
00000100
00000001
00001000
00000010
,
00000000
00000010
00000100
00000001
00000000
00000001
00001000
00000010
,
00000000
00000010
00000000
00000000
00000010
00000000
00000000
00000000
00000100
00000000
00000000
00000000
00001000
00000000
00000000
00000000
,
00020000
00000000
00031000
00000010
00000001
00000010
00001000
00020000
,
00000000
00000000
00130000
00000000
10000000
00000000
00010000
01000000
,
00100000
10000000
00010000
01000000
00200000
00000000
00310000
00001000
,
00020000
00000000
00001000
00000000
00000000
00000000
00031000
00010000
,
00000200
00000000
00001300
00000010
00000001
00000010
00001000
00000200
,
00000000
00000000
00000310
00000000
00000010
00000001
00001000
00000100
,
00000000
00000100
00010000
00001000
00000000
00001000
00010000
01000000
,
00000000
00000000
00100000
00000000
01000000
00000000
00010000
00000000
00001000
00000000
00000000
00020000
00000000
00000000
00002000
00000000
,
00000000
00000000
00000000
00033000
;
