#TITLE:GIRL POWER;
#SUBTITLE:;
#ARTIST:THE CHEETAH GIRLS;
#TITLETRANSLIT:;
#SUBTITLETRANSLIT:;
#ARTISTTRANSLIT:;
#CREDIT:;
#BANNER:GIRL POWER.png;
#BACKGROUND:GIRL POWER-bg.png;
#LYRICSPATH:;
#CDTITLE:./CDTITLES/Dance Dance Revolution Disney Channel Edition.png;
#MUSIC:GIRL POWER.mp3;
#OFFSET:-0.778;
#SAMPLESTART:0.020;
#SAMPLELENGTH:15.000;
#SELECTABLE:YES;
#DISPLAYBPM:87.000:90.000;
#BPMS:0.000=90.000;
#STOPS:;
#BGCHANGES:;

//---------------dance-single - ----------------
#NOTES:
     dance-single:
     :
     Easy:
     3:
     0.164,0.162,0.088,0.123,0.000:
0000
0000
0000
0000
,
0000
0000
0000
0000
,
0000
0000
0000
0000
,
0000
0000
0000
0000
,
0000
0100
0001
1000
,
0000
0010
1000
0001
,
0000
0100
0010
0100
,
0000
1001
0000
0110
,
0000
0200
0300
0001
,
1000
0002
0003
0100
,
0010
0200
0300
0001
,
1000
0001
0010
0100
,
1000
2000
3000
0010
,
0100
0020
0030
1000
,
0001
2000
3000
0001
,
0010
0001
1000
0100
,
0010
0100
1000
0001
,
0000
0010
0001
1000
,
0000
0100
0010
0100
,
0000
0110
0000
1001
,
0000
0010
0001
0100
,
0000
0010
1000
0100
,
0000
0001
1000
0001
,
0000
1001
0000
0110
,
0000
0020
0030
1000
,
0100
0020
0030
0001
,
0010
0200
0300
1000
,
0010
0100
0100
0010
,
0010
2000
3000
0100
,
0010
0002
0003
0010
,
0100
2000
3000
0020
,
0030
0100
0100
0001
,
0002
0000
0000
0003
,
0000
0100
0001
1000
,
0000
0010
1000
0001
,
0000
0100
0010
0100
,
0000
1001
0000
0110
,
0000
0010
1000
0100
,
0000
0010
0001
0100
,
0000
1000
0001
1000
,
0000
0110
0000
1001
;

//---------------dance-single - ----------------
#NOTES:
     dance-single:
     :
     Beginner:
     1:
     0.083,0.090,0.018,0.009,0.000:
0000
0000
0000
0000
,
0000
0000
0000
0000
,
0000
0000
0000
0000
,
0000
0000
0000
0000
,
0000
0100
0000
0100
,
0000
0001
0000
0001
,
0000
1000
0000
1000
,
0000
0010
0000
0010
,
0000
0100
0000
0000
,
0000
1001
0000
0000
,
0000
0100
0000
0000
,
0000
1000
0000
1000
,
0000
0100
0000
0000
,
0000
1001
0000
0000
,
0000
0100
0000
0000
,
0000
0001
0000
0001
,
0000
0100
0000
0100
,
0000
1000
0000
1000
,
0000
0001
0000
0001
,
0000
0010
0000
0010
,
0000
0100
0000
0100
,
0000
0001
0000
0001
,
0000
1000
0000
1000
,
0000
0010
0000
0010
,
0000
0100
0000
0000
,
0000
1000
0000
0001
,
0000
1000
0000
0000
,
0000
0100
0100
0100
,
0100
0100
0000
0000
,
0000
0001
0000
0000
,
0000
1000
0000
0001
,
0000
2000
0000
0000
,
3000
0000
0000
0000
,
0000
0100
0000
0100
,
0000
1000
0000
1000
,
0000
0001
0000
0001
,
0000
0010
0000
0010
,
0000
0100
0000
0100
,
0000
0001
0000
0001
,
0000
1000
0000
1000
,
0000
0010
0000
0010
;

//---------------dance-single - ----------------
#NOTES:
     dance-single:
     :
     Medium:
     5:
     0.230,0.252,0.097,0.123,0.000:
0000
0000
0000
0000
,
0000
0000
0000
0000
,
0000
0000
0000
0000
,
0000
0000
0000
0000
,
0000
0001
0100
0010
,
0000
1000
0001
0000
0100
0000
0010
0000
,
0000
0100
1000
0000
0010
0000
0001
0000
,
0000
1000
0100
0001
0000
1000
0100
0001
,
0000
0000
0020
0000
0030
0000
0001
1000
,
0001
0000
0200
0000
0320
0000
1030
0100
,
1000
0000
0002
0000
0023
0000
0130
0001
,
0100
1000
0110
0001
,
0110
0000
2000
0000
3000
0000
0001
0100
,
0001
0000
0020
0000
2030
0000
3100
0010
,
0100
0000
2000
0000
3002
0000
0103
1000
,
0100
0001
0110
1000
,
0110
0001
0100
0010
,
0000
1000
0100
0000
0001
0000
0100
0000
,
0000
0010
0001
0000
1000
0000
0100
0000
,
0000
0001
0100
1000
0000
0001
0100
1000
,
0000
0010
0100
0000
0001
0000
1000
0000
,
0000
0001
0010
0000
0100
0000
1000
0000
,
0000
0001
1000
0000
0010
0000
0100
0000
,
0000
1000
0100
0001
0000
1000
0100
0001
,
0000
0000
1001
0000
0000
0000
0001
0001
,
0001
0000
1100
0000
0000
0000
0100
0100
,
0100
0000
1010
0000
0000
0000
1000
1000
,
1000
0020
0230
0302
,
1003
0000
0110
0000
0000
0000
0001
0001
,
0001
0000
1100
0000
0000
0000
0010
0010
,
0010
0000
1001
0000
0000
1000
0100
0000
,
0000
0001
0100
0000
1001
0000
0010
0001
,
0100
2000
0000
0000
0000
0000
3000
0000
,
0000
0001
0100
0000
0010
0000
1000
0000
,
0000
0001
0010
0000
0001
0000
1000
0000
,
0000
0010
0100
0000
0001
0000
1000
0000
,
0000
0001
0100
1000
0000
0001
0100
1000
,
0000
0010
0100
0000
0001
0000
1000
0000
,
0000
0100
1000
0000
0010
0000
0100
0000
,
0000
0010
1000
0000
0100
0000
0001
0000
,
0000
1000
0100
0001
0000
1000
0100
0001
;

//---------------dance-single - ----------------
#NOTES:
     dance-single:
     :
     Hard:
     6:
     0.312,0.344,0.194,0.220,0.000: // measure 1
0000
0000
0000
0000
,  // measure 2
0000
0000
0000
0000
,  // measure 3
0000
0000
0000
0000
,  // measure 4
0000
0000
0000
0000
,  // measure 5
0000
0000
0100
0010
1000
0001
2000
0000
,  // measure 6
3000
0000
0001
0100
0001
0010
0002
0000
,  // measure 7
0003
0000
0100
0001
1000
0100
2000
0000
,  // measure 8
3000
0010
0100
0001
0000
0010
0100
0001
,  // measure 9
0000
0000
1001
0000
0110
0000
0001
0010
,  // measure 10
1000
0100
0001
0000
0110
0000
0010
0001
,  // measure 11
0100
1000
0010
0000
1001
0000
0100
0001
,  // measure 12
0010
1000
0200
0000
0320
0000
0032
0000
,  // measure 13
2003
0000
3100
0100
0000
0000
0001
1000
,  // measure 14
0010
1000
0001
0001
0000
0000
0100
0010
,  // measure 15
1000
0100
2000
0000
3020
0000
0130
0001
,  // measure 16
0100
0010
1000
0010
0100
0001
1000
0010
,  // measure 17
0100
0001
0010
0100
1000
0001
2000
0000
,  // measure 18
3000
0000
0010
0100
0001
0010
0002
0000
,  // measure 19
0003
0000
0100
0001
1000
0010
2000
0000
,  // measure 20
3000
0010
0001
1000
0000
0010
0001
1000
,  // measure 21
0000
0000
1000
0001
0100
0010
0200
0000
,  // measure 22
0300
0000
0010
1000
0100
0001
0200
0000
,  // measure 23
0300
0000
1000
0010
1000
0001
2000
0000
,  // measure 24
3000
0010
0100
0001
0000
0010
0100
0001
,  // measure 25
0000
0000
1001
0000
0101
0000
0010
1000
,  // measure 26
0100
0010
1001
0000
1100
0000
0100
1000
,  // measure 27
0100
0010
0011
0000
1100
0000
1000
0001
,  // measure 28
0100
0010
2000
0000
3200
0000
0320
0000
,  // measure 29
0032
0000
0103
0000
1001
0000
0010
1000
,  // measure 30
0001
0100
0110
0000
1001
0000
0100
0010
,  // measure 31
1000
0100
1001
0000
0000
0100
1001
0000
,  // measure 32
0000
0100
1001
0010
0110
0100
1001
0010
,  // measure 33
0110
1001
0000
0000
0000
0000
0000
0000
,  // measure 34
0000
0000
0100
0010
1000
0001
2000
0000
,  // measure 35
3000
0000
0001
0100
0001
0010
0002
0000
,  // measure 36
0003
0000
0100
0001
1000
0100
2000
0000
,  // measure 37
3000
0010
0100
0001
0000
0010
0100
0001
,  // measure 38
0000
0000
0010
1000
0100
0010
0200
0000
,  // measure 39
0300
0000
1000
0010
0001
0100
0002
0000
,  // measure 40
0003
0000
0100
0010
1000
0001
2000
0000
,  // measure 41
3000
0010
1000
0100
0000
0010
1000
0100
,  // measure 42
0110
1001
0000
0000
0000
0000
0000
0000
;

//---------------dance-double - ----------------
#NOTES:
     dance-double:
     :
     Easy:
     2:
     0.120,0.144,0.088,0.071,0.000:
00000000
00000000
00000000
00000000
,
00000000
00000000
00000000
00000000
,
00000000
00000000
00000000
00000000
,
00000000
00000000
00000000
00000000
,
00000000
00010000
00000000
00001000
,
00000000
00000100
00000000
00000001
,
00000000
00000100
00000000
00001000
,
00000000
00011000
00000000
00011000
,
00000000
01000000
00000000
10000000
,
01000000
00100000
00000000
10000000
,
01000000
00010000
00000000
00010000
,
00001000
00000100
00000000
00000001
,
00000000
00000010
00000000
00000001
,
00000010
00000100
00000000
00000001
,
00000100
00001000
00000000
00001000
,
00010000
01000000
00000000
10000000
,
00000000
00100000
00000000
10000000
,
00000000
00010000
00000000
00100000
,
00000000
00001000
00000000
00010000
,
00000000
00011000
00000000
00011000
,
00000000
00001000
00000000
00000100
,
00000000
00000001
00000000
00000010
,
00000000
00000100
00000000
00001000
,
00000000
00011000
00000000
00011000
,
00000000
00200000
00000000
00000000
,
00300000
02000000
00000000
00000000
,
03000000
00020000
00000000
00000000
,
00030000
00001000
00001000
00000100
,
00000100
00000020
00000000
00000000
,
00000030
00000200
00000000
00000000
,
00000300
00002000
00003000
00020000
,
00030000
01000000
01000000
10000000
,
20000000
00000000
00000000
30000000
,
00000000
00100000
00000000
10000000
,
00000000
00010000
00000000
00100000
,
00000000
00001000
00000000
00010000
,
00000000
00011000
00000000
00011000
,
00000000
00001000
00000000
00000100
,
00000000
00000001
00000000
00000010
,
00000000
00000100
00000000
00001000
,
00000000
00011000
00000000
00011000
;

//---------------dance-double - ----------------
#NOTES:
     dance-double:
     :
     Medium:
     5:
     0.202,0.234,0.000,0.123,0.000:
00000000
00000000
00000000
00000000
,
00000000
00000000
00000000
00000000
,
00000000
00000000
00000000
00000000
,
00000000
00000000
00000000
00000000
,
00000000
00000100
00000001
00000100
,
00000000
00000010
00001000
00000100
,
00000000
00010000
00001000
00010000
,
00000000
01000000
10000000
00100000
00000000
01000000
10000000
00100000
,
00000000
00000000
00020000
00000000
00030000
00000000
00001000
00000100
,
00000010
00000000
00002000
00000000
00003000
00000000
00000001
00000010
,
00000100
00000000
00000020
00000000
00000030
00000000
00000001
00000100
,
00001000
00010000
01000000
00010000
,
00001000
00000000
00000200
00000000
00000300
00000000
00001000
00010000
,
01000000
00000000
00020000
00000000
00030000
00000000
01000000
10000000
,
00100000
00000000
02000000
00000000
03000000
00000000
00100000
01000000
,
00010000
00200000
00302000
00023000
,
00030200
00001300
00000010
00001000
,
00000000
00000001
00000010
00000100
,
00000000
00010000
00001000
00010000
,
00000000
00001000
00000100
00000010
00000000
00001000
00000100
00000010
,
00000000
00000100
00000001
00000100
,
00000000
00000010
00001000
00000100
,
00000000
00010000
00001000
00010000
,
00000000
01000000
10000000
00100000
00000000
01000000
10000000
00100000
,
00000000
00000000
10000000
00000000
00100000
00000000
01000000
00010000
,
01000000
00000000
00001000
00000000
00010000
00000000
00000100
00001000
,
00000100
00000000
00000010
00000000
00000001
00000000
00000100
00000010
,
00000100
00000002
00000203
00002300
,
00023000
00000000
00130000
00000000
10000000
00000000
00010000
01000000
,
00010000
00000000
00100000
00000000
01000000
00000000
00010000
00001000
,
00010000
00000000
00000100
00000000
00000000
00000001
00000100
00000000
,
00000000
00000001
00000100
00000000
00000001
00000000
00000100
00001000
,
00010000
01000000
00000000
00000000
00000000
00000000
00000000
00000000
,
00000000
00100000
01000000
00100000
,
00000000
10000000
00100000
00010000
,
00000000
00001000
00010000
00001000
,
00000000
00000100
00000001
00000010
00000000
00000100
00000001
00000010
,
00000000
00000001
00001000
00000001
,
00000000
00000100
00001000
00010000
,
00000000
01000000
00100000
01000000
,
00000000
10000000
01000000
00100000
00000000
10000000
01000000
00100000
;

//---------------dance-double - ----------------
#NOTES:
     dance-double:
     :
     Hard:
     6:
     0.301,0.290,0.168,0.009,0.000:
00000000
00000000
00000000
00000000
,
00000000
00000000
00000000
00000000
,
00000000
00000000
00000000
00000000
,
00000000
00000000
00000000
00000000
,
00000000
00000000
00000100
00001000
00010000
00001000
00000100
00000000
,
00000100
00000010
00001000
00000100
00000001
00000100
00000010
00000000
,
00000000
00000100
00010000
00001000
00000100
00001000
00010000
00000000
,
00000000
00101000
00010000
00001000
00000000
00101000
00010000
00001000
,
00000000
00000000
01010000
00000000
00000000
00000000
00100000
10000000
,
00100000
00010000
00100000
01000000
00100000
00000000
01000000
00010000
,
00100000
00001000
00010000
00000100
00001000
00000000
00000010
00000100
,
00000001
00000010
00000100
00000000
00000101
00000000
00001100
00000000
,
00010100
00000000
00001000
00000000
00000000
00001000
01000000
00010000
,
01000000
00001000
00010000
00001000
00000000
01000000
00100000
10000000
,
01000000
00100000
00010000
01000000
00000000
00000000
00100000
10000000
,
01000000
00100000
01000000
10000000
00100000
00010000
00001000
00000010
,
00000001
00000100
00001000
00000100
00000010
00000100
00001000
00000000
,
00000001
00000010
00000100
00000001
00000010
00000100
00001000
00000000
,
00010000
00001000
01000000
00010000
01000000
00001000
00010000
00000000
,
00000000
00010100
00001000
00010000
00000000
00010100
00001000
00010000
,
00000000
00000000
00010000
00100000
01000000
00100000
00010000
00000000
,
00100000
10000000
01000000
00010000
01000000
00100000
01000000
00000000
,
00010000
00001000
00000100
00000010
00001000
00000100
00000010
00000000
,
00000000
00000101
00000010
00000100
00000000
00000101
00000010
00000100
,
00000000
00000000
00000002
00000000
00000000
00000000
00001003
00000100
,
00010000
00001000
00100000
00000000
00000000
00000000
00010000
00100000
,
00001000
00010000
00000100
00000000
00000000
00000000
00001000
00000100
,
00010000
00001000
00100000
00000000
00110000
00000000
01100000
00000000
,
11000000
00000000
01000000
00000000
00000000
10000000
00100000
01000000
,
00010000
00100000
00001000
00000000
00100000
00001000
00010000
00000100
,
00001000
00000100
00000010
00000000
00000000
00000001
00001000
00000000
,
00000000
00000001
00001000
00000100
00000010
00000001
00000100
00001000
,
00010000
01001000
00000000
00000000
00000000
00000000
00000000
00000000
,
00000000
00000000
01000000
00100000
00010000
00100000
01000000
00000000
,
00100000
00001000
00010000
00001000
00000100
00001000
00010000
00000000
,
00000010
00001000
00000100
00001000
00000001
00000010
00000000
00000000
,
00000000
00001001
00000100
00001000
00000000
00001001
00000100
00001000
,
00000000
00000000
00010000
00001000
00000100
00001000
00010000
00000000
,
00100000
00010000
01000000
00100000
10000000
01000000
00100000
00000000
,
01000000
00001000
00010000
00001000
01000000
00010000
00100000
00000000
,
00000000
00101000
00010000
00001000
00000000
00101000
00010000
00001000
,
00010000
00010100
00000000
00000000
00000000
00000000
00000000
00000000
;
