#TITLE:violently car;
#SUBTITLE:;
#ARTIST:sampling masters MEGA;
#TITLETRANSLIT:;
#SUBTITLETRANSLIT:;
#ARTISTTRANSLIT:;
#CREDIT:;
#BANNER:violently car-bn.png;
#BACKGROUND:violently car-bg.png;
#LYRICSPATH:;
#CDTITLE:;
#MUSIC:18 - sampling masters MEGA - Violently Car.mp3;
#OFFSET:-0.120;
#SAMPLESTART:35.292;
#SAMPLELENGTH:12.000;
#SELECTABLE:YES;
#BPMS:0.000=170.000,163.000=194.000,251.000=220.000,283.000=250.000,315.000=280.000,347.000=300.000;
#STOPS:;
#BGCHANGES:;

//---------------dance-single - ----------------
#NOTES:
     dance-single:
     :
     Easy:
     6:
     0.395,0.438,0.114,0.073,0.000:
0000
0000
0000
0000
,
0000
0000
0000
0000
,
0000
0000
0000
1000
,
0010
1000
0010
0100
,
0001
1000
0100
1000
,
0001
0100
0001
2002
,
0000
0000
0000
3003
,
0000
0000
0000
0000
,
0000
0000
0000
0001
,
0100
0000
0001
0000
0100
0010
1000
0000
,
0100
0000
1000
0000
0010
0100
0001
0000
,
1000
0000
0100
0000
1000
0001
1000
0000
,
0001
0000
0010
0000
0100
0010
0001
0000
,
1000
0000
0001
0000
0100
0001
0100
0000
,
0001
0000
0100
0000
0010
1000
0100
0000
,
1000
0001
1000
2002
,
0000
0000
3003
1000
,
0010
1000
0010
0000
0100
0000
0001
0000
,
1000
0100
0010
0000
0001
0000
0100
0000
,
1000
0100
0001
0000
0010
0000
0100
0000
,
0010
0001
1000
0000
0100
0000
1000
0000
,
0001
0100
0001
0000
0100
0000
0010
0000
,
1000
0100
0010
0000
0001
0000
1000
0000
,
0100
1000
0100
0000
1000
0000
2002
0000
,
0000
0000
3003
1000
,
1000
0100
0100
0010
,
0010
0001
0101
0001
,
0001
0100
0100
0010
,
0010
1000
1100
1000
,
0001
0100
0001
1000
,
0010
0100
0110
0001
,
0100
1000
0100
0101
,
0000
0000
0000
1000
,
0100
1000
1000
0010
,
0100
0101
0101
0001
,
0100
0001
1000
0100
,
1000
1010
1010
0010
,
0100
0001
1000
0100
,
1000
1100
1100
1000
,
0001
0100
0001
2000
,
0000
0000
0000
3001
,
1000
0001
0000
0000
0001
0000
0100
0000
,
0001
0100
0000
0000
0001
0000
1000
0000
,
0100
1000
0000
0000
0100
0000
1000
0000
,
0001
0100
0000
0000
0001
0000
1000
0000
,
0100
1000
0100
0010
,
0001
0100
0001
0100
,
0010
0010
1000
0100
,
1000
0001
1000
0001
,
0100
0100
0001
0010
,
0001
0100
0100
0001
,
1000
0100
1000
1000
,
0001
0010
0100
0010
,
0001
1000
0001
2000
,
0000
0000
0000
3001
,
0100
0100
0001
0010
,
0010
0100
0010
0001
,
0001
1000
0100
0100
,
1000
1000
0001
1000
,
0001
0100
0010
1000
,
0100
0100
1000
0001
,
1000
0010
0100
0002
,
0000
0000
0000
1003
,
0000
0001
0000
1000
,
0000
0001
0001
0001
,
0000
1000
0000
0001
,
0000
0100
0100
0100
,
0000
0010
0000
0100
,
0000
0010
0010
1000
,
0100
0001
0100
1000
,
0000
0001
0000
1000
,
0000
0100
0000
1000
,
0000
0010
0000
0001
,
0000
0010
0000
1000
,
0000
0100
0000
0100
,
0000
0010
0000
0001
,
0000
1000
0000
0001
,
0100
1000
0100
0001
,
0010
1000
0010
0001
,
0001
0001
0000
1000
,
0000
1000
0000
0100
,
0100
0100
0000
1000
,
0000
0010
0000
0100
,
0100
0100
0000
0001
,
0000
1000
0000
0001
,
0100
1000
0100
0001
,
0010
1000
0010
0001
,
0000
1000
0000
0100
,
0000
1000
0000
1000
,
0000
0001
0000
0001
,
0000
1000
0000
1000
,
0000
0100
0000
0100
,
0000
0010
0000
0001
,
0100
1000
0100
0001
,
0100
1000
0100
0001
,
0100
1000
0100
0001
,
0100
1000
0000
0000
,
0000
0000
0000
1001
;

//---------------dance-single - ----------------
#NOTES:
     dance-single:
     :
     Medium:
     8:
     0.535,0.677,0.114,0.057,0.000:
0000
0000
0000
0000
,
0000
0000
0000
0000
,
0000
0000
0000
0000
0000
0000
0001
1000
,
0100
1000
0001
0100
0001
1000
0100
1000
,
0001
0100
0001
1000
0100
1000
0010
0100
,
0001
1000
0100
1000
0001
1000
0002
0000
,
0020
0003
2030
0000
3200
0000
0301
0000
,
0000
0000
0000
0000
,
0000
0000
0000
0000
0000
0000
1000
0010
,
1000
0010
0100
0001
1000
0100
1000
0010
,
0100
0001
0100
0010
1000
0100
1000
0001
,
1000
0010
0100
0001
1000
0100
1000
0001
,
0100
0010
1000
0100
0010
0001
1000
0100
,
1000
0100
1000
0010
0100
0001
1000
0100
,
0010
0001
1000
0100
1000
0010
0100
0001
,
1000
0100
1000
0001
1000
0001
0200
0000
,
0000
0000
0000
0000
0000
0000
0310
1000
,
0100
1000
0010
0100
0001
0010
0001
0100
,
0010
0100
0001
1000
0100
0001
0100
1000
,
0010
0100
0001
1000
0100
1000
0010
0100
,
0001
1000
0100
1000
0010
0100
0001
0010
,
0100
0010
0001
1000
0100
1000
0001
0100
,
0010
1000
0100
0010
0001
1000
0100
0001
,
0100
1000
0010
0100
0001
1000
0002
0000
,
0000
0000
0000
1003
,
0100
1000
0000
1000
0000
0010
0100
0000
,
0001
1000
0100
0010
,
0001
0000
0100
0010
0000
0010
0000
0010
,
1000
0100
1000
0001
,
1000
0000
0100
1000
0000
0001
0000
0100
,
0001
1000
0100
0000
1000
0000
0010
0000
,
0100
0000
0001
0010
0000
0010
0000
0010
,
0001
1000
0100
1000
,
0010
0000
0100
0001
0000
1000
0000
0100
,
0000
1000
0010
0000
0100
0000
0001
0000
,
1000
0000
0100
1000
0000
0001
0000
1000
,
0000
0010
0100
0000
0001
0000
1000
0000
,
0100
0000
1000
0010
0000
0100
0000
0001
,
0000
1000
0100
0000
1000
0000
0001
0000
,
1000
0000
0010
0100
0000
0001
0000
0000
,
0000
0000
0000
1000
,
0100
1000
0000
0000
0001
0000
0100
0000
,
0001
0100
0000
0000
0001
0000
1000
0000
,
0100
1000
0000
1000
0001
0000
1000
0000
,
0001
0100
0000
0100
0001
0000
1000
0000
,
1100
0001
0101
1000
,
1100
0001
0101
1000
,
0100
0000
1000
0010
0000
0010
0100
0000
,
0100
0001
0000
1001
0000
0000
0001
0000
,
1000
0000
0100
1000
0000
1000
0010
0000
,
0010
0100
0000
0101
0000
0000
0001
0000
,
0010
0000
0001
0010
0000
0010
0100
0000
,
0100
0010
0000
0110
0000
0000
0010
0000
,
1000
0000
0100
1000
0000
1000
0001
0000
,
1001
0010
1010
0010
,
0100
0000
0001
0100
0010
0000
1000
0000
,
0100
0010
0000
0010
0000
0000
0001
0000
,
1000
0000
0100
1000
0100
0000
1000
0000
,
0001
0100
0000
0100
0000
0000
0001
0000
,
1000
0000
0001
1000
0001
0000
1000
0000
,
0010
0100
0000
0100
0000
0000
0001
0000
,
1000
0100
1000
0020
,
0000
0000
0000
1030
,
0001
0000
1000
0100
0000
1000
0000
1000
,
0000
1000
0001
1000
,
0001
0000
0100
0001
0000
1000
0000
1000
,
0000
0100
1000
0001
,
0100
0000
0001
1000
0000
1000
0000
0000
,
0100
1000
0010
0101
,
0000
1001
0000
1010
,
0000
1001
0000
1000
,
0100
0000
1000
0010
0000
0000
0010
0000
,
0010
0000
1000
0000
0000
0100
1000
0000
,
0001
0000
0100
0001
0000
0001
0000
1000
,
0000
0100
1000
0010
,
0100
0000
0001
1000
0000
0100
0000
1000
,
0000
0010
0100
0001
,
1000
0100
1000
0001
,
0001
1000
0001
1000
,
0100
0000
1000
0100
0000
1000
0000
0000
,
0010
0100
0001
1000
,
0100
0000
1000
0001
0000
1000
0000
0001
,
0000
0100
0010
0100
,
0010
0000
1000
0010
0000
1000
0000
0100
,
0000
1000
0001
1000
,
1000
0100
0100
0010
,
0010
0001
0001
1000
,
0100
0000
1000
0001
0000
1000
0000
0000
,
0001
0100
0010
1000
,
0100
1000
0000
0001
0000
1000
0000
0001
,
0000
0000
0100
0001
0000
0100
0000
0010
,
0000
1000
0000
0010
0000
0100
0000
0001
,
0000
1000
0100
1000
,
1000
0001
0001
1000
,
1000
0001
1000
0001
,
0100
0010
1000
0100
,
0010
0001
0000
0000
,
0000
0000
0000
1001
;

//---------------dance-single - Copied from Copied f----------------
#NOTES:
     dance-single:
     Copied from Copied f:
     Hard:
     10:
     0.789,0.837,0.709,0.090,0.061:
0000
0000
0000
0000
,
0000
0000
0000
0000
,
0000
0000
0000
0000
0000
0000
1000
0100
,
0010
0001
0010
0100
1000
0100
1000
0010
,
0100
0001
1000
0010
0100
0001
1000
0001
,
1000
0000
0000
0100
0000
0000
0010
0000
0000
0001
0000
0000
0010
0000
0000
0100
0000
0000
1000
0000
0001
0000
0100
0000
,
0001
1000
0010
1000
0001
0100
0001
1000
0010
0100
0000
0000
,
0000
0000
0000
0000
,
0000
0000
0000
0000
0000
0000
1000
0100
,
0010
0001
0100
0010
1000
0010
1000
0010
,
0100
0001
1000
0001
0100
0001
0100
0010
,
1000
0100
0010
0001
0100
0001
0100
0010
,
0100
0001
0100
0010
1000
0100
0010
0001
,
1000
0001
1000
0001
0100
0010
1000
0100
,
1000
0100
1000
0100
0010
0001
0010
0100
,
0010
0100
0010
0001
0100
0010
2000
0000
,
0000
0000
0000
0000
3001
0000
0000
0000
1000
0001
1000
0001
1000
0000
0100
0000
,
0010
0100
0010
0001
0100
1000
0100
0010
,
1000
0010
1000
0100
0001
0100
0010
0001
,
0010
0001
0100
0010
0001
0010
0001
0010
,
1000
0010
1000
0001
1000
0001
1000
0100
,
0010
0001
1000
0010
0001
0010
0100
0001
,
1000
0001
1000
0001
0010
1000
0010
0100
,
1000
0001
0100
0010
1000
0100
0020
0000
,
0000
0030
0110
1001
,
0001
0100
0000
0001
0000
0100
0000
0010
,
1000
0001
0011
0000
1010
0000
0101
0000
,
0010
0000
1000
0001
0000
0100
0000
0010
,
0000
0010
1000
0000
1001
0000
1010
0000
,
0001
0000
1000
0010
0000
0100
0000
0001
,
0010
0100
1100
0000
0110
0000
0101
0000
,
0001
0100
0000
0010
0100
0010
1000
0000
,
0000
1000
0001
0000
1001
0000
0001
0100
,
1000
0100
0000
0100
0000
0010
1000
0001
,
0100
0001
0100
0000
0101
0000
1000
0100
,
0001
0100
0000
0010
0000
0010
0001
1000
,
0001
1000
0100
0000
1100
0000
0001
0010
,
1000
0010
0000
0100
0000
0100
1000
0100
,
0010
0001
1000
0000
1001
0000
1000
0001
,
0100
0010
0000
1000
0100
1000
1100
0000
,
0101
0000
0000
0000
1000
0100
1000
0100
0010
0001
0010
0001
1000
0000
0100
0000
,
1000
2001
0000
0001
3001
0000
0100
0010
,
1000
2100
0000
0100
3100
0000
0010
0001
,
0100
0102
0000
0010
0013
0000
0001
0100
,
0010
0210
0000
0010
0310
1000
0100
0010
,
0011
0000
0010
0100
0110
0000
0011
0000
,
1100
0000
1001
1001
1100
1100
1001
0000
,
1001
0000
0001
0011
0000
0001
0101
0000
,
0001
1001
0000
1001
0000
0000
1000
0100
,
1100
0000
0010
1010
0000
1000
1001
0000
,
1000
1100
0000
1001
0000
0000
0001
0100
,
0110
0000
0010
1010
0000
0001
0101
0000
,
0001
1001
0000
1001
0000
0000
0010
1000
,
1001
0000
0010
0110
0000
0001
2000
0000
,
3200
0302
0203
1300
,
0001
0000
0100
0100
0110
0000
0010
0000
,
1000
1010
0000
0101
0000
0000
0001
0000
,
0100
0000
0010
0010
0110
0000
1000
0001
,
1000
1001
0000
1001
0000
0000
0101
0000
,
0011
0000
0100
0100
0101
0000
1001
0000
,
0001
0101
0000
0110
0000
0000
1001
0000
,
0011
0000
1000
1000
1001
0000
0001
1000
,
0001
0000
1000
0000
0001
0000
0000
0000
0001
0000
0100
0001
0100
0000
0010
0000
,
1000
0000
0100
0010
0000
0101
0000
0110
,
0000
0010
1000
0100
0010
0001
0100
0000
,
0110
0000
0010
1000
0000
1010
0000
1001
,
0000
1000
0001
0010
0100
1000
0010
0000
,
1010
0000
0010
0100
0000
0101
0000
0110
,
0000
0001
1000
0010
0100
0001
1000
0100
,
0001
0100
1000
0010
0001
0010
1000
0100
,
0001
0100
1000
0010
0100
0010
0100
0000
,
0101
0000
0010
1000
0000
1010
0000
0101
,
0000
0001
0010
0100
1000
0010
0100
0000
,
1001
0000
0001
0010
0000
0110
0000
1001
,
0000
0001
0100
0001
1000
0100
1000
0000
,
0101
0000
1000
0001
0000
0101
0000
1010
,
0000
1000
0100
1000
0001
0100
0001
0100
,
1000
0100
0001
0010
1000
0010
0001
0100
,
0010
1000
0100
0010
0001
1000
0001
0000
,
1100
0000
0010
1000
0000
1010
0000
1001
,
0000
0001
0100
0010
1000
0100
0010
0000
,
0001
0000
0100
0001
0000
0010
0000
0011
,
0000
0001
1000
0100
1000
0001
0100
0000
,
0101
0000
0100
0001
0000
0100
0000
0010
,
0000
1000
0010
1000
0001
1000
0100
1000
,
0010
0100
0001
1000
0010
0100
0001
1000
,
0001
0100
0001
0100
0010
1000
0001
0000
,
0101
0000
0010
1000
0000
0010
0000
0100
,
0000
0010
0100
0010
1000
0001
0100
0000
,
0101
0000
0001
0100
0000
0010
0000
1000
,
0000
0010
1000
0100
0010
0001
1000
0000
,
1001
0000
0010
0100
0000
0001
0000
1010
,
0000
0010
1000
0100
0010
0001
1000
0010
,
0100
0001
1000
0100
0010
0001
1000
0010
,
0001
0010
1000
0100
0001
0100
1000
0010
,
1000
0010
1000
0001
0010
0001
1000
0001
,
0010
0100
1000
0010
0200
0000
0000
0000
,
0000
0000
0000
0310
;

//---------------dance-single - Copied from ----------------
#NOTES:
     dance-single:
     Copied from:
     Beginner:
     3:
     0.268,0.359,0.024,0.024,0.000: // measure 1
0000
0000
0000
0000
,  // measure 2
0000
0000
0000
0000
,  // measure 3
0000
0000
0000
1000
,  // measure 4
1000
0001
0001
1000
,  // measure 5
1000
0001
0001
1000
,  // measure 6
1000
0001
0001
2002
,  // measure 7
0000
0000
0000
3003
,  // measure 8
0000
0000
0000
0000
,  // measure 9
0000
0000
0000
0001
,  // measure 10
0100
0001
0001
0001
,  // measure 11
0000
1000
0100
1000
,  // measure 12
1000
1000
0000
0010
,  // measure 13
0100
0010
0010
0010
,  // measure 14
0000
0100
0001
1000
,  // measure 15
1000
1000
0000
0100
,  // measure 16
1000
0001
0001
0001
,  // measure 17
0000
0000
0000
0001
,  // measure 18
1000
0000
1000
0100
,  // measure 19
0010
0000
0100
0010
,  // measure 20
0001
0000
0001
0001
,  // measure 21
0001
0000
1000
0100
,  // measure 22
1000
0000
0010
0010
,  // measure 23
0010
0000
0100
0001
,  // measure 24
0100
0000
0001
2000
,  // measure 25
0000
0000
0000
3001
,  // measure 26
0000
0001
0000
1000
,  // measure 27
0000
1000
0000
0010
,  // measure 28
0000
0010
0000
0010
,  // measure 29
0000
0100
0100
0001
,  // measure 30
0000
0001
0000
0001
,  // measure 31
0000
0010
0010
0001
,  // measure 32
0000
0001
0000
1000
,  // measure 33
0000
0000
0000
1000
,  // measure 34
0000
1000
0000
0100
,  // measure 35
0000
0100
0100
0001
,  // measure 36
0000
0001
0000
0100
,  // measure 37
0000
1000
1000
0010
,  // measure 38
0000
0100
0000
0010
,  // measure 39
0000
0100
0100
0001
,  // measure 40
0000
0010
0000
0001
,  // measure 41
0000
0000
0000
1000
,  // measure 42
0000
0100
0000
1000
,  // measure 43
0000
0001
0000
1000
,  // measure 44
0000
0001
0000
0010
,  // measure 45
0000
0001
0000
0100
,  // measure 46
0100
0001
0001
1000
,  // measure 47
1000
0100
0100
1000
,  // measure 48
0010
0000
0010
0000
,  // measure 49
0010
0000
0100
0000
,  // measure 50
0100
0000
0001
0000
,  // measure 51
0001
0000
0010
0000
,  // measure 52
0010
0000
0010
0000
,  // measure 53
0001
0000
0001
0000
,  // measure 54
1000
0000
1000
0001
,  // measure 55
0001
0001
0001
0100
,  // measure 56
0000
0100
0000
0100
,  // measure 57
0000
0001
0000
0001
,  // measure 58
0000
0010
0000
0010
,  // measure 59
0000
0001
0000
0001
,  // measure 60
0000
0100
0000
0100
,  // measure 61
0000
0010
0000
0010
,  // measure 62
0000
1000
0000
1000
,  // measure 63
0000
0000
0000
1000
,  // measure 64
0000
1000
0000
1000
,  // measure 65
0000
1000
0000
0001
,  // measure 66
0000
0001
0000
0001
,  // measure 67
0000
0010
0000
0010
,  // measure 68
0000
0001
0000
0001
,  // measure 69
0000
0100
0000
0001
,  // measure 70
0001
0001
0000
1000
,  // measure 71
1000
1000
0000
0010
,  // measure 72
0000
0010
0000
0100
,  // measure 73
0000
0100
0000
0001
,  // measure 74
0001
0001
0000
0100
,  // measure 75
0000
0100
0000
0010
,  // measure 76
0010
0010
0000
1000
,  // measure 77
0000
1000
0000
0100
,  // measure 78
0000
0100
0000
0100
,  // measure 79
0100
0100
0000
0010
,  // measure 80
0000
0010
0000
0001
,  // measure 81
0000
0001
0000
0100
,  // measure 82
0000
0100
0000
0010
,  // measure 83
0000
0010
0000
1000
,  // measure 84
0000
1000
0000
0001
,  // measure 85
0000
0001
0000
1000
,  // measure 86
0000
1000
0000
1000
,  // measure 87
1000
1000
1000
0001
,  // measure 88
0000
0001
0000
0001
,  // measure 89
0000
0100
0000
0100
,  // measure 90
0000
0100
0000
0010
,  // measure 91
0000
0010
0000
1000
,  // measure 92
0000
0100
0000
1000
,  // measure 93
0000
0001
0000
1000
,  // measure 94
1000
1000
0000
0001
,  // measure 95
0001
0001
0000
1000
,  // measure 96
1000
1000
0000
0001
,  // measure 97
0000
1001
0000
0000
,  // measure 98
0000
0000
0000
1001
;
